#TITLE:Hastur;
#SUBTITLE:;
#ARTIST:Usao;
#TITLETRANSLIT:;
#SUBTITLETRANSLIT:;
#ARTISTTRANSLIT:;
#GENRE:;
#CREDIT:;
#BANNER:Hastur-bn.png;
#BACKGROUND:Hastur-bg.png;
#LYRICSPATH:;
#CDTITLE:;
#MUSIC:Hastur.mp3;
#OFFSET:0.100000;
#SAMPLESTART:83.159882;
#SAMPLELENGTH:12.000000;
#SELECTABLE:YES;
#BPMS:0.000000=118.010002
;
#STOPS:
;
#BGCHANGES:;
#KEYSOUNDS:;
#ATTACKS:;

//---------------dance-single - ----------------
#NOTES:
     dance-single:
     :
     Hard:
     14:
     0.752990,0.765460,0.285369,0.134291,0.998791,578.000000,34.000000,16.000000,0.000000,0.000000,0.000000,0.752990,0.765460,0.285369,0.134291,0.998791,578.000000,34.000000,16.000000,0.000000,0.000000,0.000000:
// measure 0
0000
0000
0000
0000
,  // measure 1
2002
0000
0000
0000
,  // measure 2
3003
0000
0000
0000
,  // measure 3
0000
0000
0010
1000
0000
0001
1000
0001
1000
0010
0100
0001
0100
0000
0000
0000
,  // measure 4
0000
0000
0010
1000
0000
0001
0100
0001
1000
0000
0010
0000
0100
0000
0010
0000
,  // measure 5
1001
0000
0100
0001
0000
1000
0010
1000
0001
0001
0000
0100
0000
0010
0100
0010
,  // measure 6
1000
1000
0000
0001
0000
1000
0100
1000
0010
0010
0000
0100
0000
0001
1000
0100
,  // measure 7
1000
1000
0000
0001
0000
1000
0100
1000
0010
0010
0000
1000
0000
0001
1000
0001
,  // measure 8
0100
0100
0000
0010
0000
0100
0001
0100
1000
1000
0000
0100
0000
0010
1000
0001
,  // measure 9
1000
0000
0001
0001
0000
1000
0010
1000
0001
0100
0100
0010
0010
0000
0000
0000
,  // measure 10
0000
0000
1000
1000
0000
0001
0100
0001
1000
0100
0100
0010
0010
0000
0000
0000
,  // measure 11
0000
0000
0100
0100
0000
1000
0010
0001
0010
1000
1000
0001
0001
0000
0000
0000
,  // measure 12
0120
0000
2030
0000
3002
0000
0100
0103
,  // measure 13
0010
0000
0100
0001
1000
0010
0100
1000
0100
0001
0010
0100
0001
0100
1000
0010
,  // measure 14
0001
1000
0100
0010
0100
1000
0001
0010
1000
0100
1000
0001
0100
0010
0100
0100
,  // measure 15
1001
0000
0010
1000
0001
0010
0100
1000
0001
0010
1000
0010
0001
0100
1000
0100
,  // measure 16
0001
0010
0100
1000
0001
0010
0100
1000
0010
0100
0001
1000
0010
0100
0010
0100
,  // measure 17
1001
0000
0001
0001
0000
1000
0010
1000
0001
0100
0100
0010
0010
0000
0000
0000
,  // measure 18
0000
0000
1000
1000
0000
0001
0100
0001
1000
0100
0100
0010
0010
0000
0000
0000
,  // measure 19
0000
0000
0100
0100
0000
1000
0010
0001
0010
1000
1000
0001
0001
0000
0000
0000
,  // measure 20
2001
0000
3010
0000
0102
0000
1003
0000
0010
0000
0200
0000
0020
0330
1001
0000
,  // measure 21
0010
1000
0100
1000
0001
0100
0000
0010
0000
0010
1000
0001
0000
0100
0010
0000
,  // measure 22
1000
0000
0001
0100
0000
0100
0001
0100
0000
0010
1000
0100
0000
0010
0001
1000
,  // measure 23
2002
3003
0001
0010
0100
1000
0000
0100
0000
0100
0010
0001
0000
1000
0010
0000
,  // measure 24
0100
0000
0001
0010
0000
0100
0000
1000
0000
1000
0001
0100
0002
0000
1003
0000
,  // measure 25
1001
0000
0001
0001
0101
0100
0010
1000
0100
0010
0001
1000
1010
0000
0000
0000
,  // measure 26
0000
0000
0100
0100
0110
0010
1000
0001
1000
0100
0010
0001
0011
0000
0000
0000
,  // measure 27
0000
0000
0010
0010
0011
0001
1000
0100
0010
0100
1000
0001
1001
0000
0000
0000
,  // measure 28
0000
0000
1000
1000
1100
0100
0010
0001
0010
0100
0010
0001
1001
0000
0000
0000
,  // measure 29
0010
0010
1000
1000
,  // measure 30
0001
0001
0100
0100
,  // measure 31
1000
1000
0010
0010
,  // measure 32
0001
0001
1000
1000
,  // measure 33
0001
0000
0100
0000
0001
0000
1000
0010
1000
0000
0001
0000
0100
0000
0010
0000
,  // measure 34
1000
0000
0001
0000
0010
0000
0100
1000
0100
0000
0010
0000
0001
0000
0010
0000
,  // measure 35
1000
0000
0010
0000
0001
0000
1000
0001
1000
0000
0100
0000
0001
0000
0100
0000
,  // measure 36
1000
0000
0010
0000
0100
0000
0001
0100
0001
0000
1000
0000
0001
0000
0100
0000
,  // measure 37
0110
0000
0010
0100
0000
0001
0010
0100
0010
0001
0010
0100
0010
0000
0001
0000
,  // measure 38
0101
0000
0100
0010
0000
1000
0100
0010
0100
1000
0100
0010
0100
0000
1000
0000
,  // measure 39
1010
0000
0010
0100
0000
0001
0100
1000
0100
0001
0010
1000
0010
0000
0001
0000
,  // measure 40
1001
0100
1010
0010
0101
0010
2000
3001
,  // measure 41
1001
0000
1000
0000
0100
0001
0100
1000
0000
1000
0001
0100
0000
0010
1000
0000
,  // measure 42
0010
0000
0010
0000
1000
0001
1000
0010
0000
0010
0100
0010
0000
1000
0001
0000
,  // measure 43
1000
0000
0100
0010
0001
0000
0001
1000
0010
0100
1000
0100
0001
0000
1000
0000
,  // measure 44
0010
0100
0001
0100
0000
0100
0010
1000
0000
0001
0100
0000
0010
0000
1000
0000
,  // measure 45
1001
0000
0001
0000
0010
1000
0010
0001
0000
0001
1000
0010
0000
0100
0001
0000
,  // measure 46
0100
0000
0100
0000
0001
1000
0001
0100
0000
0100
0010
0100
0000
0001
1000
0000
,  // measure 47
0001
0000
0010
0100
1000
0000
1000
0001
0100
0010
0001
0010
1000
0000
0001
0000
,  // measure 48
0100
0010
1000
0010
0000
0010
0100
0001
0000
1000
0010
0000
0100
0000
0001
0000
,  // measure 49
0011
0000
0010
0000
0001
0000
1000
0010
0200
0000
1000
0000
0010
0000
0001
0000
,  // measure 50
1300
0010
0100
0001
0000
0001
0100
0010
0000
0010
1000
0001
0010
0100
1000
0010
,  // measure 51
0110
0000
0001
0000
1000
0000
0001
0100
0020
0000
0001
0000
0100
0000
1000
0000
,  // measure 52
0031
0100
0010
1000
0000
1000
0010
0100
0000
0100
0001
1000
0100
0010
0001
1000
,  // measure 53
0001
0000
1000
0010
1010
0000
0100
0001
0010
0001
1000
0000
0101
0000
0001
1000
,  // measure 54
0010
1000
0001
0000
1001
0000
1000
0001
0010
0100
1000
0000
1100
0000
0100
0010
,  // measure 55
0001
1000
0001
0000
0101
0000
0100
0010
1000
0000
1000
0000
1001
0000
0001
0100
,  // measure 56
0010
0100
0001
0010
0100
1000
0010
0100
0001
0010
0100
1000
0010
0100
0001
0020
,  // measure 57
0030
0000
0000
0000
;

//---------------dance-single - ----------------
#NOTES:
     dance-single:
     :
     Medium:
     12:
     0.520379,0.501783,0.251796,0.109112,0.318942,391.000000,30.000000,13.000000,0.000000,0.000000,0.000000,0.520379,0.501783,0.251796,0.109112,0.318942,391.000000,30.000000,13.000000,0.000000,0.000000,0.000000:
0000
0000
0000
0000
,
2002
0000
0000
0000
,
3003
0000
0000
0000
,
0000
0000
0001
1000
0000
0000
0010
0000
1000
0000
0001
0000
0100
0000
0000
0000
,
0000
0000
0010
0100
0000
0000
0001
0000
1000
0000
0100
0000
0010
0000
0001
0000
,
1001
0000
0000
0100
0000
0100
0010
0000
1000
0000
0000
0001
0000
0001
1000
0000
,
0100
0000
0000
0010
0000
0010
0001
0000
1000
0000
0000
0001
0000
0001
0010
0000
,
0100
0000
0000
0010
0000
0010
0001
0000
1000
0000
0000
0001
0000
0001
1000
0000
,
0010
0000
0000
1000
0000
1000
0010
0000
0100
0000
0000
0010
0000
0010
1000
0000
,
0001
0000
1000
0001
0000
0000
0100
0000
0010
0000
0100
0000
0100
0000
0000
0000
,
0000
0000
0001
0100
0000
0000
0010
0000
1000
0000
0001
0000
0001
0000
0000
0000
,
0000
0000
1000
0010
0000
0000
0100
0000
0001
0000
1000
0000
1000
0000
0000
0000
,
0002
0000
2003
0000
3002
0000
0103
0100
,
0010
1000
0001
0010
0100
1000
0001
1000
,
0010
0000
0100
0000
0010
0000
1000
0000
0001
0000
1000
0000
0010
0100
0010
0000
,
1001
0000
0010
0000
1000
0010
1000
0000
0001
0100
0001
0000
1000
0010
1000
0000
,
0001
0010
0001
1000
0100
1000
0010
0100
,
1001
0000
0100
0010
0000
0000
1000
0000
0001
0000
0100
0000
0100
0000
0000
0000
,
0000
0000
0001
0010
0000
0000
0001
0000
1000
0000
0010
0000
0010
0000
0000
0000
,
0000
0000
1000
0100
0000
0000
0010
0000
0001
0000
1000
0000
1000
0000
0000
0000
,
2001
0000
3200
0000
0320
0000
0031
1001
,
1000
0000
0010
0000
1000
0001
0000
0001
0000
1000
0000
1000
0000
0010
0100
0000
,
0001
0000
0000
1000
0000
0010
0000
0010
0000
0000
0000
0100
0000
0100
0000
0000
,
2002
0000
3003
0000
0010
0100
0000
0001
0000
0000
0000
1000
0000
1000
0000
0000
,
0010
0000
0000
0100
0000
0001
0000
1000
0000
0000
0100
0000
0010
0000
0001
0000
,
1001
1000
1010
0010
0100
0001
0101
0000
,
0000
1000
1010
0010
0100
0001
1001
0000
,
0000
0100
0101
0001
0010
0100
1100
0000
,
0000
1000
1001
0001
0100
0010
1001
0000
,
0001
0001
1000
1000
,
0010
0010
1000
1000
,
0001
0001
0010
0010
,
0100
0100
1000
1000
,
0001
0010
0100
1000
1000
0010
0100
0001
,
1000
0001
1000
0010
0010
0100
0001
1000
,
0001
0010
0100
1000
1000
0010
0100
0010
,
0100
0001
1000
0010
0010
1000
0001
1000
,
1001
0000
0010
0100
0000
0000
0010
0000
1000
0000
0001
0000
1000
0000
0000
0000
,
0101
0000
0001
1000
0000
0000
0010
0000
0100
0000
0001
0000
1000
0000
0000
0000
,
1100
0000
1000
0100
0000
0000
0010
0000
0001
0000
0010
0000
0100
0000
0000
0000
,
0120
0000
0032
0000
2003
0000
3010
0010
,
1001
0000
0100
0000
0010
0000
0010
1000
0000
1000
0000
0001
0000
0001
0100
0000
,
0100
0000
0010
0000
1000
0000
1000
0100
0000
0100
0000
0010
0000
0010
0001
0000
,
1000
0001
1000
0010
0100
0001
0010
0000
,
0001
1000
0000
1000
0000
0010
0000
0010
0000
0000
0100
0000
0001
0000
1000
0000
,
1001
0000
0001
0000
0100
0000
0100
0001
0000
0001
0000
1000
0000
1000
0010
0000
,
0010
0000
0100
0000
0001
0000
0001
0010
0000
0010
0000
0100
0000
0100
1000
0000
,
0001
1000
0001
0100
0010
1000
0100
0000
,
1000
0001
0000
0001
0000
0100
0000
0100
0000
0000
0010
0000
1000
0000
0001
0000
,
0101
0000
0100
0000
0100
0000
0001
1000
0001
0000
0100
0000
0100
0000
0010
0000
,
1000
0100
0010
0100
1000
0001
0010
0100
,
1010
0000
0010
0000
0010
0000
1000
0001
1000
0000
0010
0000
0010
0000
0100
0000
,
0001
0010
0100
0010
0001
1000
0010
0100
,
0010
1000
1001
0001
0100
0010
0110
0100
,
0001
1000
1001
0001
0010
0100
1100
1000
,
0100
0010
0011
0001
1000
0010
1010
1000
,
0001
0000
0100
0000
0010
0000
1000
0001
1000
0000
0010
0000
0100
0000
0001
1000
;

//---------------dance-single - ----------------
#NOTES:
     dance-single:
     :
     Easy:
     4:
     0.333330,0.358416,0.218223,0.125898,0.100718,237.000000,26.000000,15.000000,0.000000,0.000000,0.000000,0.333330,0.358416,0.218223,0.125898,0.100718,237.000000,26.000000,15.000000,0.000000,0.000000,0.000000:
0000
0000
0000
0000
,
1001
0000
0000
0000
,
0000
0000
0000
0000
,
0000
0010
0000
0000
0100
0000
0001
0000
,
0000
1000
0000
0000
0010
0000
0100
0000
,
1001
0000
0000
0010
1000
0000
0000
0010
,
0100
0000
0000
0001
0010
0000
0000
0100
,
1000
0000
0000
0100
0010
0000
0000
0001
,
1000
0000
0000
0100
0010
0000
0000
0001
,
1000
0100
0000
0010
0000
0100
0100
0000
,
0000
0010
0000
0001
0000
1000
1000
0000
,
0000
0001
0000
0100
0000
0010
0010
0000
,
0120
0000
0100
0000
0130
0000
0010
0010
,
0100
0001
1000
0010
,
0100
0000
0001
0000
1000
0000
0001
0001
,
0101
1000
0010
0100
,
0001
0000
0010
0000
0100
0000
1000
1000
,
1100
0010
0000
0001
0000
0100
0100
0000
,
0000
0010
0000
1000
0000
0001
0001
0000
,
0000
0100
0000
0001
0000
1000
1000
0000
,
0002
2003
3020
0230
,
0301
0000
0000
0000
1000
0000
0000
0010
0000
0000
0000
0010
0000
0000
0100
0000
,
0001
0000
0000
1000
0000
0000
0000
0001
0000
0000
0000
0100
0000
0000
0000
0000
,
0200
0000
0300
0000
0010
0000
0000
0001
0000
0000
0000
1000
0000
0000
0000
0000
,
0010
0000
0000
0100
0000
0000
0000
0001
0000
0000
1000
0000
0000
0000
0010
0000
,
0110
1001
0000
1010
,
0000
1001
0000
0101
,
0000
0011
0000
1100
,
0000
1001
0000
1001
,
0001
1000
0001
1000
,
0010
0100
0010
0100
,
0001
0010
0001
1000
,
0100
1000
0010
0100
,
0001
0001
1000
1000
,
0010
0010
0100
0100
,
0001
0001
0010
0010
,
0100
0100
1000
1000
,
1001
0001
0000
0100
0000
0001
1000
0000
,
0000
0100
0000
0010
0000
0001
0010
0000
,
0000
0001
0000
1000
0000
0010
0100
0000
,
1002
0000
1000
0000
1000
0000
0103
0100
,
2002
0000
3003
0000
0010
0000
0010
0000
0000
1000
0000
0000
0000
0001
0000
0000
,
0100
0000
0000
0000
0001
0000
0000
1000
0000
0000
0000
0100
0000
0000
0010
0000
,
0100
0010
0001
1000
,
0010
0000
0000
1000
0000
0001
0000
0001
0000
0000
0100
0000
0000
0000
0100
0000
,
1001
0000
0000
0000
0100
0000
0100
0000
0000
0001
0000
0000
0000
1000
0000
0000
,
0010
0000
0000
0000
1000
0000
0000
0001
0000
0000
0000
0010
0000
0000
0100
0000
,
0010
0100
1000
0001
,
0100
0000
0000
0001
0000
1000
0000
1000
0000
0000
0010
0000
0000
0000
0010
0000
,
0101
0000
0100
0001
0001
1000
1000
0010
,
0020
2030
3002
0103
,
1010
0000
0010
1000
1000
0001
0001
0100
,
0200
0302
2003
3001
,
0010
0011
0001
1001
,
0010
0101
0001
1010
,
1000
0010
0110
0000
0100
0000
1001
0000
,
0001
0000
0001
0000
0001
0000
0001
0000
0001
0000
0001
0000
1000
0000
0001
0100
;

//---------------dance-single - ----------------
#NOTES:
     dance-single:
     :
     Beginner:
     2:
     0.194243,0.190945,0.159471,0.050359,0.000000,137.000000,19.000000,6.000000,0.000000,0.000000,0.000000,0.194243,0.190945,0.159471,0.050359,0.000000,137.000000,19.000000,6.000000,0.000000,0.000000,0.000000:
0000
0000
0000
0000
,
0100
0000
0000
0000
,
0000
0000
0000
0000
,
0000
0010
0000
0000
0000
0000
0001
0000
,
0000
1000
0000
0000
0000
0000
0100
0000
,
0100
0000
0000
0010
0000
0000
0000
0010
,
0000
0000
0000
0001
0000
0000
0000
0100
,
0000
0000
0000
0100
0000
0000
0000
0001
,
0000
0000
0000
0100
0000
0000
0000
0001
,
0000
0100
0000
0000
0000
0100
0100
0000
,
0000
0010
0000
0000
0000
1000
1000
0000
,
0000
0001
0000
0000
0000
0010
0010
0000
,
0100
0100
0100
0010
,
0100
0000
1000
0000
,
0100
0000
1000
0000
,
0101
0000
0010
0000
,
0001
0000
0100
0000
,
1100
0000
0000
0001
0000
0000
0100
0000
,
0000
0010
0000
0000
0000
0000
0001
0000
,
0000
0100
0000
0000
0000
0000
1000
0000
,
0001
0100
0010
1000
,
0001
0000
1000
0000
0000
0000
0000
0100
,
0001
0000
0100
0000
,
0200
0300
0010
0000
0000
0100
0000
0000
,
0010
0000
0000
0000
0000
1000
0000
0010
,
0000
1001
0000
1001
,
0000
0110
0000
0110
,
0000
1001
0000
1001
,
0000
0110
0000
0110
,
0001
0000
1000
0000
,
0010
0000
0100
0000
,
0001
0000
0010
0000
,
0100
0000
1000
0000
,
0001
0000
1000
0000
,
0010
0000
0100
0000
,
0001
0000
0010
0000
,
0100
0000
1000
0000
,
1001
0000
0000
0000
0000
0001
0001
0000
,
0000
0100
0000
0000
0000
0001
0001
0000
,
0000
1000
0000
0000
0000
0010
0010
0000
,
2002
0000
0000
0000
0000
3003
0100
0000
,
0100
0000
0010
0000
0000
0100
0000
0000
,
0100
0000
0001
0000
1000
0000
0000
0010
,
0000
0010
0000
1000
,
0000
0010
0000
0000
0000
0100
0000
0100
,
0100
0000
0100
0000
0000
0010
0000
0000
,
0010
0000
1000
0000
0001
0000
0000
0100
,
0000
0100
0000
0001
,
0100
0000
0000
0000
0000
0010
0000
0100
,
0100
0100
0000
0010
,
0020
0000
0130
0100
,
0101
0010
0000
0100
,
0200
0000
0301
0000
,
1000
0011
0000
0011
,
0000
1100
0000
1100
,
0000
0110
0000
0110
,
0002
0000
0000
0000
0000
0000
1003
1000
;
