#TITLE:APOCALYPSE;
#SUBTITLE:~dirge of swans~;
#ARTIST:Zektbach;
#TITLETRANSLIT:;
#SUBTITLETRANSLIT:;
#ARTISTTRANSLIT:;
#GENRE:;
#CREDIT:;
#BANNER:;
#BACKGROUND:APOCALYPSE ~dirge of swans~-jacket.png;
#LYRICSPATH:;
#CDTITLE:;
#MUSIC:APOCALYPSE ~dirge of swans~.mp3;
#OFFSET:1.060000;
#SAMPLESTART:56.860001;
#SAMPLELENGTH:12.000000;
#LASTBEATHINT:0.170000;
#SELECTABLE:YES;
#BPMS:0.000000=170.000000
;
#STOPS:
;
#BGCHANGES:0.000=APOCALYPSE ~dirge of swans~.avi=1.000=0=0=0=StretchNoLoop====,
99999=-nosongbg-=1.000=0=0=0 // don't automatically add -songbackground-
;
#KEYSOUNDS:;
#ATTACKS:;

//---------------dance-single - ----------------
#NOTES:
     dance-single:
     :
     Hard:
     15:
     0.850400,0.931743,0.572536,0.439205,0.572536,630.000000,73.000000,56.000000,0.000000,0.000000,0.000000,0.850400,0.931743,0.572536,0.439205,0.572536,630.000000,73.000000,56.000000,0.000000,0.000000,0.000000:
0000
0000
0000
0000
,
0000
0010
1000
0001
0100
0101
0000
0000
,
0000
0010
0100
1000
0100
0110
0000
0000
,
0000
0010
1000
0100
0010
1001
0000
0000
,
0000
1000
0010
0100
0001
0011
0000
0000
,
0001
1000
0020
0000
0000
0000
0000
0000
0000
0000
0000
0000
0000
0000
0000
0000
,
0000
0000
0000
0000
,
0000
0000
0000
0000
,
0000
0000
0000
0000
,
0030
1001
0100
0010
1000
0200
0000
0310
,
0000
0101
0001
0010
0110
0100
1000
0010
,
0100
1001
1000
0010
0100
0002
0000
0103
,
0000
0110
0100
1000
1100
0100
0001
0010
,
0100
1001
0010
0100
0001
2000
0000
3100
,
0000
1010
0010
0100
1001
0001
0100
0001
,
0010
1100
0001
1000
0100
0010
0001
0010
,
0100
1001
0100
0010
0202
0000
0000
0000
,
0303
0000
0010
0000
1000
0001
0010
0001
1000
0000
0120
0000
0000
0000
1030
0000
,
0000
0101
1000
0010
1010
0100
0001
0010
,
0100
0000
1000
0000
0001
0010
0100
0010
0001
0000
2100
0000
0000
0000
3001
0000
,
0000
0101
1000
0010
0110
0100
0001
0100
,
0010
0000
0001
0000
1000
0100
0001
0100
0010
0000
0210
0000
0000
0000
0301
0000
,
0000
1001
0010
0100
0110
0010
1000
0001
,
0010
1001
1000
0001
1000
0010
1000
0001
,
0100
0000
0010
0000
0000
0010
0000
0000
0100
0000
0001
1000
0010
0100
0001
0100
,
0010
0000
0100
0001
1000
0000
0010
0100
0001
0000
1000
0010
0100
0000
0001
0010
,
0100
0000
1000
0100
1000
0000
0001
0010
0001
0000
0100
0010
0100
0000
0010
1000
,
0001
0000
0100
0010
1000
0000
0001
0010
0100
0000
0010
0001
1000
0000
0010
0100
,
0010
0000
1000
0001
1000
0000
0001
0100
0001
0000
1000
0010
1000
0000
0001
0100
,
1000
0000
0001
0010
1000
0000
0010
1000
0100
0000
0010
0001
0100
0000
0010
1000
,
0100
0000
0010
0001
0010
0000
0100
1000
0100
0000
0010
0001
1000
0000
0100
1000
,
0010
0000
0100
0001
0100
0000
0010
1000
0010
0000
0100
0001
0100
0000
0010
1000
,
0100
0000
0010
0001
1000
0000
0010
1000
0001
0000
1000
0100
1000
0000
0010
0100
,
0010
0000
0100
0001
1000
0000
0010
0100
0001
0000
1000
0100
0010
0000
0100
1000
,
0001
0000
0100
0010
0100
0000
0001
1000
0001
0000
1000
0010
1000
0000
0001
0100
,
0001
0000
1000
0010
0001
0000
1000
0100
0001
0000
0100
0001
0010
0000
0100
1000
,
0010
0000
0100
0001
0010
0000
0100
1000
0100
0000
0010
0001
0010
0000
0100
1000
,
0001
0000
0010
0001
0100
0000
0010
1000
0010
0000
0010
0100
0010
0000
0010
1000
,
0010
0000
0100
0010
0100
0000
0100
0001
0100
0000
0100
0010
0100
0000
0001
1000
,
0010
2002
0000
0000
3003
0220
0000
0000
,
0330
0000
0010
1000
0010
1000
0001
0100
0001
0100
0010
1000
0100
0010
0001
0010
,
0100
1000
0001
0000
0202
0000
0000
0000
0303
0000
1001
0000
2020
0000
0000
0000
,
3030
0110
2002
0000
3003
0110
0202
0000
,
0303
1010
0220
0000
0330
0101
2002
0000
,
3003
1010
2200
0000
3300
1001
1002
0000
,
0000
0000
0000
1003
0000
0010
0000
0100
0000
0001
0000
0010
0000
1000
0000
0010
0000
0001
0000
0100
0000
1000
0000
0100
,
0000
0001
0000
0010
0000
0100
0000
0001
0000
0100
0000
1000
0000
0010
0000
0001
0000
1000
0000
0100
0000
0001
0000
0010
,
0000
0100
0000
1001
0000
0100
0000
0010
0000
1000
0000
0001
0000
1000
0000
0010
0000
0001
0000
1000
0000
0100
0000
0001
,
0000
0010
0000
0100
0000
0010
0000
0001
0000
0100
0000
1000
0000
0100
0000
0010
0000
1000
0000
0001
0000
0100
0000
0010
,
0000
0100
0000
0120
0000
0000
0000
0000
0000
2030
0000
0000
0000
0000
0000
3002
0000
0000
0000
0000
0000
0103
0000
0000
,
0001
1000
0020
0000
0000
0000
2030
0000
0000
0000
3200
0000
0000
0000
0310
0000
,
0000
0012
0000
2003
0000
3200
0000
0310
,
0001
0000
0000
1000
0000
0000
0100
0000
0000
0000
0000
0000
0000
0000
0000
0000
0000
0000
1001
0000
0000
0000
0000
0000
0000
0000
0000
0000
0000
0000
1000
0000
0000
0000
0010
0000
0000
0000
0010
0000
0000
0000
0100
0000
0000
0000
0001
0000
,
0000
0001
0000
1000
0000
0000
0000
0000
0000
0010
0000
0000
0100
0000
0000
0101
0000
0000
0000
0000
0000
0001
0000
0000
,
1000
1100
0000
0100
0010
1001
0000
0100
,
0010
1010
0000
0100
0001
0101
0000
0100
,
0010
1010
0000
1000
0010
0101
0000
0010
,
0100
1010
0000
0010
0100
1001
0000
0001
,
0010
0110
0000
0100
1000
1100
0000
0100
,
0010
0011
0000
0001
1000
1100
0000
0010
,
0100
0101
0000
0001
0010
1001
0000
0001
,
1000
1020
0000
0000
0000
0200
0000
0030
,
0000
0002
0000
0300
0000
2000
0000
0003
,
0000
0200
0000
3000
0000
0020
0000
0300
,
0000
0002
0000
0030
0000
1003
0000
0000
,
0000
0000
0000
0000
0000
2001
0000
0000
,
0000
3020
0000
0000
0000
0130
0000
0110
,
0000
1002
0000
0000
0000
0020
0000
0003
,
0000
0200
0000
0030
0000
2000
0000
0300
,
0000
0000
3001
1000
0010
0000
0100
0001
0010
0000
0100
1000
0100
0000
0010
0001
,
1000
0000
0010
0100
0001
0000
1000
0010
1000
0000
0001
0100
0001
0000
0100
0010
,
1000
0000
0001
0010
0100
0000
1000
0100
0010
0000
0001
1000
0010
0000
0100
0010
,
1000
0000
0100
1000
0010
0000
0100
0001
1000
0000
0010
0100
0010
0000
0100
0001
,
0010
0000
0100
1000
0100
0000
0010
0001
1000
0000
0010
1000
0010
0000
0100
0001
,
0100
0000
0010
1000
0010
0000
0100
0001
1000
0000
0010
0100
0001
0000
1000
0100
,
0010
1001
1000
0010
0100
0001
0010
0100
,
1000
0000
0100
0000
0010
0000
0001
0000
1000
0000
1010
0000
0000
0100
0001
0000
,
0100
0010
1000
0100
0010
0001
0010
0100
,
1000
1001
0001
1000
0100
0010
0001
0010
,
0100
1001
0100
0010
1000
0001
0100
1000
,
0100
0101
0010
0100
1000
0100
0010
1000
,
0100
1010
0010
0001
0010
1000
0001
0100
,
0010
0000
1000
0001
1000
0010
0100
0010
0100
0001
0010
0001
1000
0100
0010
0100
,
1000
0001
0200
0000
0000
0000
0000
0000
0000
0000
0020
0000
0000
0000
0300
0000
,
0000
2000
0000
0030
0000
0002
0000
3003
,
0000
2002
0000
0000
0000
0000
0000
0000
,
0000
0000
0000
0000
,
0000
0000
0000
0000
,
3003
0000
0000
0000
;

//---------------dance-single - ----------------
#NOTES:
     dance-single:
     :
     Medium:
     12:
     0.542284,0.552144,0.219603,0.533321,0.011764,388.000000,28.000000,68.000000,0.000000,0.000000,0.000000,0.542284,0.552144,0.219603,0.533321,0.011764,388.000000,28.000000,68.000000,0.000000,0.000000,0.000000:
0000
0000
0000
0000
,
0000
0000
0000
0000
,
0000
0000
0000
0000
,
0000
0000
0000
0000
,
0000
0000
0000
0000
,
0001
1000
0002
0000
0000
0000
0000
0000
0000
0000
0000
0000
0000
0000
0000
0000
,
0000
0000
0000
0000
,
0000
0000
0000
0000
,
0000
0000
0000
0000
0000
0000
0000
0003
,
0000
1001
0000
0010
0000
2000
0000
3002
,
0000
0203
0000
1300
0000
0100
0000
0010
,
0000
1010
0000
1000
0000
0002
0000
0203
,
0000
0320
0000
1030
0000
0001
0000
0100
,
0000
0110
0000
0010
0000
2000
0000
3002
,
0000
0203
0000
0310
1000
0001
0000
0100
,
0000
0010
1000
0010
0000
0100
0000
0010
,
1000
0001
0000
1000
0001
0200
0000
0000
,
0000
0310
1000
0001
1000
0020
0000
0130
,
0000
0110
0000
0010
1000
0001
0010
0100
,
1000
0100
0010
0001
1000
0200
0000
0310
,
0000
0011
0000
0001
1000
0010
0100
0010
,
1000
0001
0100
1000
0100
0020
0000
0130
,
0000
1001
0000
0100
0010
0000
0000
0110
,
0000
1000
0001
1000
0001
1000
0001
1000
,
0001
0000
0100
0000
0000
0010
0000
0000
0100
0000
0010
0000
0100
0000
0001
1000
,
0001
1000
0001
0100
0000
0001
1000
0100
,
0000
1000
0010
0100
0000
0101
0000
0011
,
0000
1002
0000
0103
0000
1000
0100
0010
,
0000
0001
0100
0010
0000
1010
0000
0110
,
0000
2001
0000
3100
0000
0010
0001
0100
,
0000
0010
1000
0100
0000
1000
0001
0010
,
0000
0100
0000
1000
0010
0000
0010
2000
,
0000
3001
0000
0101
0000
1000
0000
1001
,
0000
0100
0000
0110
0000
0010
1000
0010
,
0000
0100
0001
0010
0000
0100
1000
0001
,
0000
1000
0010
0100
0000
0001
1000
0010
,
0000
0010
0100
0001
0000
0020
0000
0032
,
0000
2003
0000
3010
0000
0010
0100
0010
,
0000
0100
0010
1000
0001
0100
0010
1000
,
0001
0202
0000
0000
0303
2020
0000
0000
,
3030
0001
0001
0100
0100
0010
0010
1000
,
1000
0001
0002
0000
0000
0103
0200
0000
,
0000
1300
2000
0000
0000
3010
0020
0000
,
0000
1030
2000
0000
0000
3100
0200
0000
,
0000
0301
0002
0000
0000
1003
2000
0000
,
0000
3001
0100
0001
0000
1000
0010
1000
,
0000
0001
0010
1000
0000
0001
0100
1000
,
0000
1000
0010
0100
0000
0010
0100
0001
,
0000
0001
1000
0010
0100
0010
0100
0010
,
1000
0020
0000
0230
0000
0320
0000
1030
,
0001
0200
0000
0302
0000
2003
0000
3010
,
0000
1002
0000
0203
0000
0302
0000
1003
,
0010
1000
0000
0001
0000
0100
0001
0010
,
0100
1000
0000
0010
0100
0001
0000
1000
,
0001
0100
0000
0010
1000
0001
0000
0100
,
0010
1000
0000
0100
0010
0001
0000
0100
,
0010
1000
0000
0001
0100
0001
0000
1000
,
0100
1000
0000
0010
0100
0010
0000
1000
,
0001
0010
0000
0100
1000
0001
0000
0010
,
0100
1000
0000
0001
1000
0100
0000
1000
,
0001
0010
0000
0100
1000
0010
0000
0100
,
0001
2000
0000
0000
0000
3020
0000
0000
,
0000
0230
0000
0000
0000
0302
0000
0000
,
0000
2003
0000
0000
0000
3002
0000
0000
,
0000
0203
0000
0000
0000
0310
0000
0000
,
0000
0000
0000
0000
0000
2001
0000
0000
,
0000
3020
0000
0000
0000
0230
0000
0320
,
0000
2030
0000
0000
0000
3002
0000
0000
,
0000
0203
0000
0000
0000
0320
0000
0000
,
0000
0130
0010
0100
0000
0001
1000
0010
,
0000
0100
0001
1000
0000
0001
0100
0010
,
0000
1000
0001
0100
0000
0001
0010
0100
,
0000
1000
0100
0010
0000
0001
0010
0100
,
0000
1000
0100
0010
0000
0001
1000
0001
,
0000
0100
0010
0100
0000
0010
1000
0001
,
1000
2001
0000
3010
0000
0102
0000
1003
,
0000
2100
0000
3010
0000
0210
0000
0000
,
0000
0301
1000
0001
0100
0010
1000
0010
,
0100
0110
0000
0100
0000
0020
0000
0130
,
0000
1001
0000
0010
0000
0100
0010
0100
,
0000
1001
0000
0100
0000
0020
0000
2030
,
0000
3001
0010
0001
0010
0001
1000
0010
,
1000
0010
1000
0001
0100
0001
0100
0010
,
1000
0020
0000
0000
0000
0230
0000
0000
,
0000
0302
0000
0000
0000
1003
0000
0000
,
0000
2002
0000
0000
0000
0000
0000
0000
,
0000
0000
0000
0000
,
0000
0000
0000
0000
,
3003
0000
0000
0000
;

//---------------dance-single - ----------------
#NOTES:
     dance-single:
     :
     Easy:
     7:
     0.384305,0.517635,0.015686,0.705866,0.000000,251.000000,2.000000,90.000000,0.000000,0.000000,0.000000,0.384305,0.517635,0.015686,0.705866,0.000000,251.000000,2.000000,90.000000,0.000000,0.000000,0.000000:
0000
0000
0000
0000
,
0000
0000
0000
0000
,
0000
0000
0000
0000
,
0000
0000
0000
0000
,
0000
0000
0000
0000
,
0001
2000
0000
0000
0000
0000
0000
0000
,
0000
0000
0000
0000
,
0000
0000
0000
0000
,
0000
0000
0000
0000
0000
0000
0000
3000
,
0000
0100
0000
0100
0000
0002
0000
2003
,
0000
3020
0000
0030
0000
0010
0000
0100
,
0000
0100
0000
0001
0000
2000
0000
3020
,
0000
0230
0000
0300
0000
1000
0000
0010
,
0000
0010
0000
0100
0000
0002
0000
2003
,
0000
3020
0000
0130
0000
0100
0000
0010
,
0000
0010
0000
1000
0000
1000
0000
0001
,
0000
0001
0000
0100
0000
0020
0000
0000
,
0000
0130
0000
0001
0000
0200
0000
0310
,
0000
0100
0000
0000
0000
0001
0000
0010
,
0000
0010
0000
0000
0000
0020
0000
0230
,
0000
1300
0000
0000
0000
0100
0000
0100
,
0000
1000
0000
0001
0000
0200
0000
0310
,
0000
0100
0000
0000
0100
0000
0000
0010
,
0000
0200
0000
0000
0000
0000
0000
0000
,
0000
0300
0000
0002
0000
2003
0000
3010
,
0000
0001
0000
0010
0000
1000
0000
0010
,
0000
0001
0000
0010
0000
1000
0000
0100
,
0000
2000
0000
3010
0000
0001
0000
0100
,
0000
0010
0000
1000
0000
0002
0000
0023
,
0000
0230
0000
0300
0000
1000
0000
1000
,
0000
0001
0000
0001
0000
0100
0000
0100
,
0000
0010
0000
0010
0000
0100
0000
0100
,
0000
0002
0000
0003
0000
1000
0000
1000
,
0000
0020
0000
0030
0000
0100
0000
0100
,
0000
0010
0000
0100
0000
0010
0000
1000
,
0000
0001
0000
0010
0000
1000
0000
0100
,
0000
0100
0000
1000
0000
0200
0000
2300
,
0000
3002
0000
0003
0000
0000
0000
0100
,
0000
0020
0000
0030
0000
1000
0000
0001
,
0000
2000
0000
0000
0000
3002
0000
0000
,
0000
2003
0000
3020
0000
0230
0000
0302
,
0000
1003
0010
0000
0000
1000
0001
0000
,
0000
0100
0010
0000
0000
0001
1000
0000
,
0000
0010
0100
0000
0000
0001
0010
0000
,
0000
0100
1000
0000
0000
0100
0010
0000
,
0000
2000
0000
3002
0000
0203
0000
0320
,
0000
2030
0000
3002
0000
0203
0000
0300
,
0000
2002
0000
0000
0000
0000
0000
3003
,
0000
0100
0000
0100
0000
0100
0000
0100
,
0000
0200
0000
0320
0000
0230
0000
0300
,
0000
0020
0000
2030
0000
3002
0000
2003
,
0000
3002
0000
0023
0000
0230
0000
1300
,
0000
0001
0000
1000
0000
0010
0000
0100
,
0000
0001
0000
0100
0000
1000
0000
0001
,
0000
0010
0000
0100
0000
1000
0000
0010
,
0000
0001
0000
0010
0000
1000
0000
0010
,
0000
0001
0000
1000
0000
1000
0000
0001
,
0000
0001
0000
0100
0000
0100
0000
0001
,
0000
0100
0000
0010
0000
1000
0000
0100
,
0000
0001
0000
1000
0000
0010
0000
0001
,
0000
0100
0000
0010
0000
0100
0000
0010
,
0000
0002
0000
0000
0000
0203
0000
0000
,
0000
0320
0000
0000
0000
2030
0000
0000
,
0000
3002
0000
0000
0000
2003
0000
0000
,
0000
3020
0000
0000
0000
0130
0000
0000
,
0000
0000
0000
0000
0000
0020
0000
0000
,
0000
0230
0000
0000
0000
0320
0000
0230
,
0000
0302
0000
0000
0000
2003
0000
0000
,
0000
3020
0000
0000
0000
0230
0000
0000
,
0000
0310
0000
0010
0000
2000
0000
0000
,
0000
3002
0000
0000
0000
0203
0000
0000
,
0000
0302
0000
0000
1000
0003
0000
0200
,
0000
0320
0000
0000
0000
2030
0000
0000
,
0000
0000
0000
0000
0000
3001
0000
0001
,
0000
0100
0000
0100
0000
0010
0000
0010
,
0000
0200
0000
0000
0000
0320
0000
0000
,
0000
2030
0000
0000
0000
3002
0000
0000
,
0000
1003
0000
1000
0000
0010
0000
0010
,
0000
0100
0000
0100
0000
0020
0000
0230
,
0000
0302
0000
0103
0000
0010
0000
0010
,
0000
1000
0000
1000
0000
0200
0000
0320
,
0000
0032
0000
1000
0000
1000
0000
1000
,
0000
1000
0000
1000
0000
1000
0000
1000
,
0000
2003
0000
0000
0000
3020
0000
0000
,
0000
0230
0000
0000
0000
0310
0000
0000
,
0000
2002
0000
0000
0000
0000
0000
0000
,
0000
0000
0000
0000
,
0000
0000
0000
0000
,
3003
0000
0000
0000
;

//---------------dance-single - ----------------
#NOTES:
     dance-single:
     :
     Beginner:
     3:
     0.318200,0.483126,0.015686,0.729395,0.000000,189.000000,2.000000,93.000000,0.000000,0.000000,0.000000,0.318200,0.483126,0.015686,0.729395,0.000000,189.000000,2.000000,93.000000,0.000000,0.000000,0.000000:
// measure 0
0000
0000
0000
0000
,  // measure 1
0000
0000
0000
0000
,  // measure 2
0000
0000
0000
0000
,  // measure 3
0000
0000
0000
0000
,  // measure 4
0000
0000
0000
0000
,  // measure 5
0000
0020
0000
0000
0000
0000
0000
0000
,  // measure 6
0000
0000
0000
0000
,  // measure 7
0000
0000
0000
0000
,  // measure 8
0000
0000
0000
0000
0000
0000
0000
0030
,  // measure 9
0000
1000
0000
0000
0000
2000
0000
3002
,  // measure 10
0000
0203
0000
0300
0000
0100
0000
0010
,  // measure 11
0000
0000
0000
1000
0000
0002
0000
0203
,  // measure 12
0000
0320
0000
0030
0000
0001
0000
0100
,  // measure 13
0000
0000
0000
0010
0000
2000
0000
3002
,  // measure 14
0000
0203
0000
0300
0000
0010
0000
0000
,  // measure 15
0000
0100
0000
0001
0000
0000
0000
1000
,  // measure 16
0000
0000
0000
0010
0000
0200
0000
0000
,  // measure 17
0000
0310
0000
0000
0000
0020
0000
0030
,  // measure 18
0000
0010
0000
0000
0000
1000
0000
0100
,  // measure 19
0000
0000
0000
0000
0000
0200
0000
0320
,  // measure 20
0000
0031
0000
0000
0000
0010
0000
0010
,  // measure 21
0000
0001
0000
0000
0000
0020
0000
0030
,  // measure 22
0000
0010
0000
0000
0010
0000
0000
0100
,  // measure 23
0000
0020
0000
0000
0000
0000
0000
0000
,  // measure 24
0000
0030
0000
2000
0000
3002
0000
0103
,  // measure 25
0000
1000
0000
0000
0000
0001
0000
0000
,  // measure 26
0000
1000
0000
0000
0000
0001
0000
0000
,  // measure 27
0000
0002
0000
0003
0000
1000
0000
0000
,  // measure 28
0000
0100
0000
0000
0000
2000
0000
3200
,  // measure 29
0000
0320
0000
0030
0000
0000
0000
0001
,  // measure 30
0000
0000
0000
1000
0000
0000
0000
0010
,  // measure 31
0000
0000
0000
0100
0000
0000
0000
0010
,  // measure 32
0000
2000
0000
3000
0000
0001
0000
0000
,  // measure 33
0000
0200
0000
0300
0000
0000
0000
0010
,  // measure 34
0000
0000
0000
0010
0000
0000
0000
0000
,  // measure 35
0000
1000
0000
0000
0000
0001
0000
0000
,  // measure 36
0000
0010
0000
0000
0000
0020
0000
0032
,  // measure 37
0000
2003
0000
3000
0000
0000
0000
0010
,  // measure 38
0000
0200
0000
0300
0000
0001
0000
1000
,  // measure 39
0000
0002
0000
0000
0000
2003
0000
0000
,  // measure 40
0000
3020
0000
2030
0000
3002
0000
0203
,  // measure 41
0000
0310
0010
0000
0000
1000
1000
0000
,  // measure 42
0000
0010
0010
0000
0000
0100
0100
0000
,  // measure 43
0000
0001
0001
0000
0000
1000
1000
0000
,  // measure 44
0000
0010
0010
0000
0000
0100
0100
0000
,  // measure 45
0000
0002
0000
0000
0000
0023
0000
0000
,  // measure 46
0000
2030
0000
0000
0000
3020
0000
0030
,  // measure 47
0000
2002
0000
0000
0000
0000
0000
3003
,  // measure 48
0000
0020
0000
0000
0000
0230
0000
0000
,  // measure 49
0000
0302
0000
2003
0000
3020
0000
0000
,  // measure 50
0000
0230
0000
0302
0000
2003
0000
3002
,  // measure 51
0000
2003
0000
3200
0000
0320
0000
0030
,  // measure 52
0000
1000
0000
0000
0000
0100
0000
0000
,  // measure 53
0000
1000
0000
0000
0000
0001
0000
0000
,  // measure 54
0000
0100
0000
0000
0000
0001
0000
0000
,  // measure 55
0000
1000
0000
0000
0000
0001
0000
0000
,  // measure 56
0000
1000
0000
0000
0000
0001
0000
0000
,  // measure 57
0000
1000
0000
0000
0000
0010
0000
0000
,  // measure 58
0000
0010
0000
0000
0000
0001
0000
0000
,  // measure 59
0000
1000
0000
0000
0000
0100
0000
0000
,  // measure 60
0000
0010
0000
0000
0000
0001
0000
0000
,  // measure 61
0000
0200
0000
0000
0000
0302
0000
0000
,  // measure 62
0000
0203
0000
0000
0000
0302
0000
0000
,  // measure 63
0000
2003
0000
0000
0000
3002
0000
0000
,  // measure 64
0000
0203
0000
0000
0000
0310
0000
0000
,  // measure 65
0000
0000
0000
0000
0000
0200
0000
0000
,  // measure 66
0000
0320
0000
0000
0000
0230
0000
0302
,  // measure 67
0000
2003
0000
0000
0000
3002
0000
0000
,  // measure 68
0000
0203
0000
0000
0000
0320
0000
0000
,  // measure 69
0000
0030
0000
0100
0000
0002
0000
0000
,  // measure 70
0000
2003
0000
0000
0000
3020
0000
0000
,  // measure 71
0000
2030
0000
0000
0001
3000
0000
0020
,  // measure 72
0000
0230
0000
0000
0000
0302
0000
0000
,  // measure 73
0000
0000
0000
0000
0000
2003
0000
0000
,  // measure 74
0000
3020
0000
0000
0000
0230
0000
0000
,  // measure 75
0000
0320
0000
0000
0000
0230
0000
0000
,  // measure 76
0000
0302
0000
0000
0000
2003
0000
0000
,  // measure 77
0000
3001
0000
0001
0000
0100
0000
0100
,  // measure 78
0000
0010
0000
0010
0000
0200
0000
0302
,  // measure 79
0000
2003
0000
3020
0000
0230
0000
0300
,  // measure 80
0000
0010
0000
0010
0000
0100
0000
0020
,  // measure 81
0000
2030
0000
0001
0000
0001
0000
0001
,  // measure 82
0000
0001
0000
0001
0000
0001
0000
0001
,  // measure 83
0000
3002
0000
0000
0000
0203
0000
0000
,  // measure 84
0000
0320
0000
0000
0000
0130
0000
0000
,  // measure 85
0000
2002
0000
0000
0000
0000
0000
0000
,  // measure 86
0000
0000
0000
0000
,  // measure 87
0000
0000
0000
0000
,  // measure 88
3003
0000
0000
0000
;
