#TITLE:The Middle;
#SUBTITLE:;
#ARTIST:Jimmy Eat World;
#TITLETRANSLIT:;
#SUBTITLETRANSLIT:;
#ARTISTTRANSLIT:;
#GENRE:;
#CREDIT:;
#BANNER:;
#BACKGROUND:;
#LYRICSPATH:;
#CDTITLE:;
#MUSIC:The Middle.ogg;
#OFFSET:-0.102521;
#SAMPLESTART:100.040833;
#SAMPLELENGTH:12.000000;
#SELECTABLE:YES;
#DISPLAYBPM:162.000000;
#BPMS:0.000000=162.110001
,32.000000=162.167999
;
#STOPS:
;
#BGCHANGES:;
#KEYSOUNDS:;
#ATTACKS:;

//---------------dance-single - ----------------
#NOTES:
     dance-single:
     :
     Medium:
     10:
     0.517090,0.466354,0.352761,0.283742,0.000000,389.000000,46.000000,37.000000,0.000000,0.000000,0.000000,0.517090,0.466354,0.352761,0.283742,0.000000,389.000000,46.000000,37.000000,0.000000,0.000000,0.000000:
// measure 0
0000
0000
0000
0000
,  // measure 1
0000
0000
0000
0000
,  // measure 2
0000
0000
0000
0000
,  // measure 3
0000
0000
0000
0000
,  // measure 4
0000
0000
0000
0000
,  // measure 5
0000
0000
0000
0000
,  // measure 6
0000
0000
0000
0000
,  // measure 7
0000
0000
0000
0010
,  // measure 8
1001
0000
1000
0000
0100
1000
0001
0000
,  // measure 9
0100
0000
0001
1000
0001
0000
0100
0000
,  // measure 10
0110
0000
0001
0000
0100
0001
0100
0000
,  // measure 11
0001
0000
0010
0000
0100
1000
0001
0000
,  // measure 12
0101
0000
0010
0000
1000
0100
1000
0000
,  // measure 13
0100
0000
0010
0000
0001
1000
0010
0000
,  // measure 14
0110
0000
1000
0000
0100
1000
0001
0000
,  // measure 15
0100
0000
0001
0000
0010
0001
1000
0000
,  // measure 16
0010
0000
1000
0000
0010
1000
0100
0000
,  // measure 17
1000
0000
0100
0000
0010
0001
0100
0000
,  // measure 18
0101
0000
0100
0000
0010
1000
0001
0000
,  // measure 19
0100
0000
0001
0000
0010
0100
1000
0000
,  // measure 20
1010
0000
0100
0000
0010
1000
0001
0000
,  // measure 21
1000
0000
0100
0000
0010
0100
1000
0000
,  // measure 22
0101
0000
0100
0000
0010
1000
0001
0000
,  // measure 23
0010
0001
0010
0001
1000
0001
0010
0000
,  // measure 24
0100
0000
2100
0000
3001
0000
0100
0010
,  // measure 25
0000
0010
0100
0000
0001
1000
0001
0000
,  // measure 26
0100
0000
0102
0000
1003
0000
0100
1000
,  // measure 27
0000
0001
1000
0001
0000
0100
0001
0100
,  // measure 28
0010
0000
2010
0000
3001
0000
0010
0001
,  // measure 29
0000
1000
0001
1000
0000
0100
1000
0100
,  // measure 30
0010
0012
1003
2010
,  // measure 31
3001
0000
0100
0010
0000
0010
0100
0010
,  // measure 32
0000
0000
2010
0000
3001
0000
1000
0001
,  // measure 33
0000
0001
1000
0000
0100
0010
0100
0000
,  // measure 34
0010
0000
0012
0000
1003
0000
0100
0010
,  // measure 35
0000
0001
1000
0001
0000
1000
0100
0010
,  // measure 36
0001
0000
0102
0000
1003
0000
0100
1000
,  // measure 37
0000
0010
1000
0010
0000
0100
0001
0100
,  // measure 38
0001
0102
1003
2100
,  // measure 39
3001
0000
0100
0000
0010
0100
0010
0000
,  // measure 40
2000
0100
0001
3010
,  // measure 41
0020
0001
0100
1030
,  // measure 42
0001
0000
0010
0100
0010
0000
0010
0100
,  // measure 43
1000
0001
0000
1001
0000
0000
0000
0000
,  // measure 44
0002
0010
1000
0100
,  // measure 45
0203
1000
0010
0301
,  // measure 46
1000
0100
1000
0000
0100
0010
0100
0000
,  // measure 47
0010
0001
0010
0001
0000
1000
0010
0000
,  // measure 48
0110
0000
0001
0100
0001
0000
0100
0000
,  // measure 49
0110
0000
1000
0100
1000
0000
0100
0000
,  // measure 50
0011
1000
1010
0001
,  // measure 51
0101
1000
1100
1000
,  // measure 52
0002
0010
0203
1000
,  // measure 53
0320
0001
2030
3100
,  // measure 54
0012
0000
0000
0203
0000
0000
0320
0000
,  // measure 55
0000
2030
0000
0000
3200
0000
2300
0000
,  // measure 56
3010
0100
0000
0100
,  // measure 57
0000
0100
0000
0110
,  // measure 58
1001
0000
1000
0000
0100
1000
0010
0000
,  // measure 59
1000
0000
0100
0000
1000
0001
0100
0000
,  // measure 60
0201
0310
0120
1030
,  // measure 61
0100
0000
1000
0001
0000
0020
0000
0000
,  // measure 62
0000
0031
0100
0000
0010
0000
1000
0000
,  // measure 63
0001
0000
1000
0001
0100
0010
0000
0110
,  // measure 64
0000
0010
0000
0100
0001
0010
0000
0110
,  // measure 65
0000
0010
0100
0010
0001
0000
1000
0000
,  // measure 66
1001
0000
0001
0100
1000
0000
0100
0000
,  // measure 67
1001
0000
1000
0100
1000
0100
1000
0000
,  // measure 68
1020
0130
0210
0301
,  // measure 69
1000
0000
0001
0010
0000
0100
0000
1000
,  // measure 70
0001
0000
0001
0000
1000
0100
1000
0000
,  // measure 71
0001
0100
0001
0100
0001
0100
0010
0000
,  // measure 72
0100
0000
0102
0000
1003
0000
0100
1000
,  // measure 73
0000
0010
1000
0000
0010
1000
0100
0000
,  // measure 74
0010
0000
0012
0000
1003
0000
0001
0100
,  // measure 75
0000
0100
0010
0100
0000
0100
1000
0100
,  // measure 76
0001
0000
2010
0000
3001
0000
0100
0010
,  // measure 77
0000
0010
1000
0010
0000
0010
0001
0010
,  // measure 78
1000
2100
3001
0102
,  // measure 79
1003
0000
0010
0100
0000
0100
0001
1000
,  // measure 80
0100
0000
2100
0000
3001
0000
1000
0001
,  // measure 81
0000
0010
0001
0000
0100
0001
0010
0001
,  // measure 82
0100
0000
0102
0000
1003
0000
0100
1000
,  // measure 83
0000
1000
0010
1000
0000
1000
0100
0010
,  // measure 84
0001
0000
0012
0000
1003
0000
0001
0100
,  // measure 85
0000
0100
1000
0100
0000
1000
0100
0001
,  // measure 86
0101
0000
1100
0000
0001
0100
0000
1001
;

//---------------dance-single - ----------------
#NOTES:
     dance-single:
     :
     Hard:
     12:
     0.618975,0.532975,0.260736,0.406442,0.000000,478.000000,34.000000,53.000000,0.000000,0.000000,0.000000,0.618975,0.532975,0.260736,0.406442,0.000000,478.000000,34.000000,53.000000,0.000000,0.000000,0.000000:
// measure 0
0000
0000
0000
0000
,  // measure 1
0000
0000
0000
0000
,  // measure 2
0000
0000
0000
0000
,  // measure 3
0000
0000
0000
0000
,  // measure 4
0000
0000
0000
0000
,  // measure 5
0000
0000
0000
0000
,  // measure 6
0000
0000
0000
0000
,  // measure 7
0000
0000
0000
0010
,  // measure 8
1001
0000
0100
0000
0001
0100
0010
0000
,  // measure 9
1000
0001
1000
0100
0010
0000
0001
0000
,  // measure 10
1001
0000
0100
0000
1000
0100
0010
0000
,  // measure 11
0001
1000
0010
0100
0010
0100
0001
1000
,  // measure 12
1001
0000
0100
0000
0010
1000
0001
0000
,  // measure 13
1000
0100
0010
0001
0010
1000
0010
0001
,  // measure 14
1001
0000
0100
0000
0010
1000
0100
0000
,  // measure 15
1000
0100
0001
0100
1000
0001
0000
1000
,  // measure 16
1001
0000
0010
0000
0100
0001
0010
0000
,  // measure 17
0001
1000
0010
0100
0010
0000
0100
0000
,  // measure 18
1001
0000
0100
0000
0010
0001
1000
0000
,  // measure 19
0010
0100
0001
0100
0001
1000
0100
0010
,  // measure 20
1001
0000
0100
0000
0010
0001
0100
0000
,  // measure 21
0010
1000
0100
0010
0001
0010
1000
0010
,  // measure 22
0110
0000
1000
0000
0001
0100
0010
0000
,  // measure 23
1000
0001
1000
0100
1000
0010
0100
0000
,  // measure 24
0010
0000
2010
0000
3100
0000
1000
0001
,  // measure 25
0000
0001
0010
0001
1000
1000
0100
1000
,  // measure 26
0010
0000
0102
0000
0013
0000
0100
2000
,  // measure 27
0000
3010
0100
0002
0000
0013
0100
1000
,  // measure 28
0001
0000
0012
0000
0103
0000
0010
2000
,  // measure 29
0000
3100
0010
0002
0000
0103
0010
1000
,  // measure 30
0001
0012
0103
2010
,  // measure 31
3100
0000
0010
0100
0000
0100
1000
0001
,  // measure 32
1000
0000
2010
0000
3100
0000
0010
0001
,  // measure 33
0000
0100
0010
0100
0001
0010
0100
1000
,  // measure 34
0010
0000
2010
0000
3100
0000
1000
0020
,  // measure 35
0000
0130
0001
0020
0000
0130
0010
0001
,  // measure 36
0100
0000
0102
0000
0013
0000
0001
0200
,  // measure 37
0000
0310
1000
0200
0000
0310
0100
1000
,  // measure 38
0010
2010
3100
0012
,  // measure 39
0103
0010
1000
0001
0010
0100
1000
0000
,  // measure 40
0001
0001
0010
0001
0100
0100
0010
1000
,  // measure 41
0100
0100
0000
0010
0000
0100
0000
1000
,  // measure 42
0010
0010
0100
0001
1000
1000
0100
0010
,  // measure 43
0001
0001
0000
0100
0000
0010
0000
0100
,  // measure 44
0001
0001
0010
0100
0010
0010
0100
1000
,  // measure 45
0001
0100
0000
0010
0000
1000
0000
0100
,  // measure 46
0010
0001
0010
0001
1000
0010
1000
0010
,  // measure 47
0100
0001
0100
0001
0000
0010
0100
0000
,  // measure 48
2000
0000
3001
0100
0020
0000
1030
0100
,  // measure 49
0020
0000
0130
1000
0020
0000
0130
0001
,  // measure 50
2000
0000
3100
0010
0020
0000
0031
0100
,  // measure 51
0200
0000
0310
1000
2000
0000
3100
1000
,  // measure 52
0001
0001
0010
0001
1000
1000
0010
1000
,  // measure 53
0100
0100
0010
0100
1000
1000
0010
1000
,  // measure 54
0010
1000
1000
0100
0001
0001
0100
0010
,  // measure 55
0010
0001
0100
0100
0001
1000
0100
0010
,  // measure 56
0002
1000
0000
1003
,  // measure 57
2000
0001
0000
3001
,  // measure 58
0100
0010
0100
0001
1000
0100
0010
0100
,  // measure 59
0010
0100
1000
0010
0100
0001
1000
0100
,  // measure 60
0020
0000
0031
0100
2010
0000
3100
0010
,  // measure 61
0001
0000
1000
0001
0000
0200
0000
0000
,  // measure 62
0000
0301
1000
0000
0100
0010
0001
1000
,  // measure 63
0001
0100
0010
0100
0010
0100
0000
0110
,  // measure 64
0000
1000
0100
0010
0001
1000
0000
1001
,  // measure 65
0000
1000
0001
0100
0020
0000
0130
0000
,  // measure 66
0110
0000
0010
1000
0200
0000
0310
0000
,  // measure 67
0110
1000
0001
1000
0001
0100
0010
1000
,  // measure 68
0020
0000
1030
0100
0012
0000
0103
0010
,  // measure 69
1000
0000
0001
0100
0000
0010
0000
0010
,  // measure 70
1000
0100
1000
0100
0010
0001
0010
0001
,  // measure 71
0100
0010
1000
0001
0010
0100
0100
0000
,  // measure 72
0010
0000
0012
0000
0103
0000
0010
2000
,  // measure 73
0000
3100
0010
0100
1000
0010
0100
0001
,  // measure 74
1000
0000
2010
0000
3100
0000
0010
0002
,  // measure 75
0000
0103
0010
2000
0000
3100
0010
0001
,  // measure 76
0100
0000
0102
0000
0013
0000
0100
2000
,  // measure 77
0000
3010
0100
0002
0000
0013
0100
1000
,  // measure 78
0010
2010
3100
0012
,  // measure 79
0103
0100
0010
0100
0001
0010
0010
0100
,  // measure 80
1000
0000
2010
0000
3100
0000
0010
0002
,  // measure 81
0000
0103
0010
0100
0001
0010
0100
1000
,  // measure 82
0010
0000
0102
0000
0013
0000
0100
2000
,  // measure 83
0000
3010
0100
0002
0000
1003
0100
0010
,  // measure 84
0001
0000
0012
0000
0103
0000
0010
0200
,  // measure 85
0000
1300
0100
0002
0000
1003
0100
1000
,  // measure 86
0010
0000
0110
0000
0001
1000
0001
1001
;

//---------------dance-single - ----------------
#NOTES:
     dance-single:
     :
     Challenge:
     13:
     0.556529,0.666219,0.391104,0.099693,0.065184,444.000000,51.000000,13.000000,196.000000,0.000000,0.000000,0.556529,0.666219,0.391104,0.099693,0.065184,444.000000,51.000000,13.000000,196.000000,0.000000,0.000000:
// measure 0
0000
0000
0000
0000
,  // measure 1
0000
0000
0000
0000
,  // measure 2
0000
0000
0000
0000
,  // measure 3
0000
0000
0000
0000
,  // measure 4
0000
0000
0000
0000
,  // measure 5
0000
0000
0000
0000
,  // measure 6
0000
0000
0000
0000
,  // measure 7
0000
0000
0000
MMMM
,  // measure 8
0010
0000
0101
0000
1000
0100
0010
0000
,  // measure 9
0100
0000
1010
0000
0001
0100
0010
0000
,  // measure 10
0100
0000
0011
0000
1000
0010
0100
0000
,  // measure 11
0010
0000
1100
0000
0001
0010
0100
0010
,  // measure 12
0010
0000
1100
0000
0010
0100
0001
0000
,  // measure 13
0010
0000
0101
0000
0010
0100
1000
0000
,  // measure 14
0010
0000
0101
0000
0010
0100
1000
0000
,  // measure 15
0010
0000
1100
0000
0010
0100
0001
0100
,  // measure 16
1000
1000
0100
0000
0010
0010
0001
1000
,  // measure 17
0001
0001
0100
0000
0010
0010
1000
0001
,  // measure 18
1000
1000
0100
0000
0010
0010
0001
0100
,  // measure 19
0010
0010
0100
0000
0010
0010
0100
0001
,  // measure 20
1000
1000
0100
0000
1000
1000
0010
0100
,  // measure 21
0001
0001
0010
0000
0100
1000
0010
0100
,  // measure 22
0001
0001
1000
0000
0100
0100
0010
0001
,  // measure 23
0100
1000
0100
0001
0100
1000
0100
0010
,  // measure 24
MMMM
0000
2100
0000
3001
0000
0100
0020
,  // measure 25
0000
0130
1000
0100
0001
0010
1000
0010
,  // measure 26
0001
0000
0102
0000
0013
0000
0100
1000
,  // measure 27
MMMM
0010
0100
1000
MMMM
0001
0010
1000
,  // measure 28
0100
0000
0011
0000
0001
0000
0010
0001
,  // measure 29
MMMM
0100
0010
0001
MMMM
1000
0100
0001
,  // measure 30
0010
0011
MMMM
1100
,  // measure 31
MMMM
0000
0100
0010
0000
0010
0100
0010
,  // measure 32
MMMM
0000
0012
0000
1003
0000
0010
0200
,  // measure 33
0000
0310
0001
0010
1000
0100
0001
0100
,  // measure 34
1000
0000
2010
0000
3100
0000
0010
0001
,  // measure 35
MMMM
0100
0010
0001
MMMM
1000
0100
0001
,  // measure 36
0010
0000
1100
0000
1000
0000
0100
1000
,  // measure 37
MMMM
0010
0100
1000
MMMM
0001
0010
1000
,  // measure 38
0100
1100
MMMM
0011
,  // measure 39
MMMM
0000
0001
1000
0001
0000
0100
0000
0010
0000
1000
0000
0010
0100
0010
0000
,  // measure 40
1000
0010
1000
0000
0001
0000
0010
0000
0001
0100
0001
0000
1000
0000
0010
0000
,  // measure 41
0100
0010
0000
1000
0000
0100
0000
1000
,  // measure 42
0001
0000
0010
0100
0010
0000
0010
0100
,  // measure 43
1000
0001
0000
1001
0000
0000
MMMM
0000
,  // measure 44
0001
0010
0001
0000
1000
0000
0100
0000
1000
0010
1000
0000
0001
0000
0100
0000
,  // measure 45
0010
0100
0000
0001
0000
1000
0000
0100
,  // measure 46
0010
0010
0010
0010
0001
0001
0001
0001
,  // measure 47
0011
0100
0010
1001
0000
1000
0110
0000
,  // measure 48
0110
0000
0001
0100
0001
0000
MMMM
0000
,  // measure 49
0110
0000
1000
0100
1000
0000
MMMM
0000
,  // measure 50
0011
0000
0000
0000
MMMM
0000
1000
0000
0010
1000
0000
0000
MMMM
0000
1000
0000
,  // measure 51
0001
0100
0000
0000
MMMM
0000
0100
0000
0001
0100
0000
0000
1000
0000
0100
0000
,  // measure 52
0010
0001
0010
0000
0001
0000
0001
0000
0100
0001
0100
0000
0010
0000
0010
0000
,  // measure 53
1000
0010
1000
0000
0100
0000
0100
0000
0010
0001
0010
0000
0100
0000
0100
0000
,  // measure 54
1100
0000
0000
MMMM
0000
0000
0101
0000
0000
MMMM
0000
0000
0011
0000
0000
MMMM
,  // measure 55
0000
0000
1010
0000
0000
MMMM
0000
0000
1100
0000
0000
0000
0101
0000
0000
0000
,  // measure 56
1001
0100
MMMM
0100
,  // measure 57
MMMM
0100
MMMM
0110
,  // measure 58
1001
1000
0100
1000
0010
0100
0010
0100
,  // measure 59
0001
0001
0100
0001
0010
0001
0100
0001
,  // measure 60
0101
MMMM
1100
MMMM
,  // measure 61
0100
0000
1000
0001
0000
0020
0000
0000
,  // measure 62
0000
0031
0100
0000
0010
1000
0100
0010
,  // measure 63
0001
1000
1000
0001
0100
0010
0000
0110
,  // measure 64
0000
MMMM
0000
0100
0001
0010
0000
0110
,  // measure 65
0000
0010
0100
0010
0001
0000
1000
0000
,  // measure 66
MMMM
0000
0001
0100
1000
0000
0100
0000
,  // measure 67
MMMM
0000
1000
0100
0001
1000
0010
0001
,  // measure 68
0101
MMMM
1100
MMMM
,  // measure 69
1000
0000
0001
0010
0000
0100
0000
1000
,  // measure 70
0001
0100
0001
0001
1000
0100
1000
1000
,  // measure 71
0001
0001
0100
0100
0010
1000
0001
0010
,  // measure 72
MMMM
0000
0102
0000
1003
0000
0100
0020
,  // measure 73
0000
0130
0001
0100
1000
0010
0001
0010
,  // measure 74
1000
0000
2100
0000
3010
0000
0100
0001
,  // measure 75
MMMM
0010
0100
0001
MMMM
1000
0010
0001
,  // measure 76
0100
0000
1010
0000
1000
0000
0010
1000
,  // measure 77
MMMM
0100
0010
1000
MMMM
0001
0100
1000
,  // measure 78
0010
1010
MMMM
0101
,  // measure 79
MMMM
0000
0100
0010
0000
0010
0100
0010
,  // measure 80
MMMM
0000
0102
0000
1003
0000
0100
0020
,  // measure 81
0000
0130
0001
0100
1000
0010
0001
0010
,  // measure 82
MMMM
0000
0102
0000
0013
0000
0100
1000
,  // measure 83
MMMM
0010
0100
1000
MMMM
0001
0010
1000
,  // measure 84
MMMM
0000
0011
0000
0001
0000
0010
0001
,  // measure 85
MMMM
0100
0010
0001
MMMM
1000
0100
0001
,  // measure 86
0010
0000
0011
0000
1100
0100
0010
1001
;

//---------------dance-single - ----------------
#NOTES:
     dance-single:
     :
     Easy:
     6:
     0.365907,0.433043,0.253067,0.276074,0.000000,265.000000,33.000000,36.000000,0.000000,0.000000,0.000000,0.365907,0.433043,0.253067,0.276074,0.000000,265.000000,33.000000,36.000000,0.000000,0.000000,0.000000:
// measure 0
0000
0000
0000
0000
,  // measure 1
0000
0000
0000
0000
,  // measure 2
0000
0000
0000
0000
,  // measure 3
0000
0000
0000
0000
,  // measure 4
0000
0000
0000
0000
,  // measure 5
0000
0000
0000
0000
,  // measure 6
0000
0000
0000
0000
,  // measure 7
0000
0000
0000
0010
,  // measure 8
1001
0001
0100
0000
,  // measure 9
0010
1000
0001
1000
,  // measure 10
1001
0001
0100
0000
,  // measure 11
0010
1000
0100
1000
,  // measure 12
1001
0001
0100
0000
,  // measure 13
0001
0010
0100
1000
,  // measure 14
1001
0001
0100
0000
,  // measure 15
0001
0010
0001
0100
,  // measure 16
0110
0010
1000
1000
,  // measure 17
0001
1000
0100
0010
,  // measure 18
0110
0010
0001
1000
,  // measure 19
0001
0100
0010
0100
,  // measure 20
0110
0100
0010
1000
,  // measure 21
0001
1000
0100
0010
,  // measure 22
0110
0010
0001
1000
,  // measure 23
0001
0100
0010
0100
,  // measure 24
0000
2001
0001
0000
,  // measure 25
3100
0010
0001
1000
,  // measure 26
0001
1002
1000
0000
,  // measure 27
0103
0010
1000
0100
,  // measure 28
0010
0120
0100
0000
,  // measure 29
0130
1000
0001
0100
,  // measure 30
0010
2001
3001
1002
,  // measure 31
1003
0010
0100
0010
,  // measure 32
0000
2010
0010
0000
,  // measure 33
3010
1000
0100
0010
,  // measure 34
0001
0012
0010
0000
,  // measure 35
0013
0100
1000
0001
,  // measure 36
0100
0102
0100
0000
,  // measure 37
0103
0010
1000
0001
,  // measure 38
1000
1002
1003
2001
,  // measure 39
3002
0000
2000
3003
,  // measure 40
0001
0001
0100
0010
,  // measure 41
1000
0000
0000
1000
0000
0000
0000
0000
,  // measure 42
1000
1000
0100
0010
,  // measure 43
0001
0000
0000
0001
0000
0000
0000
0000
,  // measure 44
0001
0001
0100
0010
,  // measure 45
1000
0000
0000
1000
0000
0000
0000
0000
,  // measure 46
0200
0000
0320
0000
,  // measure 47
0032
0000
0000
1003
0000
0000
1000
0000
,  // measure 48
0002
0103
0200
0301
,  // measure 49
0002
1003
2000
3100
,  // measure 50
0200
0310
0020
0031
,  // measure 51
0002
1003
2000
3001
,  // measure 52
0002
0000
0023
0000
,  // measure 53
0230
0000
2300
0000
,  // measure 54
3001
0000
0000
0001
0000
0000
0100
0000
,  // measure 55
0000
0100
0000
0000
0010
0000
1000
0000
,  // measure 56
0001
0000
0000
0000
,  // measure 57
0000
0000
0000
0001
,  // measure 58
0100
0100
0010
1000
,  // measure 59
0001
0010
0001
0010
,  // measure 60
0011
0001
1100
1000
,  // measure 61
0100
1000
0001
0200
,  // measure 62
0000
0310
0000
1000
,  // measure 63
0000
0001
1000
0100
,  // measure 64
0010
0010
0001
0001
,  // measure 65
1000
0010
0100
0000
,  // measure 66
0001
0001
1000
1000
,  // measure 67
0100
0010
0001
0000
,  // measure 68
1000
1000
0010
0010
,  // measure 69
0100
0001
0010
0000
,  // measure 70
0100
0100
1000
1000
,  // measure 71
0001
1000
1001
0000
,  // measure 72
0000
1002
1000
0000
,  // measure 73
1003
1000
0001
0001
,  // measure 74
0100
0120
0100
0000
,  // measure 75
0130
0100
0001
0001
,  // measure 76
1000
2100
0100
0000
,  // measure 77
3100
0100
0010
0010
,  // measure 78
0001
1002
1003
0120
,  // measure 79
0130
0010
0100
0110
,  // measure 80
0000
2010
0010
0000
,  // measure 81
3010
0100
0001
1000
,  // measure 82
0000
2100
0100
0000
,  // measure 83
3100
0100
0010
0010
,  // measure 84
0000
0012
0010
0000
,  // measure 85
0013
0010
0001
0100
,  // measure 86
0010
0000
0110
0000
1001
0000
0000
1001
;

//---------------dance-single - ----------------
#NOTES:
     dance-single:
     :
     Beginner:
     3:
     0.199387,0.233512,0.030675,0.115031,0.000000,163.000000,4.000000,15.000000,0.000000,0.000000,0.000000,0.199387,0.233512,0.030675,0.115031,0.000000,163.000000,4.000000,15.000000,0.000000,0.000000,0.000000:
// measure 0
0000
0000
0000
0000
,  // measure 1
0000
0000
0000
0000
,  // measure 2
0000
0000
0000
0000
,  // measure 3
0000
0000
0000
0000
,  // measure 4
0000
0000
0000
0000
,  // measure 5
0000
0000
0000
0000
,  // measure 6
0000
0000
0000
0000
,  // measure 7
0000
0000
0000
0000
,  // measure 8
1000
0000
1000
0000
,  // measure 9
1000
0000
0000
0000
,  // measure 10
0001
0000
0001
0000
,  // measure 11
0001
0000
0000
0000
,  // measure 12
0100
0000
0100
0000
,  // measure 13
0100
0000
0000
0000
,  // measure 14
0010
0000
0010
0000
,  // measure 15
0010
0000
0000
0000
,  // measure 16
1000
0000
1000
0000
,  // measure 17
1000
0000
0000
0000
,  // measure 18
0100
0000
0100
0000
,  // measure 19
0100
0000
0000
0000
,  // measure 20
0010
0000
0010
0000
,  // measure 21
0010
0000
0000
0000
,  // measure 22
0001
0000
0001
0000
,  // measure 23
0001
0000
0000
0000
,  // measure 24
1000
1000
1000
0000
,  // measure 25
1000
0000
1000
0000
,  // measure 26
0001
0001
0001
0000
,  // measure 27
0002
0003
2000
3000
,  // measure 28
0100
0100
0100
0000
,  // measure 29
0020
0030
0200
0300
,  // measure 30
1000
1000
0001
0001
,  // measure 31
2000
0000
0000
3000
,  // measure 32
0001
0001
0001
0000
,  // measure 33
0001
0000
0001
0000
,  // measure 34
1000
1000
1000
0000
,  // measure 35
2000
3000
0002
0003
,  // measure 36
0010
0010
0010
0000
,  // measure 37
0200
0300
0020
0030
,  // measure 38
0001
0001
1000
1000
,  // measure 39
0002
0000
0000
0003
,  // measure 40
0001
0000
0001
0000
,  // measure 41
1000
0000
1000
0000
,  // measure 42
0001
0000
1000
0000
,  // measure 43
1001
0000
0000
0000
,  // measure 44
0001
0000
0001
0000
,  // measure 45
1000
0000
1000
0000
,  // measure 46
0100
0000
0010
0000
,  // measure 47
0110
0000
0000
0000
,  // measure 48
0001
0000
0001
0000
,  // measure 49
1000
0000
1000
0000
,  // measure 50
0010
0000
0100
0000
,  // measure 51
0001
0000
1000
0000
,  // measure 52
0001
0000
0001
0000
,  // measure 53
0010
0000
0010
0000
,  // measure 54
0100
0000
0000
0100
,  // measure 55
0000
0000
0100
0000
,  // measure 56
0110
0000
0000
0000
,  // measure 57
0000
0000
0000
0000
,  // measure 58
1000
0000
1000
0000
,  // measure 59
1000
0000
0000
0000
,  // measure 60
0001
0000
0001
0000
,  // measure 61
0001
0000
0000
0000
,  // measure 62
0100
0000
0100
0000
,  // measure 63
0100
0000
0010
0010
,  // measure 64
0010
0000
1000
1000
,  // measure 65
1000
0000
0001
0001
,  // measure 66
0001
0000
1000
1000
,  // measure 67
1000
0000
0100
0100
,  // measure 68
0100
0000
0100
0000
,  // measure 69
0100
0000
0010
0000
,  // measure 70
0001
0000
0001
0000
,  // measure 71
1000
0001
1000
0000
,  // measure 72
0001
0001
0001
0000
,  // measure 73
1000
0000
0001
0000
,  // measure 74
0100
0100
0100
0000
,  // measure 75
0200
0300
0200
0300
,  // measure 76
0010
0010
0010
0000
,  // measure 77
0020
0030
0020
0030
,  // measure 78
1000
1000
0001
0001
,  // measure 79
2000
0000
0000
3000
,  // measure 80
0000
0001
0001
0000
,  // measure 81
1000
0000
0001
0000
,  // measure 82
0000
0100
0100
0000
,  // measure 83
0010
0000
0100
0000
,  // measure 84
0000
0010
0010
0000
,  // measure 85
1000
0000
0001
0000
,  // measure 86
1000
1000
0001
0001
,  // measure 87
1001
0000
0000
0000
;
