#TITLE:Taiko March;
#SUBTITLE:;
#ARTIST:NAMCO Sound Team;
#TITLETRANSLIT:;
#SUBTITLETRANSLIT:;
#ARTISTTRANSLIT:;
#GENRE:;
#CREDIT:;
#BANNER:[12ths Week] - Taiko March-bn.png;
#BACKGROUND:[12ths Week] - Taiko March-bg.png;
#LYRICSPATH:;
#CDTITLE:;
#MUSIC:[12ths Week] - Taiko March.mp3;
#OFFSET:1.082037;
#SAMPLESTART:101.263031;
#SAMPLELENGTH:12.000000;
#LASTBEATHINT:0.049099;
#SELECTABLE:YES;
#DISPLAYBPM:155.000000;
#BPMS:0.000000=155.000000
;
#STOPS:
;
#BGCHANGES:;
#KEYSOUNDS:;
#ATTACKS:;

//---------------dance-single - ----------------
#NOTES:
     dance-single:
     :
     Hard:
     9:
     0.621076,0.701451,0.358908,0.162525,0.595923,565.000000,53.000000,24.000000,0.000000,0.000000,0.000000,0.621076,0.701451,0.358908,0.162525,0.595923,565.000000,53.000000,24.000000,0.000000,0.000000,0.000000:
0000
0000
0000
0000
,
1000
0000
0000
0000
0000
0000
0001
1000
0001
0000
0000
0000
0000
0000
0100
0001
,
0100
0000
0001
0000
1000
0010
1000
0010
1000
0000
0001
0000
0020
0000
0000
0000
,
0130
0000
0000
0000
0000
0000
0000
0010
,
0200
1300
1001
0000
,
1000
0001
0000
0100
0000
0010
0000
1000
,
0000
0000
0100
0000
0000
0000
0010
0000
0000
0000
0001
1000
0001
0000
1000
0000
,
0000
0001
0000
0010
0000
0100
0000
1000
,
0000
0010
0000
0100
0002
0000
0013
0000
,
0100
1000
0000
0001
0000
0100
0000
0010
,
0000
0000
1000
0000
0000
0000
0100
0000
0000
0000
1000
0001
1000
0000
0001
0000
,
0100
0100
0000
0001
0200
0000
0000
0000
,
0302
2003
3001
0000
,
1000
0000
0001
0001
0000
0000
0001
0100
,
0100
0000
0001
0001
0000
0000
0001
0000
,
1000
0000
0100
0100
0000
0000
0100
1000
,
1000
0000
0000
0000
0001
0000
0001
0000
0000
0000
0001
1000
0001
0000
0001
0000
,
1000
0000
0010
0010
0000
0000
0010
0100
,
0100
0000
0000
0000
0001
0000
0001
0000
0000
0000
0000
0000
0001
0100
0001
0100
,
0010
0000
1000
0000
0001
0100
0010
0000
0100
0000
0001
0000
1000
0100
0010
0000
,
0100
0000
1000
0000
0001
0010
0100
0000
1000
0010
0100
0000
0110
0000
0000
0000
,
0001
0000
1000
1000
0000
0000
1000
0010
,
0010
0000
1000
1000
0000
0000
1000
0000
,
0001
0000
0010
0010
0000
0000
0010
0001
,
0001
0000
0000
0000
1000
0000
1000
0000
0001
1000
0001
1000
0001
0000
0001
0000
,
1000
0000
0010
1000
0001
0000
1000
0000
0001
0000
0010
0001
1000
0000
0001
0000
,
1000
0000
0100
1000
0001
0000
0100
0000
0001
0000
1000
0001
0100
0000
0010
0000
,
0100
0010
0100
0000
0000
0000
0001
0000
1000
0001
1000
0000
0001
0000
0000
0000
,
0100
0000
0010
1000
0010
0000
0100
0000
0110
0000
0000
0000
0000
0000
0000
0000
,
0001
0010
0100
0000
0100
1000
0001
0000
,
0001
0000
0100
0000
0010
0100
0010
0100
0000
0000
0110
0000
0110
0000
0000
0000
,
0010
1000
0001
0000
0001
0010
0100
0000
,
1000
0001
0000
1000
0001
0000
1000
0000
0000
0000
1001
0000
1001
0000
0000
0000
,
1001
1001
0000
0000
0110
0110
0000
0000
,
2002
0000
0000
3003
0110
0110
0000
0000
,
0000
0000
0000
0000
,
0000
0000
0000
0000
0000
0000
0000
0000
0000
1000
0000
1000
,
0001
0000
0010
0000
0100
1000
0001
1000
,
0020
0100
0130
0000
,
0001
0010
0100
1000
0000
0000
0010
0100
0001
0010
0000
0100
,
2000
0000
0000
0100
0000
0000
3100
0000
0000
0010
0001
1000
,
0001
0000
0000
2000
0000
0000
3001
0100
0010
1000
0100
0010
,
0200
0000
0000
0010
0000
0000
1300
0100
0010
0001
0000
0000
,
0010
0100
1000
0010
0000
0000
0100
0001
0010
0100
0000
1000
,
0002
0000
0000
1000
0000
0000
0013
0000
0000
0001
0010
0100
,
1000
0000
0000
0001
0100
0010
1000
0000
0100
1000
0001
0100
,
0020
0000
0000
0001
0000
0000
0130
0000
0000
0100
0000
0100
,
0002
0000
0003
0000
,
0001
0010
0100
1000
0000
0000
0100
0000
0100
2000
0000
0000
,
0000
0000
0000
3000
0000
0000
0001
1000
0100
0020
0000
0000
,
0030
0002
0003
0200
,
0310
0000
0000
1000
0000
0010
0000
0100
0000
0002
0000
0000
,
0010
0023
0100
0130
,
1001
0000
0000
0100
0000
0100
0001
0000
0000
0100
0000
0000
,
0101
0000
0000
0100
0000
0100
0010
0000
0000
1000
0000
0000
,
1001
0000
0000
0001
0000
0001
0100
0000
0000
0010
0000
0010
,
1000
0000
0001
0000
0000
0001
0010
0000
0000
0100
0000
0000
,
1100
0000
0000
1000
0000
1000
0001
0000
0000
0100
0000
0000
,
0101
0000
0000
0001
0000
0001
0100
0000
0000
0010
0000
0000
,
1010
0000
0000
1000
0000
1000
0001
0000
0000
0001
0000
0010
,
0000
0100
1000
0100
0000
0010
0000
0001
0100
0010
0000
0000
,
1100
0000
0000
0010
0000
0010
0001
0000
0000
0100
0000
0000
,
1010
0000
0000
0100
0000
0100
0001
0000
0000
0010
0000
0000
,
0110
0000
0000
0100
0000
0100
1000
0000
0000
0001
0000
0001
,
0100
0000
0010
0000
0000
0010
1000
0000
0000
0100
0000
0000
,
0011
0000
0000
1000
0000
1000
0001
0000
0000
0100
0000
0000
,
1010
0000
0000
0001
0000
0001
1000
0000
0000
0100
0000
0000
,
0011
0000
0000
0100
0000
0100
1000
0000
0000
0001
0100
0001
,
0100
0010
0100
0010
1000
0010
1000
0001
1000
0100
0010
0001
,
1000
0000
0000
1100
0000
0000
1001
0000
0000
0100
0010
1000
,
0001
0000
0000
0101
0000
0000
1001
0000
0000
0001
0100
0010
,
1000
0000
0000
1010
0000
0000
1001
0000
0000
1000
0000
0001
,
0100
0000
0001
0100
0001
1000
0100
0000
1000
0001
0100
1000
,
0100
0000
0000
0110
0000
0000
0101
0000
0000
1000
0100
0001
,
0100
0110
1100
0010
,
0102
0013
2100
3010
,
0102
0000
0000
0013
0000
0000
1100
0000
0000
1000
0100
0010
,
0001
0000
0001
1000
0000
0000
1100
0000
0000
0001
0100
0010
,
1000
0000
1000
0001
0000
0000
1001
0000
0000
1000
0010
0100
,
0001
0000
0001
0100
0000
0000
0101
0000
0000
0010
0100
0001
,
1000
0000
0001
0010
0000
0100
1000
0001
0100
0010
1000
0001
,
0010
0000
0100
1000
0000
0000
1100
0000
0000
0001
0100
0010
,
1000
0000
0100
1000
0000
0000
1010
0000
0000
0001
0010
1000
,
0010
0000
0100
0010
0000
0000
0011
0000
0000
0001
0000
0100
,
0010
0000
0010
1000
0000
0100
0001
0100
1000
0001
0000
0000
,
0101
0000
0000
0010
0000
1000
0001
0000
0000
0100
0000
0000
,
0110
0000
0000
1000
0000
0001
0010
0000
0000
0100
0000
0000
,
1100
0000
0000
1000
0000
0001
0100
0000
0000
0010
0000
0000
,
1010
0000
0000
1000
0000
0100
0010
0000
0000
0001
0000
0100
,
0000
0010
1000
0100
0000
0010
0000
0001
0100
1000
0000
0100
,
0000
0010
1000
0100
0000
0001
0000
0100
1000
0010
0100
0010
,
1000
0100
1000
0001
0010
0001
0100
0010
0100
0001
0100
1000
,
0100
0001
0100
1000
0100
0001
0100
1000
0100
0001
0010
0100
,
1100
0000
0000
1000
0010
0100
0101
0000
0000
0001
0100
0010
,
1000
0100
0110
0000
0000
0000
0000
0000
0000
0000
0000
0000
;

//---------------dance-single - ----------------
#NOTES:
     dance-single:
     :
     Medium:
     6:
     0.473063,0.510146,0.250559,0.467258,0.199770,383.000000,37.000000,69.000000,0.000000,0.000000,0.000000,0.473063,0.510146,0.250559,0.467258,0.199770,383.000000,37.000000,69.000000,0.000000,0.000000,0.000000:
// measure 0
0000
0000
0000
0000
,  // measure 1
1000
0000
0000
0001
0001
0000
0000
1000
,  // measure 2
1000
0010
0100
0001
0010
0100
2000
0000
,  // measure 3
3010
0000
0000
0000
0000
0000
0000
1000
,  // measure 4
0002
1003
1001
0000
,  // measure 5
1000
0100
0000
0010
0000
0001
0000
0100
,  // measure 6
0000
0010
0000
1000
0000
0001
1000
0001
,  // measure 7
0000
0100
0000
0010
0000
1000
0000
0100
,  // measure 8
0000
0010
0000
0001
2000
0000
3010
0000
,  // measure 9
0100
0001
0000
0010
0000
0100
0000
1000
,  // measure 10
0000
0001
0000
0100
0000
0010
0100
0001
,  // measure 11
0010
0010
0000
0001
0020
0000
0000
0000
,  // measure 12
0032
2003
3001
1000
,  // measure 13
0010
0100
0000
0100
,  // measure 14
0001
1000
0000
1000
,  // measure 15
0100
0010
0000
0010
,  // measure 16
0001
0000
1000
0000
0000
1000
0001
1000
,  // measure 17
0010
0100
0000
0100
,  // measure 18
0001
0000
0010
0000
0000
0000
0010
0100
,  // measure 19
1000
0000
1000
1000
0010
0100
1000
0100
,  // measure 20
0002
0000
0000
1003
,  // measure 21
0100
0010
0000
0010
,  // measure 22
0001
1000
0000
1000
,  // measure 23
0010
0100
0000
0100
,  // measure 24
0001
0010
1100
1001
,  // measure 25
0100
1000
0001
0000
0100
0001
1000
0000
,  // measure 26
0100
0020
0000
0000
0000
0031
0100
0001
,  // measure 27
2000
0000
0000
3001
0002
0000
0000
0003
,  // measure 28
0100
0010
0010
1000
0001
0000
0000
0000
,  // measure 29
0001
0021
0031
0021
,  // measure 30
0031
1000
0001
1000
0000
0010
0010
0000
,  // measure 31
1000
1020
1030
1020
,  // measure 32
1030
0000
1000
0100
0000
0010
0010
0000
,  // measure 33
0001
0001
0000
0000
1000
1000
0000
0000
,  // measure 34
0020
0000
0000
0000
0130
0100
0000
0000
,  // measure 35
0000
0000
0000
0000
,  // measure 36
0000
0000
0000
0000
,  // measure 37
0001
0000
0000
0000
0100
0010
0100
0010
,  // measure 38
0200
0010
0310
0000
,  // measure 39
1000
1100
0001
0101
,  // measure 40
2000
0010
0010
3001
,  // measure 41
0010
0000
0000
0002
0000
0000
0103
0000
0010
0100
0000
0100
,  // measure 42
0002
0100
1000
1003
,  // measure 43
0100
1100
0010
0011
,  // measure 44
2000
0010
0010
3002
,  // measure 45
0103
2000
3100
0010
,  // measure 46
2000
0000
0000
0001
0000
0000
3001
0000
0000
1000
0000
1000
,  // measure 47
0200
0000
0000
0000
,  // measure 48
1300
0000
0000
1000
0000
0000
0001
0000
0001
0200
0000
0000
,  // measure 49
0000
0000
0010
0320
,  // measure 50
0000
2030
0000
3200
,  // measure 51
0000
0000
0000
0310
0000
0001
0000
0100
0000
0020
0000
0000
,  // measure 52
1000
2030
0100
3002
,  // measure 53
0003
0000
0001
0200
0000
0000
0000
0000
0000
0000
0000
0000
,  // measure 54
1300
0000
0000
0100
0000
0001
0000
0010
0000
0200
0000
0000
,  // measure 55
0000
0000
2000
0000
0000
0000
3300
0000
0000
0010
0000
0000
,  // measure 56
0100
0001
1000
0200
,  // measure 57
0000
0000
0020
0000
0000
0000
0330
0000
0000
0001
0000
0000
,  // measure 58
0100
0010
0100
0002
,  // measure 59
0000
0000
0020
0000
0000
0000
0033
0000
0000
0001
0000
0001
,  // measure 60
0000
0001
0000
1000
0000
1000
0000
1000
0000
0020
0000
0000
,  // measure 61
0030
0000
0010
2000
0000
0000
0000
0000
0000
3100
0000
0000
,  // measure 62
1000
0000
0000
0010
0000
0100
0000
0001
0000
2000
0000
0000
,  // measure 63
0000
0000
0200
0000
0000
0000
3300
0000
0000
0010
0000
0000
,  // measure 64
0001
0100
0010
2000
,  // measure 65
0000
0000
0002
0000
0000
0000
3003
0000
0000
0010
0000
0000
,  // measure 66
0100
1000
0010
0200
,  // measure 67
0000
0000
0020
0000
0000
0000
0330
0000
0000
0100
0000
0100
,  // measure 68
0001
0000
0001
1000
0000
1000
0100
0000
0100
0020
0000
0000
,  // measure 69
0031
0000
0001
2000
0000
0000
3010
0000
0000
0010
0000
0000
,  // measure 70
0100
0101
1001
0020
,  // measure 71
0130
0000
0100
2000
0000
0000
3010
0000
0000
0100
0000
0000
,  // measure 72
0001
0101
1001
0200
,  // measure 73
1300
0000
2000
0010
0000
0000
3001
0000
0000
0100
0000
0000
,  // measure 74
0010
1010
1001
0021
,  // measure 75
0031
1200
1300
1020
,  // measure 76
1030
0201
0301
1002
,  // measure 77
0103
0000
0100
0020
0000
0000
0130
0000
0000
0001
0000
0000
,  // measure 78
1000
1100
0110
0021
,  // measure 79
0130
0000
0100
2000
0000
0000
3010
0000
0000
0100
0000
0000
,  // measure 80
0001
0011
0110
1200
,  // measure 81
0310
0000
0020
0001
0000
0000
0130
0000
0000
1000
0000
0000
,  // measure 82
0010
0110
0101
0021
,  // measure 83
0100
0130
1000
0002
,  // measure 84
1003
0000
0020
0000
0000
0130
0001
0000
0000
0021
0000
0000
,  // measure 85
1030
0000
0000
0010
0000
0010
0001
0000
0000
1020
0000
0000
,  // measure 86
0031
0000
0000
0010
0000
0010
1000
0000
0000
0201
0000
0000
,  // measure 87
1300
0000
0000
0100
0000
0100
0001
0000
0000
0021
0000
0000
,  // measure 88
1030
0000
0000
0010
0000
0010
0001
0000
0000
0100
0000
0100
,  // measure 89
0000
0100
0000
0001
0000
0001
0000
0001
0000
0010
0000
0010
,  // measure 90
0000
0010
0000
0100
0000
0100
0000
0100
0000
1000
0000
0010
,  // measure 91
0000
0100
0000
0001
0000
0010
0000
0100
0000
1000
0000
0010
,  // measure 92
0000
1010
0000
0001
0000
0010
0000
0011
0000
1000
0000
1000
,  // measure 93
0001
0000
0000
0001
0000
0001
1000
0000
0000
0010
0000
0010
,  // measure 94
0100
0010
0100
0000
0000
0000
0000
0000
0000
0000
0000
0000
;

//---------------dance-single - ----------------
#NOTES:
     dance-single:
     :
     Challenge:
     10:
     0.775861,0.701451,0.277646,0.325049,0.975147,713.000000,41.000000,48.000000,0.000000,0.000000,2.000000,0.775861,0.701451,0.277646,0.325049,0.975147,713.000000,41.000000,48.000000,0.000000,0.000000,2.000000:
0000
0000
0000
0000
,
0110
0000
0000
0000
0000
0000
0001
0010
0100
0000
0000
0000
0000
0000
1000
0010
,
0100
0000
0001
0000
0010
0100
1000
0010
0100
0000
0010
0000
1002
0000
0000
0000
,
0103
0000
0000
0000
0000
0000
0001
1000
0001
0100
0010
1000
0001
0000
0100
0000
,
0002
0000
0103
0001
0200
0000
0310
1000
0002
0000
0000
0000
1003
0000
0000
1000
,
0100
0000
0020
0000
0000
0000
0031
0000
0020
0000
0000
0000
0130
0000
0000
0100
,
1000
0000
0002
0000
0000
0000
0103
0000
0020
0000
0130
0010
0100
0000
0100
0000
,
0001
2000
0000
3100
0020
0000
0032
0000
,
2003
0000
3001
0010
0200
0000
0000
0310
0002
0000
0000
0000
1003
0000
0000
1000
,
0010
0000
0200
0000
0000
0000
0301
0000
0200
0000
0000
0000
1300
0000
0000
0100
,
0010
0000
2000
0000
0000
0000
3100
0000
2000
0000
3001
1000
0001
0000
0100
0000
,
0110
0000
0110
0000
0000
0000
0010
0000
1000
0000
0001
0100
1000
0000
0100
0000
,
0002
2003
3001
0200
,
0310
0000
0000
0000
1000
0000
0001
0000
0010
0000
0000
0001
0010
0000
0100
0000
,
1000
0001
0000
0200
0000
0000
0010
0000
,
0302
0000
0000
0000
1003
0000
0001
0000
0010
0000
0000
1000
0010
0000
0001
0000
,
0200
0000
0000
0000
0000
0000
0000
0000
0300
0000
0001
1000
0002
0000
0010
0000
,
0023
0000
0000
0000
0130
0000
1000
0000
0002
0000
0000
0103
0001
0000
0100
0000
,
0010
2000
0000
3100
0000
1000
0001
0100
,
0010
0000
1000
0000
0100
1000
0010
0000
0100
0000
0001
0000
0010
0001
0100
0000
,
0001
0000
0100
0000
0010
1000
0100
0000
0010
0001
0100
0000
1002
0000
0000
0000
,
0103
0000
0000
0000
0010
0000
1000
0000
0001
0000
0000
0010
0001
0000
0010
0000
,
0100
1000
0000
0020
0000
0000
0130
0000
,
0001
0000
0000
0000
1000
0000
0001
0000
0010
0000
0000
1000
0010
0000
0001
0000
,
0200
0000
0000
0000
1000
0000
0000
0000
0301
1000
0001
1000
0001
0000
0100
0000
,
0010
0000
1000
0100
0001
0000
0100
0000
1000
0000
0010
1000
0100
0000
0001
0000
,
0100
0000
1000
0010
0001
0000
0010
0000
1000
0000
0001
0000
0100
0000
0010
0000
,
1000
0100
0001
0000
0000
0000
0100
0000
0001
0100
1000
0000
0020
0000
0000
0000
,
0130
0000
0001
0100
1000
0000
0100
0000
0110
0000
0000
0000
0000
0000
0000
0000
,
0011
0001
1001
0000
1001
1000
1010
0000
,
0110
0000
0100
0000
0001
0100
0010
1000
0100
0000
1100
0000
1100
0000
0000
0000
,
1100
1000
1001
0000
1001
0001
0011
0000
,
0010
0100
0000
0100
1000
0000
0001
0000
0000
0000
0101
0000
0101
0000
0000
0000
,
1001
1001
0000
0000
0110
0110
0000
0000
,
0004
4000
0000
0000
0000
0000
0000
0003
3001
0000
1001
0000
0000
0000
0000
0000
,
2000
0000
0000
0000
0000
0000
0000
0000
0001
0000
0000
0000
3002
0000
0000
0000
0000
0000
0000
0000
0000
0000
0000
0000
0023
0000
0000
0000
0000
0000
0000
0000
0000
0000
0000
0000
0031
0000
0000
0010
0000
0000
0100
0000
0000
1000
0000
0000
,
0001
0000
0000
0000
0000
0000
0000
0000
0000
0100
0000
0000
0002
0000
0000
0000
0000
0000
0000
0000
0000
0000
0000
0000
0000
0000
0000
0000
0000
0000
0000
0000
0000
0000
0000
0000
1003
0000
0000
0000
0000
0000
0000
0000
0010
0000
0000
0000
,
0002
0000
0023
0000
1030
0100
0001
0100
,
2000
0010
3010
0000
,
1000
0100
0010
0001
0000
0000
0100
1000
0100
0001
0000
0010
,
0100
1000
0001
0010
0000
0010
1000
0000
0000
0010
0001
0100
,
0010
0000
0000
0020
0000
1030
0010
0001
0010
0100
0001
0010
,
0200
0000
0000
0301
0000
0000
0100
1000
0010
0100
0000
0000
,
1000
0100
0010
1000
0000
0000
1000
0100
0010
1000
0000
0010
,
0001
0010
0100
0001
0000
0000
0100
0000
0000
0001
0100
0010
,
0001
0000
0000
0100
0001
0010
0100
0000
1000
0100
0001
1000
,
0020
0000
0000
0031
0100
0010
1010
0000
0000
1000
0000
1000
,
0002
0000
0000
0103
0000
0100
0010
1000
0100
0001
0100
1000
,
0001
0010
0100
2000
0000
0000
3001
0000
0001
2000
0000
0000
,
3010
0000
0000
0000
0100
0000
0000
0000
1000
0000
0000
0000
0001
0000
0000
0000
0010
0000
0000
0000
0100
0000
0000
0000
0001
0000
0000
0000
0010
0000
0000
0000
0100
0000
0000
0000
0001
0000
0000
0000
0000
0000
0100
0000
0000
1000
0000
0000
,
0000
0001
0100
0000
0020
0000
0000
0000
1030
0000
0000
0000
0200
0000
0000
0000
,
0310
0000
0000
1001
0000
1010
0000
0110
0000
0102
0000
0000
,
0013
0000
0000
0100
1000
0001
0010
1000
0010
0001
0000
1000
,
0010
0000
0010
0100
0000
0001
0010
0000
0000
0100
0000
1000
,
0001
0000
0001
0100
0000
0010
1000
0000
0000
0100
0000
0010
,
0001
0000
0001
0100
0000
0001
0010
0000
0000
0100
0000
0100
,
1000
0000
0001
0000
0000
0001
0100
0000
0000
0010
0000
1000
,
0100
0000
0100
0010
0000
0001
0100
0000
0000
0010
0000
1000
,
0001
0000
0001
0010
0000
0100
0010
0000
0000
0100
0000
1000
,
0001
0000
0100
0010
0000
0010
1000
0000
0001
0100
0000
0110
,
0000
1000
0010
0001
0000
0110
0000
0100
0001
0010
0000
0100
,
1000
0000
0001
0100
0000
0010
0001
0000
0000
0010
0000
1000
,
0100
0000
0010
0001
0000
0100
0010
0000
0000
0100
0000
0010
,
0001
0000
0010
1000
0000
0001
0010
0000
0000
0100
0000
0010
,
0001
0000
0100
0000
0000
0100
0010
0000
0000
0100
0000
1000
,
0100
0000
0001
0100
0000
0010
0100
0000
0000
0010
0000
1000
,
0100
0000
0010
0001
0000
0100
0010
0000
0000
0100
0000
0001
,
0100
0000
1000
0100
0000
0001
0100
0000
0000
1000
0100
0010
,
1000
0100
0010
0001
0010
0100
0010
0100
1000
0001
1000
0010
,
0001
0000
0010
1000
0000
0001
1000
0000
0000
0001
1000
0100
,
0001
0000
0100
1000
0000
0001
0100
0000
0000
0001
1000
0010
,
0001
0000
0010
1000
0000
0001
0010
1000
0010
0100
0000
0100
,
1000
0000
0001
0100
1000
0100
0010
0100
0001
1000
0001
0100
,
1000
0000
0100
0001
0000
0010
0100
0000
0000
0001
1000
0010
,
0001
0000
0010
0100
0000
1000
0010
0000
0000
0100
0001
0010
,
0011
0000
0000
0100
1000
0010
1010
0000
0000
0010
1000
0100
,
1100
0000
0000
0010
0001
0100
0010
1000
0100
0001
0100
1000
,
0001
0000
0100
0010
0001
0010
0100
0000
0000
1000
0100
0001
,
1000
0000
0100
0010
1000
0010
0100
0000
0000
0001
0100
1000
,
0001
0000
0010
0100
0001
0100
0010
0000
0000
1000
0010
0001
,
1000
0000
0010
0100
1000
0100
0010
1000
0010
0001
0010
1000
,
0001
0000
0010
1000
0010
0001
0010
0000
0000
1000
0010
0001
,
1000
0000
0100
0001
0100
1000
0100
0000
0000
0001
0100
1000
,
0001
0000
1000
0010
0001
0010
0100
0000
1000
0100
0000
0001
,
0100
0000
0010
0100
0000
1000
0100
0001
0010
0100
0000
1000
,
0001
0000
0001
0100
0000
0010
0100
0000
0000
1000
0000
0100
,
0001
0000
0001
0010
0000
0010
0100
0000
0000
0001
0000
0100
,
1000
0000
1000
0010
0000
0100
0010
0000
0000
0001
0000
0010
,
1000
0000
1000
0100
0000
0100
0010
0000
0000
0001
0000
0011
,
0000
0001
0100
1000
0000
1100
0000
1000
0100
0010
0000
0110
,
0000
0100
0001
0010
0000
0110
0000
0010
0100
0001
0100
0010
,
0001
0100
0010
0001
0010
1000
0001
0010
1000
0010
0100
1000
,
0010
0100
1000
0001
0010
1000
0001
0010
0100
1000
1000
0100
,
1100
0000
0000
0001
0001
0100
0101
0000
0000
0001
0001
0100
,
0010
1000
1001
0000
0000
0000
0000
0000
0000
0000
0000
0000
;

//---------------dance-single - ----------------
#NOTES:
     dance-single:
     :
     Easy:
     4:
     0.316342,0.382948,0.203156,0.243787,0.000000,261.000000,30.000000,36.000000,0.000000,0.000000,0.000000,0.316342,0.382948,0.203156,0.243787,0.000000,261.000000,30.000000,36.000000,0.000000,0.000000,0.000000:
0000
0000
0000
0000
,
1000
0000
0001
0000
,
1000
0010
0100
0002
,
1003
0000
0000
0000
,
0001
1000
1001
0000
,
1000
1000
1000
0100
,
0010
0001
0200
0300
,
0001
0001
0001
0100
,
0010
1000
0200
0300
,
0010
0010
0010
0001
,
1000
0010
0200
0300
,
2002
3003
0220
0330
,
0002
2003
3001
0000
,
1000
0000
0001
0000
,
0010
0000
0100
0000
,
1000
0000
0010
0000
,
0200
0000
0000
0300
,
0001
0000
1000
0000
,
0010
0000
0100
0000
,
0001
0001
1000
1000
,
0010
0010
0100
0110
,
0001
0000
1000
0000
,
0010
0000
0100
0000
,
0001
0000
0010
0000
,
0200
0000
1300
1000
,
0010
0100
0001
0010
,
0220
0000
0000
0330
,
1001
0000
0110
0000
,
1001
0110
1001
0000
,
0001
0001
0001
0001
,
0001
0001
0000
1001
,
1000
1000
1000
1000
,
1000
1000
0000
1001
,
1001
0000
0110
0000
,
2002
3003
0110
0000
,
0000
0000
0000
0000
,
0000
0000
0000
0000
,
1000
0000
0001
0000
,
0200
0000
0300
0000
,
0010
0000
1000
0000
,
0002
0000
0003
0010
,
0010
0000
0100
0000
,
2000
0000
0000
3000
,
0010
0000
0100
0000
,
0002
0000
0003
1000
,
1000
0000
0001
0000
,
0020
0000
0130
0000
,
0020
0000
0030
0000
,
0001
0001
0100
0200
,
0000
0000
0310
0020
,
0000
2030
0000
3002
,
0000
1003
0100
0020
,
0000
0230
0000
2300
,
3100
0000
0100
0000
,
0100
0010
0001
0200
,
0310
0000
0010
0000
,
0010
0000
0010
2000
,
3001
0000
0001
0000
,
0001
0010
0100
2000
,
3010
0000
0010
0100
,
0001
0010
0100
2000
,
3100
0000
0100
0000
,
0100
1000
0010
0200
,
0310
0000
0010
0000
,
0010
0000
0010
0020
,
1030
0000
1000
0000
,
1000
0100
0010
0002
,
0103
0000
0100
0010
,
1000
0001
0010
0100
,
1000
1001
0000
0010
,
0001
0100
0001
0010
,
0100
0110
0000
0100
,
1000
0010
1000
0100
,
0010
0110
0000
0001
,
0010
0100
1000
1001
,
0000
0110
0000
1001
,
0000
0110
0000
0100
,
1000
1001
0000
0010
,
0001
1000
0010
0100
,
0010
0110
0000
0010
,
1000
0100
0010
0001
,
1000
1001
0000
0001
,
0100
0010
1000
0100
,
1000
1001
0000
0001
,
0100
0010
1000
0100
,
0010
0001
0100
0010
,
0100
0001
0000
1000
,
0100
0010
0001
0100
,
0010
1000
0000
0001
,
0001
1000
1000
0010
,
0010
0100
0100
0001
,
1000
0100
0010
0001
,
1000
0010
0100
0010
,
0110
0100
0110
0010
,
1000
1001
0000
0000
;
