#TITLE:Let's Get Away;
#SUBTITLE:;
#ARTIST:NAOKI feat. Brenda Burch;
#TITLETRANSLIT:;
#SUBTITLETRANSLIT:;
#ARTISTTRANSLIT:;
#GENRE:;
#CREDIT:;
#BANNER:Let's Get Away.png;
#BACKGROUND:Let's Get Away-bg.png;
#LYRICSPATH:;
#CDTITLE:./CDTITLES/DanceDanceRevolution 2010.png;
#MUSIC:Let's Get Away.ogg;
#OFFSET:0.000000;
#SAMPLESTART:52.820000;
#SAMPLELENGTH:15.000000;
#SELECTABLE:YES;
#DISPLAYBPM:150.000000;
#BPMS:0.000000=150.000000
;
#STOPS:
;
#BGCHANGES:;
#KEYSOUNDS:;
#ATTACKS:;

//---------------dance-single - ----------------
#NOTES:
     dance-single:
     :
     Beginner:
     2:
     0.128593,0.143774,0.050008,0.158360,0.000000,83.000000,6.000000,19.000000,0.000000,0.000000,0.000000,0.128593,0.143774,0.050008,0.158360,0.000000,83.000000,6.000000,19.000000,0.000000,0.000000,0.000000:
0000
0000
0000
0000
,
0000
0000
0000
0000
,
0000
0000
0000
0000
,
0000
0000
0000
0000
,
0000
0000
0000
0000
,
1000
0000
0000
0000
,
0000
0000
0000
0000
,
0001
0000
0000
0000
,
0001
0000
0001
0000
,
0001
0000
0000
0000
,
0010
0000
0000
0000
,
1000
0000
0000
0000
,
0100
0000
0000
0000
,
0001
0000
0000
0000
,
0010
0000
0000
0000
,
1000
0000
1000
0000
,
1000
0000
0000
0000
,
0002
0000
0003
0000
,
2000
0000
3000
0000
,
0001
0000
0001
0000
,
0001
0000
0000
0000
,
0020
0000
0030
0000
,
2000
0000
3000
0000
,
0100
0000
0100
0000
,
0100
0000
0000
0000
,
0002
0003
0000
0000
,
2000
3000
0000
0000
,
0020
0030
0000
0000
,
0010
0000
0000
0000
,
0002
0000
0003
0000
,
2000
0000
3000
0000
,
0010
0000
0010
0000
,
1001
0000
0000
0000
,
0001
0000
0010
0000
,
0010
0000
0001
0000
,
1000
0000
0010
0000
,
1000
0000
0000
0000
,
2000
0000
3000
0000
,
0002
0000
0003
0000
,
1001
0000
0000
0000
,
1001
0000
0000
0000
,
0001
0000
0100
0000
,
0100
0000
0001
0000
,
1000
0000
0100
0000
,
1000
0000
0000
0000
,
2000
0000
3000
0000
,
0002
0000
0003
0000
,
0110
0000
0000
0000
,
0110
0000
0000
0000
,
0001
0000
0000
0000
,
1000
0000
0000
0000
,
0020
0030
0020
0000
,
0000
0030
0000
0000
,
0002
0003
0000
0000
,
1000
0000
1000
0000
,
2000
3000
0000
0000
,
0001
0000
0001
0000
,
0002
0003
0000
0000
,
0010
0000
0001
0000
,
0001
0000
0100
0000
,
1000
0000
0010
0000
,
0002
0000
0000
0000
,
0000
0003
0000
0000
,
0001
0000
0001
0000
,
1000
0000
0000
0000
,
0010
0000
0010
0000
,
0100
0000
0000
0000
,
0001
0000
0001
0000
,
1000
0000
1000
0000
,
1001
0000
0000
0000
,
;

//---------------dance-single - ----------------
#NOTES:
     dance-single:
     :
     Easy:
     4:
     0.177411,0.201284,0.050008,0.116686,0.000000,129.000000,6.000000,14.000000,0.000000,0.000000,0.000000,0.177411,0.201284,0.050008,0.116686,0.000000,129.000000,6.000000,14.000000,0.000000,0.000000,0.000000:
0000
0000
0000
0000
,
0000
0000
0000
0000
,
0000
0000
0000
0000
,
0000
0000
0000
0000
,
0000
0000
0000
0000
,
0001
0000
0000
0000
,
1000
0000
0000
0000
,
0001
0000
0000
0000
,
0010
0010
0010
0010
,
0010
0000
0001
0000
,
0010
0000
1000
0000
,
0001
0000
1000
0000
,
0100
0000
0100
0000
,
0001
0000
0100
0000
,
1000
0000
0100
0000
,
0010
0000
0010
0000
,
0100
0000
0100
0000
,
0002
0000
0003
0000
,
2000
0000
3000
0000
,
0001
0000
0010
0000
,
0100
0000
1000
0000
,
0002
0000
0003
0000
,
2000
0000
3000
0000
,
0001
0000
1000
0000
,
0001
0000
0010
0001
,
0020
0000
0030
0000
,
1000
0000
1000
1000
,
0001
0000
0001
0001
,
0100
0000
0100
0000
,
0002
0000
1003
0000
,
2000
0000
3001
0000
,
0001
0000
0010
0010
,
0110
0000
0000
0000
,
0001
0010
0001
0010
,
0001
0000
0001
0000
,
1000
0010
1000
0010
,
1000
0000
0000
0000
,
1001
0000
0001
0000
,
1000
0000
0010
0000
,
0110
0000
0000
0000
,
0010
0000
0010
0000
,
0001
0100
0001
0100
,
0001
0000
0001
0000
,
1000
0100
1000
0100
,
1000
0000
0000
0000
,
1001
0000
1000
0000
,
0001
0000
0100
0000
,
0110
0000
0000
0000
,
0020
0000
0030
0000
,
0010
0000
1000
0000
,
0010
0000
0100
0000
,
0100
0000
2002
0000
,
0000
3003
0000
0000
,
0001
1000
0001
0000
,
0020
0000
0030
0000
,
1000
0001
1000
0000
,
0200
0000
0300
0000
,
0001
1000
0001
0000
,
0020
0000
0030
0000
,
0001
0001
0001
0000
,
1000
1000
1000
0000
,
0200
0000
0000
0000
,
0300
0000
0000
0000
,
0001
0000
0010
0000
,
1000
1000
0010
0000
,
0100
0000
0100
0000
,
0001
0001
1000
0000
,
0010
0000
0010
0000
,
0010
0000
1000
0001
,
0100
0000
0000
0000
,
;

//---------------dance-single - ----------------
#NOTES:
     dance-single:
     :
     Medium:
     7:
     0.326245,0.373812,0.150025,0.100017,0.000000,244.000000,18.000000,12.000000,0.000000,0.000000,0.000000,0.326245,0.373812,0.150025,0.100017,0.000000,244.000000,18.000000,12.000000,0.000000,0.000000,0.000000:
0000
0000
0000
0000
,
0000
0000
0000
0000
,
0000
0000
0000
0000
,
0000
0000
0000
0000
,
0000
0000
0000
0000
,
0010
0000
0010
0000
,
2000
0000
0000
3000
,
0001
0000
0001
0000
,
0100
0000
0100
0000
0010
0010
1000
0000
,
0100
0000
0001
1000
,
0100
0000
0001
1000
,
0001
0000
1000
0001
,
0100
0000
0000
0000
0010
1000
0001
0000
,
0010
0000
0001
1000
,
0100
0000
0001
1000
,
0010
0000
0010
0000
0010
0100
0010
0100
,
0010
0000
0010
0000
,
0001
0001
1000
1000
,
0001
0010
1000
0100
,
0001
1000
0001
1000
,
0200
0300
0000
0100
,
0001
0001
1000
1000
,
0001
0100
1000
0010
,
0002
0103
0200
0301
,
0001
0000
1000
0000
0100
0100
1000
0000
,
0001
0000
0010
0100
,
1001
0000
0000
0000
0010
0100
0010
0000
,
1001
0000
0001
0010
,
0001
1000
0001
0000
0100
0001
0100
0000
,
0020
0000
1030
1000
,
0200
0000
0301
0001
,
1000
0000
0001
0000
1000
0001
0100
0000
,
0200
0000
0300
0000
,
2001
3100
1002
0103
,
0001
0000
0010
0000
0100
0000
1000
0100
,
1000
1000
0001
0001
,
1000
1001
0010
1001
,
0100
0000
0000
0000
0001
1000
0100
0000
,
0100
1000
0001
0100
,
0010
0000
0100
0010
0000
0100
0010
0000
,
0100
0100
0100
0010
,
2001
3100
1002
0103
,
1000
0000
0100
0000
0010
0000
0001
0010
,
0001
0001
1000
1000
,
0001
1001
0010
1001
,
0100
0000
0000
0000
1000
0001
0100
0000
,
0100
0001
0010
1000
,
0010
0000
0001
0100
0000
0001
0100
0000
,
0100
0100
0100
0010
,
0010
0000
0001
0000
1000
0100
1000
0000
,
0001
0000
0100
0000
0001
0010
0001
0000
,
0010
0100
1001
0000
,
0000
0000
0000
0000
,
0010
0000
0100
1000
0000
0000
1001
0000
,
0001
0000
1000
0100
0000
0000
1001
0000
,
0010
0000
0100
0001
0000
0000
1001
0000
,
1000
0000
0001
0100
0000
0000
1001
0000
,
0010
0000
0100
1000
0000
0000
1001
0000
,
0001
0000
1000
0100
0000
0000
1001
0000
,
0001
1000
0001
1000
0001
1000
0001
1000
,
0010
0010
0100
1100
,
0002
0000
0000
0100
,
0000
0000
0000
0103
,
0001
0100
1000
0100
,
0001
0000
0100
0000
1000
0100
1000
0000
,
0001
0100
1000
0100
,
0001
0010
1000
0010
,
0001
1000
0001
0000
1000
0000
0010
0000
,
0001
0000
0100
0000
1000
0100
0010
0000
,
0001
0000
0000
0000
,
;

//---------------dance-single - ----------------
#NOTES:
     dance-single:
     :
     Hard:
     9:
     0.411973,0.402567,0.233372,0.091682,0.000000,307.000000,28.000000,11.000000,0.000000,0.000000,0.000000,0.411973,0.402567,0.233372,0.091682,0.000000,307.000000,28.000000,11.000000,0.000000,0.000000,0.000000:
0000
0000
0000
0000
,
0000
0000
0000
0000
,
0000
0000
0000
0000
,
0000
0000
0000
0000
,
0000
0000
0000
0000
,
0020
0000
0000
0030
,
0200
0000
0000
0300
,
0001
0001
1000
1000
,
0001
0010
0001
0010
0100
0010
0000
0100
,
1000
0001
0000
0001
,
0100
0000
0101
0000
0000
0000
0001
1000
,
0100
0001
0000
0001
,
0010
0000
1001
0000
1000
0000
0010
0010
,
0100
1000
0000
1000
,
0010
0000
1010
0000
0000
0000
1000
0010
,
0100
0000
1000
0000
0010
0001
1000
0100
,
0001
0001
0100
0000
,
0001
0010
0001
1000
,
0020
0031
0100
1000
,
0001
1100
1000
0101
,
0010
0000
0010
1000
0000
0100
0001
0100
,
0001
0000
1000
0000
0001
1000
0100
0000
,
0020
0031
2000
3100
,
1000
0000
0010
0000
0100
0001
0100
0000
,
1001
0000
0010
0000
0100
0010
0100
0010
,
2002
0000
3003
0000
0001
0010
0100
0000
,
1001
0000
0000
0000
1000
0001
0100
0000
,
0110
0001
1000
0100
,
0010
0100
0010
0001
0010
1000
0100
0000
,
1000
0000
1000
0000
1000
0010
0100
0001
,
0020
0031
0000
0001
,
1100
0000
1001
0100
1000
0010
0100
0001
,
0020
0030
0002
0003
,
1000
0001
0100
0000
1000
0001
0100
0000
,
0010
0000
1001
0000
0100
0001
0010
0001
,
0100
0000
0100
0000
0100
1000
0010
1000
,
0100
1100
1001
0101
,
1001
0000
0000
0000
0001
0100
1000
0100
,
0001
0010
0100
1000
,
0001
0000
0010
0001
0000
1000
0010
0000
,
0100
1000
0001
1000
0100
0000
1100
0000
,
0001
1000
0100
0000
0001
1000
0100
0000
,
0010
0000
1001
0000
0100
1000
0010
1000
,
0100
0000
0100
0000
0100
0001
0010
0001
,
0100
0101
1001
1100
,
1001
0000
0000
0000
1000
0100
0001
0100
,
1000
0010
0100
0001
,
1000
0000
0010
1000
0000
0001
0010
0001
,
1000
0001
0000
0000
1001
0000
1001
0000
,
1000
0000
0001
0000
0010
0001
0100
0000
,
0110
0000
0010
0000
1000
0001
0100
0001
,
0010
0000
1000
0000
0100
0010
0001
0000
,
0001
0000
0000
0000
,
1000
0000
0100
0001
0000
0000
0100
0001
,
0100
0000
0100
0010
0000
0100
0001
1000
,
0001
1000
0100
1000
0000
0100
1000
0000
,
0100
0000
0100
0010
0000
1000
0001
0100
,
1000
0000
0100
0001
0000
0000
0100
0001
,
0100
0000
0100
0010
0000
0100
0001
1000
,
1000
0001
0100
0001
1000
0100
1000
0001
,
0010
0001
0100
0010
0110
0000
1000
0100
,
0020
0001
0000
0100
,
0000
1000
0000
0130
,
0001
1000
0100
0000
1000
0000
0100
0000
,
0001
0100
0001
0000
0100
0000
0110
0000
,
1000
0000
0100
0000
0010
0010
0100
0000
,
0001
0100
0010
0100
,
1000
0001
0100
0001
1000
0010
0100
0001
,
0010
0000
0010
0000
0100
1000
0010
0100
,
1001
0000
0000
0000
;

//---------------dance-double - ----------------
#NOTES:
     dance-double:
     :
     Easy:
     6:
     0.323864,0.373812,0.083347,0.408401,0.000000,213.000000,10.000000,49.000000,0.000000,0.000000,0.000000,0.323864,0.373812,0.083347,0.408401,0.000000,213.000000,10.000000,49.000000,0.000000,0.000000,0.000000:
00000000
00000000
00000000
00000000
,
00000000
00000000
00000000
00000000
,
00000000
00000000
00000000
00000000
,
00000000
00000000
00000000
00000000
,
00000000
00000000
00000000
00000000
,
00000010
00001000
00000010
00000000
,
00000001
00000100
00001000
00000000
,
00010000
01000000
02020000
03030000
,
01000000
00010000
00001000
00000100
,
00000010
00000010
00001000
00001000
,
00010000
00010000
01000000
01000000
,
10000000
10000000
00010000
00010000
,
00001000
00001000
00000010
00000010
,
00001000
00010000
01000000
10000000
,
01000000
00010000
00001000
00000100
,
00000001
00000100
00001000
00010000
,
00200000
00000000
00000000
00300000
,
00001000
00001000
00000010
00000001
,
00000020
00002030
00013000
01000000
,
20000000
00000000
02000000
33000000
,
00010000
00001000
00000100
00000001
,
00000100
00000100
00001000
00010000
,
00200000
10300000
00100000
00010000
,
00002000
00000000
00003010
00000001
,
00000100
00001000
00010000
00100000
,
20000000
30000000
00100000
00010000
,
00002000
00003000
00000100
00000001
,
00000200
00000300
00001000
00010000
,
00100000
10000000
01000000
00000000
,
00020000
00030000
00000010
00001000
,
00022000
00000000
00033000
01000000
,
10000000
10000000
01000000
00010000
,
00022000
00000000
00000000
00033000
,
00002000
00013000
00200000
10300000
,
00200000
00310000
00001000
00001000
,
00000020
00000031
00000020
00001030
,
00020000
00230000
20300000
31000000
,
02020000
03030000
00001000
00000100
,
00000001
00000100
00001000
00010000
,
02020000
03030000
20200000
30300000
,
10000000
01000000
00100000
00010000
,
00001000
00002000
00003010
00000020
,
00000031
00000002
00000103
00000200
,
00001300
00020000
01030000
20000000
,
31000000
00020000
00031000
00000100
,
00000202
00000303
00000100
00001000
,
00010000
00100000
10000000
01000000
,
02020000
03030000
00022000
00033000
,
00000020
00001000
00001000
00001030
,
00020000
00000000
02000000
00030000
,
13000000
01000000
00010000
00001000
,
00000200
00000000
00000002
00000303
,
00000100
00001000
00010000
01000000
,
00100000
00000000
00010000
01000000
,
00010000
00001000
00000100
00000000
,
00000100
00000000
00010000
00001000
,
00100000
00010000
01000000
00000000
,
10000000
00000000
01000000
00010000
,
00001000
00000100
00000001
00000000
,
00001000
00000010
00000100
00000001
,
00000100
00001000
00010000
01000000
,
10000000
00000000
00010000
00000000
,
01000000
00100000
01000000
00000000
,
00010000
00000000
00100000
00000000
,
00001000
00010000
00001000
00000000
,
00000010
00000000
00000001
00000000
,
00001000
00000100
00001000
00000000
,
00000001
00000001
00001000
00001000
,
00000010
00000100
00001000
00010000
,
00011000
00000000
00000000
00000000
,
;

//---------------dance-double - ----------------
#NOTES:
     dance-double:
     :
     Medium:
     10:
     0.377444,0.546341,0.033339,0.441740,0.000000,260.000000,4.000000,53.000000,0.000000,0.000000,0.000000,0.377444,0.546341,0.033339,0.441740,0.000000,260.000000,4.000000,53.000000,0.000000,0.000000,0.000000:
00000000
00000000
00000000
00000000
,
00000000
00000000
00000000
00000000
,
00000000
00000000
00000000
00000000
,
00000000
00000000
00000000
00000000
,
00000000
00000000
00000000
00000000
,
00010000
00000000
00001000
00000000
,
00000100
00000000
00000000
00000000
00000010
00000001
00000000
00000010
,
00001000
00000000
00010000
00000000
,
00100000
00010000
00100000
10000000
,
01000000
10000000
00010000
00100000
,
00001000
00000000
00010000
00000000
00000010
00000000
00000100
00000100
,
00000010
00000001
00001000
00000100
,
00001000
00000000
00100000
00000000
00010000
00000000
10000000
00100000
,
00010000
01000000
00010000
00001000
,
00000010
00000000
00001000
00000000
00000001
00000000
00000100
00000100
,
00001000
00010000
00001000
00100000
,
01100000
00000000
00010000
00010000
,
00000010
00000000
00001000
00000000
00010000
00000000
00001000
00010000
,
00100000
00000000
10000000
00000000
00100000
00000000
00010000
00001000
,
00000010
00000000
00000001
00000000
00000100
00000000
00001000
00000010
,
00000010
00001000
00010000
00000000
00100000
00010000
00001000
00000000
,
00000100
00000000
00001000
00000000
00010000
00000000
00001000
00010000
,
01000000
00000000
10000000
00000000
00100000
00000000
00010000
00001000
,
00000100
00000000
00001000
00000000
00000010
00000000
00001000
00000100
,
00000100
00001000
00010000
00000000
01000000
00010000
00001000
00000000
,
00000020
00000000
00000000
00000032
00000003
00000010
00000021
00000000
,
00002000
00000030
00000000
00023000
00000000
00130000
10000000
00000000
,
00200000
00000000
00000000
20300000
30000000
00100000
10200000
00000000
,
00020000
00300000
00000000
00000200
00000000
00000000
00030300
00000000
,
00000002
00000000
00000000
00000200
00000003
00000300
00001000
00000020
,
00000000
00000000
00000000
00001030
,
00100000
00000000
00200000
00000000
20300000
30000000
02000000
20000000
,
00000000
00000000
00000000
00000000
00000000
33000000
00000000
00000000
,
00010000
00000000
00001000
00010000
00000000
00100000
00010000
01000000
,
00000000
00010000
00001000
00000010
00000000
00000001
00000010
00000001
,
00000100
00000000
00001000
00000100
00000000
00001000
00010000
00001000
,
00020000
02030000
23000000
30200000
,
00020000
00300000
00000200
00030000
,
00000002
00000300
00000200
00000003
,
00002000
00000300
00000000
00200000
00000000
00003000
00000000
00020000
,
00000000
00000000
00030000
01300000
,
00001000
00000000
00010000
00001000
00000000
00000010
00001000
00000100
,
00000000
00001000
00010000
00100000
00000000
10000000
00100000
10000000
,
01000000
00000000
00010000
01000000
00000000
00010000
00001000
00010000
,
00002000
00003200
00000302
00000023
,
00002000
00000000
00003030
00000000
00010000
00100000
00010000
00000000
,
00200000
20300000
32000000
03020000
,
00032000
00003000
00000200
00002300
00003000
00010000
00002000
00020000
,
00000000
00000000
00003000
01030000
,
00020000
00000000
00000000
00002000
00030000
00000000
00003010
00000000
,
00002000
00000000
00000000
00020000
00003000
00000000
00130000
00000000
,
00020000
00000000
00030000
00000020
00000002
00000000
00000000
00000000
,
00000000
00000000
00000000
00000033
,
00000100
00000000
00000001
00000001
00000000
00000000
00001000
00000000
,
00000010
00000000
00010000
00010000
00000000
00000000
00001000
00000000
,
00100000
00000000
01000000
01000000
00000000
00000000
10000000
00000000
,
00100000
00000000
01000000
01000000
00000000
00000000
00010000
00000000
,
00001000
00000000
00000100
00000100
00000000
00000000
00010000
00000000
,
00000010
00000000
00001000
00001000
00000000
00000000
00000100
00000000
,
00010000
00001000
00000010
00000001
,
00000100
00000000
00000010
00000000
00000100
00000000
00001000
00010000
,
00002000
00100000
00010000
00103000
,
02000000
00100000
00010000
03100000
,
00020000
00100000
10000000
00130000
,
20000000
01000000
00010000
31000000
,
00100000
00000000
00010000
00000000
01000000
00001000
00010000
00000000
,
00000010
00000000
00001000
00000000
00000100
00000010
00000001
00000000
,
00001000
00000010
00001000
00000000
00000001
00000100
00000001
00000000
,
00000010
00000001
00000100
00000000
00001000
00010000
00001000
00000000
,
00011000
00000000
00000000
00000000
,
;

//---------------dance-double - ----------------
#NOTES:
     dance-double:
     :
     Hard:
     13:
     0.491749,0.460077,0.150025,0.075012,0.045841,386.000000,18.000000,9.000000,0.000000,0.000000,0.000000,0.491749,0.460077,0.150025,0.075012,0.045841,386.000000,18.000000,9.000000,0.000000,0.000000,0.000000:
00000000
00000000
00000000
00000000
,
00000000
00000000
00000000
00000000
,
00000000
00000000
00000000
00000000
,
00000000
00000000
00000000
00000000
,
00000000
00000000
00000000
00000000
,
00000100
00000000
00001000
00000000
00000001
00001000
00000100
00001000
,
00010000
00000000
00001000
00000000
01000000
00100000
10000000
00010000
,
01000000
00000000
00001000
00000000
00010000
00000010
00001000
00000100
,
00000001
00000100
00010000
00001000
01000000
00100000
01000000
00000000
,
10000000
00100000
00010000
00000000
00001000
00000010
00000001
00000000
,
00000001
00000100
00001000
00000000
00010000
01000000
10000000
00000000
,
10000000
00100000
00010000
00000000
00001000
00000100
00000001
00000000
,
00000001
00000010
00001000
00000000
00010000
01000000
10000000
00000000
,
00100000
10000000
00100000
01000000
00100000
00010000
00001000
00000100
,
00000010
00000100
00001000
00000100
00001000
00010000
01000000
10000000
,
01000000
00010000
10000000
01000000
00100000
10000000
01000000
00010000
,
00001000
00010000
00000100
00000010
00000100
00000010
00001000
00010000
,
01000000
00000000
10000000
00000000
00010000
00000000
01000000
00010000
,
00001000
00000000
00000100
00000000
00000010
00000000
00000100
00010000
,
01000000
00000000
00010000
00000000
01000000
00000000
10000000
00010000
,
00001000
00000000
00000100
00000010
00000000
00000010
00001000
00010000
,
01000000
00000000
00100000
00000000
00010000
00000000
10000000
00100000
,
01000000
00000000
00001000
00000000
00000100
00000000
00000010
00001000
,
00010000
00000000
01000000
00000000
00010000
00000000
01000000
00010000
,
00001000
00000000
00000100
00000000
00000010
00000000
00000100
00001000
,
00010000
01000000
00100000
01000000
10000000
01000000
00100000
00000000
,
00001000
00000100
00000010
00001000
00010000
00100000
00010000
00000000
,
01000000
00010000
01000000
00010000
00001000
00000100
00000010
00000000
,
00001000
00010000
01000000
00010000
00000000
10000000
01000000
00000000
,
00100000
00000000
00001000
00000000
00000010
00000100
00001000
00000000
,
00000010
00000000
00010000
00000000
00100000
01000000
00010000
00000000
,
00100000
00000000
00001000
00000000
00000010
00000100
00001000
00022000
,
00000000
00000000
00000000
00033000
,
00100000
00000000
00010000
00000000
10000000
00000000
00010000
00000000
00000000
00000000
00100000
00000000
01000000
00000000
00010000
00001000
,
00010000
00000000
00000010
00000000
00001000
00000000
00000100
00000000
00000000
00000000
00001000
00000000
00010000
00000000
00001000
00010000
,
00001000
00000000
00000100
00000000
00010000
00000000
01000000
00000000
00000000
00000000
10000000
00000000
00100000
00000000
00010000
00001000
,
00020000
00000000
00000010
00000000
00001000
00000000
00030100
00010000
,
00001000
00000000
00000000
00000000
00000000
00000000
00000000
00000000
01000000
00000000
00010000
00000000
00001000
00000000
00000100
00000010
,
00000100
00000000
00001001
00000000
00010100
00000000
00101000
00010000
,
10000000
00000000
01000000
00010000
00000000
00001000
00000100
00000010
,
00000220
00000000
00000330
00001000
,
00010000
00000000
00100000
00000000
10000000
00000000
01000000
00000000
00000000
00000000
00010000
00000000
00001000
00000000
00000100
00001000
,
00000100
00000000
00000001
00000000
00001000
00000000
00000010
00000000
00000000
00000000
00010000
00000000
00001000
00000000
00010000
01000000
,
00010000
01000000
00100000
01000000
00000000
00010000
00001000
00000010
,
00001001
00000101
00001010
00000011
,
00002200
00000000
00003300
00000000
00000010
00000100
00001000
00100000
,
01000000
11000000
01010000
00110000
,
00011000
00000000
00000100
00000020
00000030
00001000
00010000
01000000
,
00100000
00010000
01000000
00100000
00000000
10000000
01000000
00000000
,
00010000
00000000
00000100
00000000
00000010
00000100
00001000
00010000
,
00010000
00000000
01000000
00000000
00100000
00010000
10000000
00010000
,
00001000
00000000
00000100
00000000
00000010
00001000
00010000
01000000
,
10000000
01000000
00100000
02000000
00000000
00000000
03010000
00000000
,
10000000
00100000
00010000
00001000
00000000
00100000
00001000
00010000
,
00000100
00000000
00000000
00000010
00000000
00000000
00001001
00000000
00000000
00000000
00000010
00000000
00000100
00000000
00000000
00000000
,
00000001
00000010
00001000
00010000
00000000
00000010
00010000
00001000
,
01000000
00000000
00000000
00100000
00000000
00000000
10010000
00000000
00000000
00000000
00100000
00000000
01000000
00000000
00000000
00000000
,
00100000
10000000
01000000
00010000
00000000
01000000
00100000
00001000
,
00010000
00000000
00000000
00000010
00000000
00000000
00001010
00000000
00000000
00000000
00000100
00000000
00000001
00000000
00000100
00000000
,
00000010
00010000
00001000
00000100
00000010
00001000
00010000
01000000
,
00100000
00000000
10000000
00000000
01000000
00000000
00100000
00000000
01000000
00000000
00000000
00000000
10000000
00010000
10000000
00010000
,
10000000
00000000
00100000
00000000
01000000
00001000
00010000
00000100
,
00001000
00000000
00000010
00000000
00000100
00000001
00000010
00000000
,
00000001
00000000
00001000
00000000
00000010
00000100
00001000
00010000
,
00100000
00000000
01000000
00000000
00010000
10000000
00100000
00000000
,
10000000
00000000
01000000
00000000
00100000
01000000
10000000
01000000
,
00100000
00000000
00001000
00000000
00010000
00001000
00000100
00000000
,
00000010
00001000
00000001
00000010
00000100
00001000
00000001
00000100
,
00001000
00000000
00001000
00000000
00010000
01000000
10000000
00010000
,
10010000
00000000
00000000
00000000
,
;

//---------------dance-single - ----------------
#NOTES:
     dance-single:
     :
     Challenge:
     14:
     0.682257,0.668132,0.275046,0.100017,0.425071,528.000000,33.000000,12.000000,0.000000,0.000000,0.000000,0.682257,0.668132,0.275046,0.100017,0.425071,528.000000,33.000000,12.000000,0.000000,0.000000,0.000000:
// measure 0
0000
0000
0000
0000
,  // measure 1
0000
0000
0000
0000
,  // measure 2
0000
0000
0000
0000
,  // measure 3
0000
0000
0000
0000
,  // measure 4
0000
0000
0000
0000
,  // measure 5
0100
0001
1000
0000
0100
0010
0100
0000
,  // measure 6
1100
0000
0011
0000
0001
0100
0010
1000
,  // measure 7
0001
1000
0100
0000
0010
0001
1000
0001
,  // measure 8
0100
0000
0100
0000
0001
0100
0000
0100
0010
1000
0000
0010
0100
0000
0010
0100
,  // measure 9
0010
1000
0000
0010
0000
1000
0010
0000
0100
0001
0000
0100
0000
0001
0100
0000
,  // measure 10
0001
0010
0000
0001
0000
0010
0001
0000
0100
0010
0000
0100
0000
0010
0100
0000
,  // measure 11
0010
1000
0000
0010
0000
1000
0010
0000
0100
0001
0000
0100
0000
0001
0100
0000
,  // measure 12
0001
1000
0000
0001
0000
1000
0001
0000
0010
0001
0000
0100
0001
0100
0001
0000
,  // measure 13
1000
0100
0000
0010
0000
0100
1000
0000
0001
0100
0000
0010
0000
0100
0001
0000
,  // measure 14
1000
0010
0000
0100
0000
0010
1000
0000
0001
0010
0000
0100
0000
0010
0001
0000
,  // measure 15
1000
0000
0100
0000
1000
0000
0100
0000
0010
0001
0010
0001
0010
0001
0010
0001
,  // measure 16
1000
0010
0000
0100
0000
1000
0001
0000
0010
0100
0000
0001
0000
1000
0100
0000
,  // measure 17
0010
0000
0010
0000
0001
0100
0010
0100
,  // measure 18
0001
0000
0001
0000
1000
0100
0010
0001
,  // measure 19
1000
0000
1000
0010
0100
0000
0110
0000
,  // measure 20
0001
0000
0001
0010
0000
0100
1000
0010
,  // measure 21
0100
0000
0100
0000
0010
0100
1000
0100
,  // measure 22
0010
0000
0010
0000
1000
0100
0010
0100
,  // measure 23
1000
0000
0001
0000
0010
0001
0100
0010
,  // measure 24
1000
0000
1000
0000
0001
1000
0100
0000
,  // measure 25
0011
0000
0010
0001
0100
0010
1000
0100
,  // measure 26
0110
0000
0100
1000
0010
0100
0001
0010
,  // measure 27
0110
0000
0010
0001
0100
0010
0100
0001
,  // measure 28
0011
0010
0100
1100
0000
1000
0001
1000
,  // measure 29
0010
0000
0010
0100
0010
0100
0001
1000
,  // measure 30
0200
0000
0010
0000
0310
0001
0100
0001
,  // measure 31
0010
0000
0000
0010
0100
1000
0100
0000
0010
0000
0001
0100
0001
0000
2000
0000
,  // measure 32
0000
0000
3010
0100
0010
0100
0002
0000
0000
0000
1000
0000
1003
0000
0000
0000
,  // measure 33
1000
0000
0100
0010
0100
0000
0010
0000
0001
0000
0100
0001
0100
0000
0010
0000
,  // measure 34
0100
0000
0010
1000
0010
0000
0100
0000
0001
0000
0010
0001
0010
0000
0100
0000
,  // measure 35
1000
0100
0010
0000
0001
0000
1000
0000
0001
0000
0100
0000
0010
0000
1000
0000
,  // measure 36
0100
0000
0010
0001
0010
0000
0100
0010
0100
0000
1000
0100
1000
0000
0001
0000
,  // measure 37
1002
0000
0103
0000
1000
0100
0001
0010
,  // measure 38
2000
0000
3020
0000
0031
0100
0010
0000
,  // measure 39
1010
0000
1000
0101
0000
1000
0100
0010
,  // measure 40
0001
0000
1000
0000
0000
0000
1000
0000
0000
0000
0001
0000
1000
0000
0001
0010
,  // measure 41
0001
0000
0010
0100
0010
0000
0100
0000
1000
0000
0010
1000
0010
0000
0100
0000
,  // measure 42
0010
0000
0100
0001
0100
0000
0010
0000
1000
0000
0100
1000
0100
0000
0010
0000
,  // measure 43
0001
0010
0100
0000
1000
0000
0001
0000
1000
0000
0010
0000
0100
0000
0001
0000
,  // measure 44
0010
0000
0100
1000
0100
0000
0010
0100
0010
0000
0001
0010
0001
0000
1000
0000
,  // measure 45
2001
0000
3010
0000
0001
0010
1000
0100
,  // measure 46
0002
0000
0203
0000
1300
0010
0100
0000
,  // measure 47
0101
0000
0001
1010
0000
0001
0010
0100
,  // measure 48
1000
0000
0001
0000
0000
0000
0001
0000
0000
0000
1000
0001
1000
0000
0000
0000
,  // measure 49
1001
0000
0000
0000
0001
0000
0100
0000
0010
0000
0100
0010
0100
0000
0010
0000
,  // measure 50
0110
0000
0000
0000
1000
0000
0100
0000
0010
0000
0100
0010
0100
0000
0010
0000
,  // measure 51
0110
0010
0100
0010
0001
1000
0001
1000
,  // measure 52
0100
0000
0100
0000
0000
0000
0100
0000
0000
0000
0010
0100
0010
0000
0100
0000
,  // measure 53
1100
1000
0001
0101
0000
0100
0010
0100
,  // measure 54
0001
0000
0000
0010
0000
0000
0200
0000
0000
0000
1300
0000
0001
0000
0100
0000
,  // measure 55
0101
0001
1000
1100
0000
0100
1000
0010
,  // measure 56
0100
0000
0000
0001
0000
0000
2000
0000
0000
0000
3100
0000
1000
0000
0010
0000
,  // measure 57
1010
1000
0001
0011
0000
0010
0001
0100
,  // measure 58
0010
0000
0000
1000
0000
0000
0002
0000
0000
0000
1003
0000
0100
0000
1000
0000
,  // measure 59
0001
0000
0001
0000
0010
0000
0010
0000
0100
0000
0100
0000
1000
0000
1000
0001
,  // measure 60
0100
0000
0100
0000
0010
0000
0010
1000
0001
0000
0001
0000
1000
0100
0010
0100
,  // measure 61
1000
0000
0001
0100
0001
0000
1000
0000
0100
0000
0010
0000
0100
0000
0110
0000
,  // measure 62
0000
0000
0100
1000
0100
0000
0010
0000
0001
0000
0100
0000
0010
0000
0101
0000
,  // measure 63
0000
0000
0001
0100
0001
0000
0010
0000
0100
0000
1000
0000
0010
0000
0110
0000
,  // measure 64
0000
0000
0100
0010
0001
0000
0010
0000
0100
0001
0000
1000
0100
0000
0010
0001
,  // measure 65
0100
0000
0010
0100
0001
0000
1000
0000
0001
0010
0100
0000
0010
0000
0110
0000
,  // measure 66
0000
0000
1000
0010
0100
0000
0001
0000
0010
0100
1000
0000
0010
0000
0110
0000
,  // measure 67
1000
0000
0010
0000
1000
0000
0010
0000
0100
0000
0001
0010
0100
0000
0010
0000
,  // measure 68
0001
1000
0000
0001
0000
0100
0010
0000
0100
0010
0000
0010
0000
0100
0010
0000
,  // measure 69
1001
0001
0100
0000
0010
1000
0000
0000
,  // measure 70
0110
0000
1001
0000
0001
0100
0010
1000
,  // measure 71
0000
0001
1000
0000
0100
0010
0000
0000
,  // measure 72
1100
0000
0011
0000
1000
0100
0010
0001
;
