#TITLE:You & Me;
#SUBTITLE:;
#ARTIST:田村ゆかり feat. motsu from m.o.v.e.;
#TITLETRANSLIT:;
#SUBTITLETRANSLIT:;
#ARTISTTRANSLIT:TAMURA YUKARI feat. motsu from m.o.v.e.;
#CREDIT:Chewi☆;
#BANNER:You & Me.png;
#BACKGROUND:You & Me-bg.png;
#LYRICSPATH:;
#CDTITLE:cdtitle.png;
#MUSIC:You & Me.mp3;
#OFFSET:-1.006;
#SAMPLESTART:57.663;
#SAMPLELENGTH:15.000;
#SELECTABLE:YES;
#DISPLAYBPM:160.000;
#BPMS:0.000=160.000;
#STOPS:;
#BGCHANGES:;

//---------------dance-single - Chewi----------------
#NOTES:
     dance-single:
     Chewi:
     Beginner:
     2:
     0.110,0.158,0.028,0.132,0.000:
0000
0000
0000
0000
,
0000
0000
0000
0000
,
0000
0000
0000
0000
,
0000
0000
0000
0000
,
2000
0000
0000
3000
,
1000
0000
0000
0000
,
0010
0000
0000
0000
,
0100
0000
0000
0000
,
0010
0000
0000
0000
,
0100
0000
0000
0000
,
0001
0000
0000
0000
,
0001
0000
0000
0000
,
0010
0000
0000
0000
,
0001
0000
0000
0000
,
0002
0000
0000
0003
,
0001
0000
0000
0000
,
2000
0000
0000
3000
,
1000
0000
0000
0000
,
0100
0000
0000
0000
,
0010
0000
0000
0000
,
0010
0000
0000
0000
,
0001
0000
0000
0000
,
0002
0000
0000
0003
,
2000
0000
0000
3000
,
0010
0000
0000
0000
,
0100
0000
0000
0000
,
0020
0000
0000
0030
,
0200
0000
0000
0300
,
0100
0000
0000
0000
,
1000
0000
0000
0000
,
2000
0000
0000
3000
,
0002
0000
0000
0003
,
0001
0000
0000
0000
,
0010
0000
0000
0000
,
1001
0000
0000
0000
,
0010
0000
0000
0000
,
0001
0000
0000
0000
,
1001
0000
0000
0000
,
0001
0000
0000
0000
,
1000
0000
0000
0000
,
0010
0000
0000
0000
,
0010
0000
0000
0000
,
0100
0000
0000
0000
,
0001
0000
0000
0000
,
0001
0000
0000
0000
,
0010
0000
0000
0000
,
2000
0000
0000
3000
,
1000
0000
0000
0000
,
0002
0000
0000
0003
,
0001
0000
0000
0000
,
0020
0000
0000
0030
,
0010
0000
0000
0000
,
0200
0000
0000
0300
,
0100
0000
0000
0000
,
1000
0000
0000
0000
,
0001
0000
0000
0000
,
0010
0000
0000
0000
,
0020
0000
0000
0030
,
0010
0000
0000
0000
,
0100
0000
0000
0000
,
0100
0000
0000
0000
,
1000
0000
0000
0000
,
0010
0000
0000
0000
,
0100
0000
0000
0000
,
1000
0000
0000
0000
,
0001
0000
0000
0000
,
1001
0000
0000
0000
,
1000
0001
0000
0000
;

//---------------dance-single - Chewi----------------
#NOTES:
     dance-single:
     Chewi:
     Easy:
     5:
     0.266,0.285,0.103,0.188,0.000:
0000
0000
0000
0000
,
0000
0000
0000
0000
,
0000
0000
0000
0000
,
0000
0000
0000
0000
,
2000
0000
0000
3000
,
1000
0001
0100
0010
,
0010
0000
0001
0000
,
0100
1000
0010
0001
,
0010
0000
1000
0000
,
0100
0001
0010
1000
,
0001
0000
1000
0000
,
0001
1000
0010
0100
,
0010
0000
0100
0000
,
0001
0100
0010
1000
,
0002
0000
0000
0003
,
0001
0001
1001
0000
,
2000
0000
0000
3000
,
1000
1000
1001
0000
,
0100
0010
0200
0300
,
0010
0100
0020
0030
,
0010
0010
1000
1000
,
0001
1000
0001
1000
,
0002
0000
0103
0000
,
2000
0000
3100
0000
,
0010
0100
0010
0000
,
0100
0010
0100
0000
,
0020
0000
0031
0000
,
0002
0000
0103
0000
,
0100
1000
0100
0000
,
1000
0010
1000
0000
,
2000
0000
3100
0000
,
0010
0001
0010
0000
,
0002
0000
0103
0000
,
0010
1000
0100
0000
,
1001
0000
0100
0000
,
0010
0010
0010
0010
,
0002
0000
0000
0000
,
2000
0000
0000
3003
,
0001
1000
0001
0000
,
1000
0001
1000
0000
,
0010
1000
0100
0001
,
0010
0010
0010
0000
,
0100
0010
0110
0000
,
0001
1000
1001
0000
,
0002
0003
2000
3000
,
0010
0100
0010
0000
,
2000
0000
3100
0000
,
0001
0010
0011
0000
,
0002
0000
0103
0000
,
1000
0010
1010
0000
,
0020
0000
0000
0030
,
0001
0100
1000
0000
,
0200
0000
0000
0300
,
0001
0010
1000
0000
,
1000
0000
1001
0000
,
0001
0000
1001
0000
,
0010
0010
0010
0010
,
0020
0000
0000
0130
,
0100
0000
0100
0000
,
0100
0001
0010
1000
,
0100
0000
0100
0000
,
1000
0010
0001
0100
,
0010
0000
0010
0000
,
0100
0010
1000
0001
,
1000
0000
1000
0000
,
0001
0000
0001
0000
,
1001
0000
0110
0000
,
1000
0001
0000
0000
;

//---------------dance-single - ----------------
#NOTES:
     dance-single:
     :
     Medium:
     8:
     0.423,0.475,0.245,0.320,0.000:
0000
0000
0000
0000
,
0000
0000
0000
0000
,
0000
0000
0000
0000
,
0000
0000
0000
0000
,
2000
3200
0320
0032
,
1003
1100
0001
0101
,
0100
0100
0100
0000
0010
0010
0010
0000
,
1000
0010
0100
0001
,
1000
1000
1000
0000
0001
0001
0001
0000
,
0001
0010
0100
1000
,
0100
0100
0100
0000
0010
0010
0010
0000
,
0100
0001
0010
1000
,
0010
0010
0010
0000
0100
0100
0100
0000
,
0010
1000
1001
0000
,
2000
3100
0002
0103
,
0010
0000
0100
0010
0000
0000
0000
0000
,
0200
0310
0002
1003
,
1000
0000
0100
0001
0000
0000
0000
0000
,
0100
0010
0002
1003
,
1000
0010
0200
0310
,
1000
1100
0001
0101
,
0010
1000
0100
0001
,
0010
0000
0010
0000
0010
0100
0010
0000
,
0100
0000
0100
0000
0100
0010
0100
0000
,
0010
0001
0100
1000
,
0010
1000
0100
0001
,
0010
0000
0100
0000
1000
0001
0100
0000
,
0010
0000
0100
0000
0001
1000
0100
0000
,
1000
0100
0010
0101
,
0001
0100
0010
1010
,
2000
0000
3002
0000
,
0103
0010
0110
0000
,
0200
0000
0320
0000
,
1030
0100
0011
0000
,
0001
0000
0000
1000
0001
0000
0000
0001
,
1000
1000
0010
0010
,
0220
0000
0000
0330
,
2002
0000
0000
3003
,
0001
0001
1000
1000
,
0001
1000
0010
0100
0001
0000
0000
0000
,
1000
1000
0100
0100
,
0001
0101
1000
1100
,
0001
0000
1000
0000
0010
0100
0010
0000
,
0100
0010
1000
0001
,
2000
3100
0002
0013
,
0100
0010
1001
0000
,
0001
0100
1000
0010
,
1000
0100
0001
0010
,
0100
0010
0100
0000
0001
1000
0001
0000
,
1010
0101
1010
0100
,
0020
0032
0203
2300
,
3020
2030
3200
0000
,
2300
3020
2030
3200
,
0302
0023
0230
0000
,
0301
1000
0000
0001
1000
0000
0000
0000
,
0010
0100
0000
0010
0100
0000
0000
0000
,
0010
0010
0010
0010
,
1000
0100
0010
0001
0000
0010
0010
0000
,
0001
0101
1000
1100
,
0001
1000
0001
1000
,
0010
0110
0100
0110
,
0100
0010
1000
0100
,
0010
0101
0010
1100
,
0001
1000
0100
0010
,
0001
0101
1000
1100
,
0001
1000
0010
0100
,
0001
0100
0000
0010
0000
1000
0000
0001
,
1000
1001
0000
0000
;

//---------------dance-single - ----------------
#NOTES:
     dance-single:
     :
     Hard:
     12:
     0.603,0.601,0.254,0.113,0.207: // measure 1
0000
0000
0000
0000
,  // measure 2
0000
0000
0000
0000
,  // measure 3
0000
0000
0000
0000
,  // measure 4
0000
0000
0000
0000
,  // measure 5
1000
0010
0100
0001
1000
0010
0100
0001
,  // measure 6
1000
0000
0000
0001
0000
0000
1000
0000
0001
0000
1000
0000
0001
0000
0000
0000
,  // measure 7
0001
0000
0001
0000
1000
1000
1000
0000
,  // measure 8
1000
0100
0010
0001
1000
0100
0010
0001
,  // measure 9
0010
0000
0010
0000
0100
0100
0100
0000
,  // measure 10
0100
0010
0001
1000
0010
0100
0001
0000
,  // measure 11
0100
0000
0100
0000
0001
0100
1000
0000
,  // measure 12
0010
1000
0100
1000
0010
1000
0100
0000
,  // measure 13
1000
0000
1000
0000
0010
0001
0010
0000
,  // measure 14
0001
0000
0010
0000
0100
0000
1000
0000
0001
0000
1000
0001
0000
1000
0001
0000
,  // measure 15
1000
0010
0100
0001
1000
0010
0100
0001
,  // measure 16
1000
1000
0001
0001
0000
1100
1100
0000
,  // measure 17
0001
0010
0100
1000
0001
0010
0100
1000
,  // measure 18
0010
0010
0100
0100
0000
0110
0110
0000
,  // measure 19
0100
0010
1000
0001
2000
0001
3001
0000
,  // measure 20
0001
0010
0100
1000
0020
1000
1030
0000
,  // measure 21
1000
0100
0011
0000
0001
0100
1010
0000
,  // measure 22
0001
1000
0001
1000
0010
0100
0010
0100
,  // measure 23
0010
0000
0000
0010
0100
0000
0000
0100
0001
0000
0000
0001
0010
0000
0000
0010
,  // measure 24
0100
0000
0000
0100
1000
0000
0000
1000
0010
0000
0000
0010
1000
0000
0000
1000
,  // measure 25
0100
0000
0000
0100
0010
0000
0000
0010
0001
0000
0000
0001
0100
0000
0000
0100
,  // measure 26
0010
0000
0000
0010
0100
0000
0000
0100
0001
0000
0000
0001
1000
0000
0000
1000
,  // measure 27
0100
0000
0000
0100
1000
0000
0000
1000
0010
0000
0000
0010
0100
0000
0000
0100
,  // measure 28
0001
0000
0000
0001
0100
0000
0000
0100
0010
0000
0000
0010
1000
0000
0000
1000
,  // measure 29
0001
0000
0000
0001
0010
0000
0000
0010
0100
0000
0000
0100
0010
0000
0000
0010
,  // measure 30
0001
0000
0000
0001
0100
0000
0000
0100
0010
0000
0010
0000
0100
0000
0001
0000
,  // measure 31
0010
0000
0100
0010
0010
0000
0001
0010
,  // measure 32
0100
0000
0000
1000
0000
0000
0010
0000
0100
0000
0000
0000
0001
0000
0000
0000
,  // measure 33
0100
0010
1000
0000
0100
0010
0001
1000
,  // measure 34
0000
0001
1001
0000
0101
0000
0100
0010
,  // measure 35
1000
0000
0000
0100
0010
0000
0000
0001
,  // measure 36
0010
0000
0000
0100
0000
0000
1000
0000
0010
0000
0000
0100
0000
0000
0001
0000
,  // measure 37
0200
0000
0000
0000
,  // measure 38
0310
0010
0000
1010
0000
0000
1000
0010
,  // measure 39
0100
0000
0001
0100
0010
0000
1000
0001
,  // measure 40
0010
0100
1000
0001
0100
0000
0010
0010
,  // measure 41
0010
0000
0100
0010
1000
0001
1000
0001
,  // measure 42
1000
0001
0000
0000
0001
1000
0000
0000
1000
0010
0000
0000
0000
0000
0000
0000
,  // measure 43
1000
0010
0100
0001
0020
0001
0031
0000
,  // measure 44
0001
0010
0100
1000
0020
1000
1030
0000
,  // measure 45
1000
0100
0011
0000
0001
0100
1010
0000
,  // measure 46
0001
1000
0010
0100
0002
0000
0000
0000
,  // measure 47
1003
0100
0010
0000
0100
1000
0010
0100
,  // measure 48
0001
0010
0100
0010
0001
0000
1000
0001
,  // measure 49
0100
0000
0010
0100
0001
1000
0100
0010
,  // measure 50
0100
0010
0000
0000
0010
0001
0000
0000
0001
1000
0000
0000
0011
0000
0000
0000
,  // measure 51
0100
0010
2000
0000
3020
0000
0032
0000
,  // measure 52
0103
1000
0010
0001
0010
0000
1000
0000
,  // measure 53
0020
0000
2030
0000
3200
0000
0301
0010
,  // measure 54
0100
1000
0010
0100
0001
0010
0100
0000
,  // measure 55
0010
0100
0000
0100
0010
0001
0100
0000
,  // measure 56
0010
0100
0000
0100
0010
1000
0001
1000
,  // measure 57
1001
0101
1001
1100
,  // measure 58
0001
1000
0010
0100
0000
0010
0110
0000
,  // measure 59
1000
0100
0000
0011
0000
0100
0000
1010
,  // measure 60
0000
0001
1000
0010
0100
0001
1000
0100
,  // measure 61
0010
0011
0000
1100
0000
0101
0000
1010
,  // measure 62
0001
0000
1000
0000
0001
0000
1000
0000
0010
0000
0100
0010
0000
0100
0010
0000
,  // measure 63
0010
0110
0000
1010
0000
1001
0000
0001
,  // measure 64
0010
0100
1000
0010
1000
0100
0010
0001
,  // measure 65
1000
0100
0001
0010
0100
0010
1000
0001
,  // measure 66
1000
0100
0010
0001
0010
0000
0100
1000
,  // measure 67
0010
0100
0000
0001
0000
0100
0000
0010
,  // measure 68
1000
1001
0000
0000
;
