#TITLE:MUSiXXX;
#SUBTITLE:;
#ARTIST:CAPSULE;
#TITLETRANSLIT:;
#SUBTITLETRANSLIT:;
#ARTISTTRANSLIT:;
#GENRE:Electro;
#CREDIT:chewi;
#BANNER:MUSiXXX.png;
#BACKGROUND:MUSiXXX-bg.png;
#LYRICSPATH:;
#CDTITLE:cdtitle.png;
#MUSIC:MUSiXXX.ogg;
#OFFSET:-0.073000;
#SAMPLESTART:52.573002;
#SAMPLELENGTH:15.000000;
#SELECTABLE:YES;
#BPMS:0.000000=128.000000
;
#STOPS:
;
#BGCHANGES:;
#KEYSOUNDS:;
#ATTACKS:;

//---------------dance-single - ----------------
#NOTES:
     dance-single:
     :
     Beginner:
     3:
     0.147869,0.131947,0.051242,0.000000,0.000000,96.000000,5.000000,0.000000,0.000000,0.000000,0.000000,0.147869,0.131947,0.051242,0.000000,0.000000,96.000000,5.000000,0.000000,0.000000,0.000000,0.000000:
// measure 0
0000
0000
0000
0000
,  // measure 1
0000
0000
0000
0000
,  // measure 2
0000
0000
0000
0000
,  // measure 3
0000
0000
0000
0000
,  // measure 4
1000
0000
0001
0000
,  // measure 5
1000
1000
1000
0000
,  // measure 6
0001
0000
1000
0000
,  // measure 7
0001
0001
0001
0000
,  // measure 8
0100
0000
0010
0000
,  // measure 9
0100
0100
0100
0000
,  // measure 10
0010
0000
0100
0000
,  // measure 11
0010
0010
0010
0000
,  // measure 12
0110
0000
0000
0000
,  // measure 13
0000
0000
0000
0000
,  // measure 14
0000
0000
0000
0000
,  // measure 15
0000
0000
0000
0000
,  // measure 16
0110
0000
0010
0000
,  // measure 17
0010
0000
0010
0000
,  // measure 18
0110
0000
0100
0000
,  // measure 19
0100
0000
0100
0000
,  // measure 20
1001
0000
0000
0000
,  // measure 21
1000
0000
0000
0000
,  // measure 22
1001
0000
0000
0000
,  // measure 23
0001
0000
0000
0000
,  // measure 24
0010
0000
0010
0000
,  // measure 25
0100
0000
0100
0000
,  // measure 26
0010
0010
0010
0010
,  // measure 27
0010
0000
0000
0000
,  // measure 28
1000
0000
1000
0000
,  // measure 29
0001
0000
0001
0000
,  // measure 30
1000
0000
1000
0000
,  // measure 31
0001
0001
0001
0000
,  // measure 32
0001
0000
0001
0000
,  // measure 33
1000
0000
1000
0000
,  // measure 34
0001
0000
0001
0000
,  // measure 35
1000
1000
1000
0000
,  // measure 36
0010
0000
0010
0000
,  // measure 37
0100
0000
0100
0000
,  // measure 38
0010
0000
0010
0000
,  // measure 39
0100
0100
0100
0000
,  // measure 40
0100
0000
0100
0000
,  // measure 41
0010
0000
0010
0000
,  // measure 42
0100
0000
0100
0000
,  // measure 43
0100
0100
0100
0000
,  // measure 44
1000
0000
0001
0000
,  // measure 45
1000
1000
1000
0000
,  // measure 46
0001
0000
1000
0000
,  // measure 47
0001
0001
0001
0000
,  // measure 48
0100
0000
0100
0000
,  // measure 49
0100
0000
0100
0000
,  // measure 50
0010
0000
0010
0000
,  // measure 51
0010
0000
0010
0000
;

//---------------dance-single - ----------------
#NOTES:
     dance-single:
     :
     Easy:
     6:
     0.245960,0.212140,0.040993,0.102483,0.000000,154.000000,4.000000,10.000000,0.000000,0.000000,0.000000,0.245960,0.212140,0.040993,0.102483,0.000000,154.000000,4.000000,10.000000,0.000000,0.000000,0.000000:
// measure 0
0000
0000
0000
0000
,  // measure 1
0000
0000
0000
0000
,  // measure 2
0000
0000
0000
0000
,  // measure 3
0000
0000
0000
0000
,  // measure 4
1000
1000
1000
1000
,  // measure 5
0001
0001
0001
0001
,  // measure 6
1000
0001
1000
0001
,  // measure 7
1000
0001
0000
1001
,  // measure 8
0100
0100
0100
0100
,  // measure 9
0010
0010
0010
0010
,  // measure 10
0100
0010
0100
0010
,  // measure 11
0100
0010
0000
0110
,  // measure 12
2002
0000
0000
0000
,  // measure 13
0000
0000
0000
0000
,  // measure 14
0000
0000
0000
0000
,  // measure 15
0000
0000
0000
3003
,  // measure 16
1000
0100
0010
0001
,  // measure 17
1000
0100
0010
0001
,  // measure 18
1000
1000
1000
1000
,  // measure 19
0001
0001
0001
0001
,  // measure 20
0200
0000
0000
0300
,  // measure 21
0020
0000
0000
0030
,  // measure 22
2000
0000
0000
3000
,  // measure 23
0002
0000
0000
0003
,  // measure 24
1000
1000
1000
1000
,  // measure 25
0001
0001
0001
0001
,  // measure 26
1000
0001
1000
0001
,  // measure 27
2002
0000
0000
3003
,  // measure 28
1000
0100
0001
0010
,  // measure 29
1000
0100
0001
0010
,  // measure 30
1000
0100
0001
0010
,  // measure 31
1000
0100
0001
0100
,  // measure 32
1000
0100
0001
0010
,  // measure 33
1000
0100
0001
0010
,  // measure 34
1000
0100
0001
0010
,  // measure 35
1000
0001
1000
0001
,  // measure 36
1000
0010
0001
0100
,  // measure 37
1000
0010
0001
0100
,  // measure 38
1000
0010
0001
0100
,  // measure 39
1000
0100
1000
0001
,  // measure 40
1000
0010
0001
0100
,  // measure 41
1000
0010
0001
0100
,  // measure 42
1000
0010
0001
0100
,  // measure 43
1000
0100
0001
0100
,  // measure 44
0200
0000
0000
0300
,  // measure 45
0100
0010
0001
1000
,  // measure 46
0002
0000
0000
0003
,  // measure 47
0001
1000
0010
0100
,  // measure 48
0010
0010
0010
0010
,  // measure 49
0100
0100
0100
0100
,  // measure 50
0010
1000
0010
1000
,  // measure 51
1000
0010
1000
0010
;

//---------------dance-single - ----------------
#NOTES:
     dance-single:
     :
     Medium:
     8:
     0.307449,0.318210,0.153725,0.204966,0.000000,175.000000,15.000000,20.000000,0.000000,0.000000,0.000000,0.307449,0.318210,0.153725,0.204966,0.000000,175.000000,15.000000,20.000000,0.000000,0.000000,0.000000:
// measure 0
0000
0000
0000
0000
,  // measure 1
0000
0000
0000
0000
,  // measure 2
0000
0000
0000
0000
,  // measure 3
0000
0000
0000
0000
,  // measure 4
1000
0001
1000
0001
,  // measure 5
0100
0010
0100
0010
,  // measure 6
1000
0010
1000
0010
,  // measure 7
0100
0000
0001
0000
0100
0001
0000
0001
,  // measure 8
0100
0010
1000
0001
,  // measure 9
0010
0100
1000
0001
,  // measure 10
1000
0100
0010
0001
,  // measure 11
1000
0000
0001
1000
0000
1000
0001
0000
,  // measure 12
2002
0000
0000
0000
,  // measure 13
0000
0000
0000
0000
,  // measure 14
0000
0000
0000
0000
,  // measure 15
0000
0000
0000
0000
0000
0000
0000
3003
,  // measure 16
0100
0100
0100
0100
,  // measure 17
0010
0010
0010
0010
,  // measure 18
1000
1000
1000
1000
,  // measure 19
0001
0001
0001
0001
,  // measure 20
2002
0000
0000
0003
,  // measure 21
0200
0000
0000
3000
,  // measure 22
0020
0000
0000
0300
,  // measure 23
0002
0000
0000
0000
0000
0000
0000
0033
,  // measure 24
0010
0010
0010
0010
,  // measure 25
0100
0100
0100
0100
,  // measure 26
1000
0001
1000
0000
0001
1000
0001
0000
,  // measure 27
2002
0000
0000
3003
,  // measure 28
2000
0000
3100
0000
0010
0001
0100
0000
,  // measure 29
0002
0000
0103
0000
0010
1000
0001
0000
,  // measure 30
1000
1100
0001
0101
,  // measure 31
1000
1010
0001
0011
,  // measure 32
0020
0000
0130
0000
0010
0100
1000
0000
,  // measure 33
0020
0000
0130
0000
0010
0100
0001
0000
,  // measure 34
0100
0101
0001
0101
,  // measure 35
1000
1100
0001
0101
,  // measure 36
0200
0000
0310
0000
1000
0001
0010
0000
,  // measure 37
0200
0000
0310
0000
0001
0010
0100
0000
,  // measure 38
2000
0000
3100
0000
1000
0001
0100
0000
,  // measure 39
0010
0101
0010
1100
,  // measure 40
0002
0000
1003
0000
1000
0001
0100
0000
,  // measure 41
0020
0000
0130
0000
0010
0100
0001
0000
,  // measure 42
0200
0301
0020
0130
,  // measure 43
0010
1100
0010
0101
,  // measure 44
0100
0010
1000
0001
,  // measure 45
0010
0100
1000
0001
,  // measure 46
0010
1000
0100
0001
,  // measure 47
0010
1000
0100
0001
,  // measure 48
0010
0100
0100
0010
,  // measure 49
0100
0010
0010
0100
,  // measure 50
1000
0100
0100
1000
,  // measure 51
0001
0100
0100
0001
;

//---------------dance-single - ----------------
#NOTES:
     dance-single:
     :
     Hard:
     11:
     0.465566,0.637958,0.071738,0.061490,0.122980,305.000000,7.000000,6.000000,0.000000,0.000000,0.000000,0.465566,0.637958,0.071738,0.061490,0.122980,305.000000,7.000000,6.000000,0.000000,0.000000,0.000000:
// measure 0
0000
0000
0000
0000
,  // measure 1
0000
0000
0000
0000
,  // measure 2
0000
0000
0000
0000
,  // measure 3
0000
0000
0000
0000
,  // measure 4
0010
1000
0010
0000
1000
0100
1000
0000
,  // measure 5
0100
0001
0100
0000
0001
0010
0001
0000
,  // measure 6
0010
1000
0010
0000
0001
0010
0001
0000
,  // measure 7
0010
0100
0010
0000
0100
0010
0000
0010
,  // measure 8
0100
0001
0010
0000
0100
1000
0010
0000
,  // measure 9
1000
0001
0100
0000
0001
1000
0100
0000
,  // measure 10
0010
0100
1000
0000
0010
0100
0001
0000
,  // measure 11
0100
0001
0100
0001
0000
0001
0100
0000
,  // measure 12
0220
0000
0000
0000
,  // measure 13
0000
0000
0000
0000
,  // measure 14
0000
0000
0000
0000
,  // measure 15
0000
0000
0000
0000
0000
0000
0000
0330
,  // measure 16
1000
1000
1000
1000
,  // measure 17
0001
0001
0001
0001
,  // measure 18
1000
0100
0010
0001
1000
0100
0010
0001
,  // measure 19
1000
0010
0100
0001
1000
0010
0100
0001
,  // measure 20
0200
0000
0000
0000
,  // measure 21
0320
0000
0000
0000
,  // measure 22
2030
0000
0000
0000
,  // measure 23
3002
0000
0000
0000
,  // measure 24
0013
0010
0010
0010
,  // measure 25
0100
0100
0100
0100
,  // measure 26
0010
0100
0010
0100
0010
0100
0010
0100
,  // measure 27
0010
0100
0010
0100
0010
0100
0010
0100
0010
0100
0010
0100
0010
0100
0010
0100
,  // measure 28
0010
0001
0100
1000
0001
0100
0001
1000
,  // measure 29
0100
0001
0100
1000
0100
0001
0010
1000
,  // measure 30
0100
0001
0010
0100
0001
0010
0100
0001
,  // measure 31
0010
0100
1000
0010
1000
0100
1000
0010
,  // measure 32
1000
0100
0001
0100
1000
0001
0100
1000
,  // measure 33
0001
0100
1000
0010
0001
1000
0100
0001
,  // measure 34
1000
0010
0001
0100
1000
0010
0001
0100
,  // measure 35
1000
0100
1000
0100
1000
0100
1000
0100
0010
0100
0010
0100
0010
0100
0010
0100
,  // measure 36
0010
0100
1000
0001
0010
1000
0100
0001
,  // measure 37
0010
1000
0010
0001
0010
0100
1000
0010
,  // measure 38
1000
0100
0001
1000
0100
0001
0010
0100
,  // measure 39
1000
0001
0010
0100
1000
0001
1000
0001
,  // measure 40
1000
0010
0001
1000
0001
0100
0010
0001
,  // measure 41
1000
0010
0100
0001
1000
0010
0100
1000
,  // measure 42
0100
0010
1000
0100
0001
0010
0100
0001
,  // measure 43
0010
0100
0010
0100
0010
0100
0010
0100
1000
0001
1000
0001
1000
0001
1000
0001
,  // measure 44
1000
0100
1000
0000
0100
0001
0100
0000
,  // measure 45
1000
0100
1000
0000
0001
0100
1000
0100
,  // measure 46
0001
0100
0001
0000
0100
0010
0100
0000
,  // measure 47
0010
1000
0010
0000
0100
1000
0010
1000
,  // measure 48
0100
0010
0011
0000
0100
0010
1010
0000
,  // measure 49
1000
0001
1001
0000
0001
1000
1001
0000
,  // measure 50
1000
0100
0110
0000
0001
0010
0110
0000
,  // measure 51
0010
0010
0010
0010
0100
0100
0100
0100
;
