#TITLE:風は吹いている;
#SUBTITLE:;
#ARTIST:AKB48;
#TITLETRANSLIT:Kaze wa Fuiteiru;
#SUBTITLETRANSLIT:;
#ARTISTTRANSLIT:;
#GENRE:;
#CREDIT:Chewi☆;
#MENUCOLOR:;
#METERTYPE:DDR X;
#BANNER:Kaze wa Fuiteiru.png;
#BACKGROUND:Kaze wa Fuiteiru-bg.png;
#LYRICSPATH:;
#CDTITLE:;
#MUSIC:Kaze wa Fuiteiru.mp3;
#OFFSET:-0.525;
#SAMPLESTART:52.884;
#SAMPLELENGTH:15.000;
#SELECTABLE:YES;
#LISTSORT:;
#DISPLAYBPM:110.000;
#BPMS:0.000=110.000;
#STOPS:;
#BGCHANGES:;
#ATTACKS:;

//---------------dance-single - Chewi----------------
#NOTES:
     dance-single:
     Chewi:
     Beginner:
     1:
     0.111,0.125,0.000,0.100,0.000: // measure 1
0000
0000
0000
0000
,  // measure 2
0000
0000
0000
0000
,  // measure 3
0000
0000
0000
0000
,  // measure 4
0000
0000
0000
0000
,  // measure 5
2000
0000
0000
3000
,  // measure 6
0002
0000
0000
0003
,  // measure 7
0200
0000
0000
0300
,  // measure 8
0020
0000
0000
0030
,  // measure 9
0010
0000
1000
0000
,  // measure 10
0010
0000
1000
0000
,  // measure 11
0010
0000
0001
0000
,  // measure 12
0010
0000
0001
0000
,  // measure 13
0010
0000
0010
0000
,  // measure 14
0100
0000
0100
0000
,  // measure 15
0001
0000
0001
0000
,  // measure 16
1000
0000
1000
0000
,  // measure 17
0100
0000
0100
0000
,  // measure 18
0001
0001
0001
0000
,  // measure 19
0100
0000
0010
0000
,  // measure 20
0010
0010
0010
0000
,  // measure 21
1000
0000
0001
0000
,  // measure 22
1000
1000
1000
0000
,  // measure 23
0001
0000
0001
0000
,  // measure 24
0001
0001
0001
0000
,  // measure 25
0002
0000
0000
0003
,  // measure 26
0001
0000
0000
0000
,  // measure 27
2000
0000
0000
3000
,  // measure 28
1000
0000
0000
0000
,  // measure 29
0200
0000
0000
0300
,  // measure 30
0100
0000
0000
0000
,  // measure 31
0020
0000
0000
0030
,  // measure 32
0010
0000
0000
0000
,  // measure 33
0001
0000
1000
0000
,  // measure 34
0002
0000
0000
0003
,  // measure 35
1000
0000
0100
0000
,  // measure 36
0010
0000
0010
0000
,  // measure 37
0100
0000
1000
0000
,  // measure 38
0001
0000
0100
0000
,  // measure 39
1000
0000
0001
0000
,  // measure 40
0100
0000
0100
0000
,  // measure 41
0010
0000
0100
0000
,  // measure 42
0010
0000
0010
0000
,  // measure 43
1000
0000
0001
0000
,  // measure 44
0020
0000
0000
0030
,  // measure 45
0020
0000
0000
0030
,  // measure 46
0010
0010
0010
0000
,  // measure 47
0010
0000
0000
0000
;

//---------------dance-single - Chewi----------------
#NOTES:
     dance-single:
     Chewi:
     Easy:
     3:
     0.159,0.188,0.009,0.136,0.000: // measure 1
0000
0000
0000
0000
,  // measure 2
0000
0000
0000
0000
,  // measure 3
0000
0000
0000
0000
,  // measure 4
0000
0000
0000
1000
,  // measure 5
2000
0000
0000
3001
,  // measure 6
0002
0000
0000
0103
,  // measure 7
0200
0000
0000
0000
,  // measure 8
0020
0000
0000
0330
,  // measure 9
0010
0000
1000
0000
,  // measure 10
0100
0000
0001
0000
,  // measure 11
0010
0000
1000
0000
,  // measure 12
0100
0000
0001
0000
,  // measure 13
0010
0010
0020
0000
,  // measure 14
0130
0100
0200
0000
,  // measure 15
0301
0001
0002
0000
,  // measure 16
1003
1000
2000
0000
,  // measure 17
3100
0000
0010
0000
,  // measure 18
0001
1000
0001
0000
,  // measure 19
0100
0000
0010
0000
,  // measure 20
1000
0010
1000
0000
,  // measure 21
0001
0000
0010
0000
,  // measure 22
1000
0100
0001
0000
,  // measure 23
0010
0000
0001
0000
,  // measure 24
0100
1000
0010
0000
,  // measure 25
0002
0000
1000
0000
,  // measure 26
0010
0010
0013
0000
,  // measure 27
2000
0000
0010
0000
,  // measure 28
0001
0001
3001
0000
,  // measure 29
0200
0000
0010
0000
,  // measure 30
0001
0001
0301
0000
,  // measure 31
0002
0000
1000
0000
,  // measure 32
0010
0010
0013
0000
,  // measure 33
0001
0010
0100
1000
,  // measure 34
0200
0000
0000
0300
,  // measure 35
1000
0001
0100
0000
,  // measure 36
0010
0100
0010
0000
,  // measure 37
0100
0010
1000
0000
,  // measure 38
0001
0010
0100
0000
,  // measure 39
1000
0100
0001
0000
,  // measure 40
0100
0100
0100
0000
,  // measure 41
0010
0001
0100
0000
,  // measure 42
0010
0010
0010
0000
,  // measure 43
1000
1000
0001
0001
,  // measure 44
0020
0000
0000
0030
,  // measure 45
0020
0000
0000
0030
,  // measure 46
0010
0100
1000
0100
,  // measure 47
1001
0000
0000
0000
;

//---------------dance-single - Chewi----------------
#NOTES:
     dance-single:
     Chewi:
     Medium:
     7:
     0.271,0.313,0.100,0.163,0.000:
0000
0000
0000
0000
,
0000
0000
0000
0000
,
0000
0000
0000
0000
,
0000
0000
0000
0000
0000
0000
1000
0001
,
2000
0000
0000
0000
0000
0000
3001
1000
,
0002
0000
0000
0000
0000
0000
0103
0010
,
0200
0000
0000
0000
,
0020
0000
0000
0330
,
0000
0000
0010
0000
1000
0010
1000
0000
,
0000
0000
0001
0000
0010
0001
0010
0000
,
0000
0000
0010
0000
0100
0010
0100
0000
,
0100
0100
0010
0010
,
0002
0103
2000
3100
,
0002
0013
2000
3010
,
0020
0130
0200
0310
,
0020
2030
3200
0302
,
0013
0000
0010
0000
0010
0010
0010
0000
,
1000
0100
0010
0001
,
0100
0000
0100
0000
0100
0100
0100
0000
,
0100
0010
1000
0001
,
2000
3010
0020
1030
,
1000
0100
1000
0000
0100
1000
0100
0000
,
2000
3100
0200
0310
,
0010
0001
0010
0000
0001
0010
0001
0000
,
0001
1000
0010
0100
,
0001
0101
1000
1100
,
0001
0010
0100
1000
,
1000
1010
0001
0101
,
0100
0010
1000
0001
,
1000
1100
0001
0101
,
0100
0010
1000
0001
,
1000
0100
0010
1000
,
0100
0000
0100
0000
0100
0100
0100
0000
,
0010
0000
0010
0000
0010
0010
0010
0000
,
0001
1000
0010
1010
,
1000
0001
0100
0101
,
0100
0010
1000
1010
,
1000
0001
0010
0011
,
0001
0000
0001
0000
0010
0100
1000
0000
,
1000
0000
1000
0000
0010
0100
0001
0000
,
0100
0000
0010
0000
1000
0001
1000
0000
,
0100
0000
0010
0000
0001
0010
0001
0000
,
0001
0000
0001
0000
1000
0001
0010
0000
,
0100
0000
0100
0100
0100
0000
0010
0000
,
0010
0000
0010
0010
0010
0000
0010
0000
,
0001
1000
0001
0000
1000
0001
1000
0000
,
1001
0000
0000
0000
;

//---------------dance-single - Chewi----------------
#NOTES:
     dance-single:
     Chewi:
     Hard:
     10:
     0.381,0.354,0.127,0.172,0.059:
0000
0000
0000
0000
,
0000
0000
0000
0000
,
0000
0000
0000
0000
,
0000
0000
0000
0000
0000
0000
1000
0001
,
2000
0000
0100
0000
0001
0000
3010
0100
,
0002
0000
0010
0000
1000
0000
0103
0010
,
2000
0000
0010
0000
0001
0000
3001
1000
,
0002
0103
2000
3100
,
0000
1000
0100
0010
0001
0100
0010
0110
,
0000
1000
0001
0100
0010
1000
0001
1001
,
0000
1000
0001
0010
0100
1000
0010
0010
,
0100
0001
0100
0010
0100
0001
0010
0100
,
1000
0000
0000
1000
0100
0000
0000
0000
0001
0000
1000
0000
0010
0000
0100
0000
,
0001
0000
0000
0001
0100
0000
0000
0000
0010
0000
0100
0000
0001
0000
0010
0000
,
0100
0000
0000
0100
1000
0000
0000
0000
0010
0000
1000
0000
0100
0000
0000
0000
,
0010
0000
0000
0010
0001
0000
0000
0000
0001
0000
1000
0000
0010
0000
0000
0000
,
0010
0100
0001
0010
0000
0001
0011
0000
,
0001
0010
0100
1000
0010
1000
1100
0000
,
1000
0001
0100
0010
0000
1000
1010
0000
,
0010
0100
0001
1000
0001
0010
0100
1000
,
0010
1000
0010
0001
0010
1000
0010
0001
,
0010
1000
0100
0010
0001
1000
0100
0000
,
0100
0001
0100
1000
0100
0001
0100
1000
,
0010
0100
0001
0100
0010
1000
0001
0000
,
2000
0000
3010
0000
0010
0100
0001
0010
,
0002
0000
0013
0000
0010
0100
1000
0010
,
2000
0000
3001
0000
0100
0010
0100
0001
,
0010
0100
1000
0000
0010
0100
0001
0000
,
0200
0000
0310
0000
1000
0001
0010
0100
,
2000
0000
3010
0000
0100
0001
0100
0010
,
2000
0000
3001
0000
0010
0100
1000
0010
,
1000
0100
0010
0000
0001
0010
0100
0000
,
1000
0100
0001
0100
1000
0100
1000
0000
,
0001
0100
1000
0100
0001
0100
0001
0000
,
0100
0010
2000
0000
0001
0000
3010
0100
,
0002
0010
0103
0101
,
0001
1000
0200
0000
0010
0000
1300
0001
,
0200
0010
0301
0011
,
1000
0001
0020
0000
0100
0000
0031
1000
,
0200
0001
1300
1100
,
0100
1000
0020
0000
1000
0000
0130
1000
,
0002
1000
0013
0011
,
1000
0010
1010
0000
0010
0100
0101
0000
,
0100
0000
0000
0010
0000
1000
0000
0010
0000
0000
0000
0000
1010
0000
0000
0000
,
1000
0000
0000
0001
0000
1000
0000
0001
0000
0000
0000
0000
1100
0000
0000
0000
,
0001
0000
1000
0000
0001
1000
0000
0100
0000
0010
0001
0000
0010
0000
0100
0000
,
1100
0000
0000
0000
;
