#TITLE:I WANNA DANCE WITH SOMEBODY (Q-Tex Club Mix);
#SUBTITLE:;
#ARTIST:FLIP & FILL;
#TITLETRANSLIT:;
#SUBTITLETRANSLIT:;
#ARTISTTRANSLIT:;
#CREDIT:Chewphoria~;
#BANNER:I WANNA DANCE WITH SOMEBODY (Q-Tex Club Mix).PNG;
#BACKGROUND:I WANNA DANCE WITH SOMEBODY (Q-Tex Club Mix)-bg.PNG;
#LYRICSPATH:;
#CDTITLE:Dancemania TRANCE Z.png;
#MUSIC:I WANNA DANCE WITH SOMEBODY (Q-Tex Club Mix).MP3;
#OFFSET:-0.893;
#SAMPLESTART:16.290;
#SAMPLELENGTH:15.000;
#SELECTABLE:YES;
#BPMS:0.000=139.990,100.000=69.995,116.000=139.990;
#STOPS:;
#BGCHANGES:;

//---------------dance-single - ----------------
#NOTES:
     dance-single:
     :
     Hard:
     8:
     0.538,0.760,0.160,0.075,0.219:
0000
0000
0000
0000
,
0000
0000
0000
0000
,
0000
0000
0000
0000
,
0000
0000
0000
0000
,
1000
0000
0000
1000
0000
0000
1000
0000
0000
1000
0000
0000
0001
0000
1000
0000
,
0001
0000
0000
0001
0000
0000
0001
0000
0000
0001
0000
0000
0100
0000
0010
0000
,
0100
0000
0000
0100
0000
0000
0100
0000
0000
0100
0000
0000
0010
0000
0100
0000
,
0010
0000
0000
0010
0000
0000
0010
0000
0000
0010
0000
0000
1000
0000
0001
0000
,
2002
0000
0000
3003
,
1000
0100
0010
0100
1000
0100
0010
0100
,
1000
0100
0010
0100
1000
0100
0010
0001
,
0100
0001
0010
0001
0100
0001
0010
0001
,
0100
0001
0010
0100
0001
0010
0100
1000
,
0010
1000
0100
1000
0010
1000
0100
1000
,
0010
1000
0100
1000
0010
1000
0100
0010
,
0001
0010
0001
0010
0001
0010
0001
0100
,
0001
0100
1000
0100
1000
0100
0010
0001
,
0001
0010
0100
0010
0001
0010
0100
0010
,
0001
0010
0100
0010
0001
0010
0100
1000
,
0010
1000
0100
1000
0010
1000
0100
1000
,
0010
1000
0100
0010
1000
0100
0010
0001
,
0100
0001
0010
0001
0100
0001
0010
0001
,
0100
0001
0010
0001
0100
0001
0010
0100
,
1000
0100
1000
0100
1000
0100
1000
0010
,
1000
0010
0001
0010
0001
0010
0100
1000
,
0001
1000
0001
1000
0010
0000
0100
0001
0000
0101
0000
1100
0000
1000
0100
0010
,
0000
0011
0000
0101
0000
1100
0000
0101
0000
0011
0000
1010
0000
0000
0000
0000
,
2002
3003
0100
0010
0000
1100
0000
0000
2200
3300
0000
0001
0010
0100
1000
0000
,
0002
0000
0000
0000
0103
1010
0100
0011
,
0001
0000
0000
0010
0000
0000
0100
0000
0000
1000
0000
0000
0010
0000
0100
0000
,
0001
0000
0000
0100
0000
0000
0010
0000
0000
1000
0000
0000
0001
0000
0010
0000
,
0100
0000
0000
1000
0000
0000
0100
0000
0000
0010
0000
0000
0001
0000
0100
0000
,
0010
0000
0000
1000
0000
0000
0001
0000
0000
0010
0000
0000
0100
0000
1000
0000
,
0010
0000
0000
0100
0000
0000
0001
0000
0000
0100
0000
0000
0010
0000
1000
0000
,
0100
0000
0000
0010
0000
0000
0001
0000
0000
1000
0000
0000
0010
0000
0100
0000
,
0001
0000
0000
0010
0000
0000
0100
0000
0000
1000
0000
0000
0001
0000
1000
0000
,
0010
0000
0000
0100
0000
0000
0001
0000
0000
0100
0000
0000
0010
0000
1000
0000
,
0001
1000
0001
1000
0001
1000
0001
1000
,
0010
0100
0010
0100
0010
0100
0010
0100
,
0001
1000
0001
1000
0001
1000
0001
1000
,
0010
0100
0010
0100
0010
0100
0010
0100
,
0010
0001
0100
1000
0100
0001
0010
1000
,
1000
0100
0001
0010
1000
0100
0010
0001
,
0100
1000
0010
0001
0010
0100
1000
0010
,
0100
0001
0010
0100
1000
0010
0100
0001
,
0100
0010
1000
0100
0010
0001
0100
0010
,
0100
0010
0100
0010
0100
0010
0100
0010
,
0010
1000
0100
0010
0001
0100
0010
1000
,
0001
1000
0001
1000
0001
0010
0100
1000
,
1001
0000
0000
0000
;

//---------------dance-single - ----------------
#NOTES:
     dance-single:
     :
     Medium:
     5:
     0.368,0.445,0.342,0.289,0.000:
0000
0000
0000
0000
,
0000
0000
0000
0000
,
0000
0000
0000
0000
,
0000
0000
0000
0000
,
0200
0000
0000
0000
,
2300
0000
0000
0000
,
3020
0000
0000
0000
,
0032
0000
0000
0000
,
2003
0000
0000
0000
,
3010
1010
0100
0101
,
1000
0001
1000
0000
0001
1000
0001
0000
,
0010
0011
0100
1100
,
1000
0001
1000
0000
0001
1000
0001
0000
,
0100
0110
0010
0110
,
0010
1000
0010
0000
0100
0001
0100
0000
,
1000
1001
0001
1001
,
1000
0100
1000
0000
0001
0100
0001
0000
,
2010
0001
0100
0001
,
0010
0001
0100
3010
,
1002
0010
1000
0100
,
0010
0100
1000
0013
,
2001
0100
0010
0100
,
0100
0010
0100
3010
,
0102
0010
0100
0010
,
1000
0010
0100
0013
,
1100
0100
0001
1000
,
0010
0110
0100
0101
,
2002
3003
0000
0000
0220
0330
0000
0000
,
2020
3030
0000
0000
2000
3002
2003
3002
,
1003
0100
0010
0001
,
0001
0100
0010
1000
,
1000
0010
0100
0001
,
0001
0010
0100
1000
,
1002
0100
0100
0103
,
2001
0010
0010
3010
,
1002
1000
1000
1003
,
2001
0001
0001
3001
,
0001
0100
0001
0000
0100
0000
1100
0000
,
1000
0100
1000
0000
0100
0000
0101
0000
,
1000
0001
1000
0000
0001
0000
1001
0000
,
0001
1000
0001
0000
1000
0000
1001
0000
,
0010
0100
0010
0000
0100
0000
0110
0000
,
0100
0010
0100
0000
0010
0000
0110
0000
,
0010
1000
0010
0000
0100
0001
0100
0000
,
0001
0000
0010
0000
0100
1000
0100
0000
,
0102
0010
1000
1003
,
2100
0001
0010
3001
,
1002
0100
0010
1003
,
2100
0010
0001
3100
,
0001
0000
0000
0000
;

//---------------dance-single - ----------------
#NOTES:
     dance-single:
     :
     Easy:
     3:
     0.202,0.236,0.118,0.128,0.000: // measure 1
0000
0000
0000
0000
,  // measure 2
0000
0000
0000
0000
,  // measure 3
0000
0000
0000
0000
,  // measure 4
0000
0000
0000
0000
,  // measure 5
2000
0000
0000
3000
,  // measure 6
0001
0000
0000
0000
,  // measure 7
0002
0000
0000
0003
,  // measure 8
1000
0000
0000
0000
,  // measure 9
0220
0000
0000
0330
,  // measure 10
0001
0100
0001
0100
,  // measure 11
1000
0100
1000
0100
,  // measure 12
1000
0010
1000
0010
,  // measure 13
0001
0010
0001
0010
,  // measure 14
1000
0100
1000
0100
,  // measure 15
0001
0100
0001
0100
,  // measure 16
0001
0010
0001
0010
,  // measure 17
1000
0010
1000
0010
,  // measure 18
2000
0000
0000
3000
,  // measure 19
0001
0001
0001
0000
,  // measure 20
0002
0000
0000
0003
,  // measure 21
1000
1000
1000
0000
,  // measure 22
0020
0000
0000
0030
,  // measure 23
0100
0100
0100
0000
,  // measure 24
0200
0000
0000
0300
,  // measure 25
0010
0010
0010
0000
,  // measure 26
1000
0000
0100
0000
,  // measure 27
0001
0000
0010
0000
,  // measure 28
1001
0000
0100
0000
,  // measure 29
0110
0000
1000
1000
,  // measure 30
0001
0100
0001
0000
,  // measure 31
1001
0000
1000
0000
,  // measure 32
1000
0100
1000
0000
,  // measure 33
1001
0000
0001
0000
,  // measure 34
0010
1000
0010
0000
,  // measure 35
1010
0000
0001
0000
,  // measure 36
0001
0010
0001
0000
,  // measure 37
0001
0000
0011
0000
,  // measure 38
0002
0000
0000
0003
,  // measure 39
1000
1000
1000
0000
,  // measure 40
2000
0000
0000
3000
,  // measure 41
0001
0001
0001
0000
,  // measure 42
0200
0000
0000
0300
,  // measure 43
0010
0010
0010
0000
,  // measure 44
0020
0000
0000
0030
,  // measure 45
0100
0100
0100
0000
,  // measure 46
0010
1000
0010
0000
,  // measure 47
0101
0000
1100
0000
,  // measure 48
0010
0001
0010
0000
,  // measure 49
0011
0000
1010
0000
,  // measure 50
0100
0000
0000
0000
;

//---------------dance-single - ----------------
#NOTES:
     dance-single:
     :
     Beginner:
     1:
     0.139,0.183,0.032,0.000,0.000:
0000
0000
0000
0000
,
0000
0000
0000
0000
,
0000
0000
0000
0000
,
0000
0000
0000
0000
,
1001
0000
0000
0000
,
1000
0000
0000
0000
,
0001
0000
0000
0000
,
0010
0000
0000
0000
,
0110
0000
0000
0000
,
1000
0000
1000
0000
,
1000
0000
1000
0000
,
0001
0000
0001
0000
,
0001
0000
0001
0000
,
0010
0000
0010
0000
,
0010
0000
0010
0000
,
0100
0000
0100
0000
,
0100
0000
0100
0000
,
1000
0000
1000
0000
,
1000
0000
1000
0000
,
0001
0000
0001
0000
,
0001
0000
0001
0000
,
0010
0000
0010
0000
,
0010
0000
0010
0000
,
0100
0000
0100
0000
,
0100
0000
0100
0000
,
1001
0000
0000
0000
,
1000
0000
0000
0000
,
0010
0000
0001
0000
,
0010
0000
1000
0000
,
0001
0000
0100
0000
,
1000
0000
0010
0000
,
0001
0000
0010
0000
,
1000
0000
0100
0000
,
1000
0000
0001
0000
,
1000
0000
0001
0000
,
0010
0000
0100
0000
,
0010
0000
0100
0000
,
1000
0000
1000
0000
,
0001
0000
0001
0000
,
0100
0000
0100
0000
,
0010
0000
0010
0000
,
0001
0000
0001
0000
,
1000
0000
1000
0000
,
0010
0000
0010
0000
,
0100
0000
0100
0000
,
0001
0001
0001
0000
,
1000
1000
1000
0000
,
0100
0100
0100
0000
,
0010
0010
0010
0010
;
