#TITLE:Catch Me If You Can;
#SUBTITLE:;
#ARTIST:少女時代;
#TITLETRANSLIT:;
#SUBTITLETRANSLIT:;
#ARTISTTRANSLIT:Girls' Generation;
#GENRE:EDM J-Pop;
#CREDIT:chewi;
#BANNER:Catch Me If You Can.png;
#BACKGROUND:Catch Me If You Can-bg.png;
#LYRICSPATH:;
#CDTITLE:cdtitle.png;
#MUSIC:Catch Me If You Can.ogg;
#OFFSET:-0.236000;
#SAMPLESTART:50.395000;
#SAMPLELENGTH:15.000000;
#SELECTABLE:YES;
#BPMS:0.000000=134.000000
;
#STOPS:108.000000=1.343000
;
#BGCHANGES:0.000=Catch Me If You Can.avi=1.000=1=0=0=StretchNoLoop==CrossFade==,
99999=-nosongbg-=1.000=0=0=0 // don't automatically add -songbackground-
;
#KEYSOUNDS:;
#ATTACKS:;

//---------------dance-single - ----------------
#NOTES:
     dance-single:
     :
     Beginner:
     2:
     0.083253,0.104775,0.000000,0.136394,0.000000,47.000000,47.000000,0.000000,11.000000,0.000000,0.000000,0.083253,0.104775,0.000000,0.136394,0.000000,47.000000,47.000000,0.000000,11.000000,0.000000,0.000000:
// measure 0
0000
0000
0000
0000
,  // measure 1
0000
0000
0000
0000
,  // measure 2
0000
0000
0000
0000
,  // measure 3
0000
0000
0000
0000
,  // measure 4
2000
0000
0000
3000
,  // measure 5
1000
0000
0000
0000
,  // measure 6
0002
0000
0000
0003
,  // measure 7
0001
0000
0000
0000
,  // measure 8
0200
0000
0000
0300
,  // measure 9
0100
0000
0000
0000
,  // measure 10
0020
0000
0000
0030
,  // measure 11
0010
0000
0000
0000
,  // measure 12
1000
0000
0000
0000
,  // measure 13
0001
0000
0000
0000
,  // measure 14
0010
0000
0000
0000
,  // measure 15
0100
0000
0000
0000
,  // measure 16
0010
0000
0000
0000
,  // measure 17
1000
0000
0000
0000
,  // measure 18
0001
0000
0000
0000
,  // measure 19
0100
0000
0000
0000
,  // measure 20
2000
0000
0000
3000
,  // measure 21
2000
0000
0000
3000
,  // measure 22
0002
0000
0000
0003
,  // measure 23
0002
0000
0000
0003
,  // measure 24
0200
0000
0000
0300
,  // measure 25
0200
0000
0000
0300
,  // measure 26
0020
0000
0000
0030
,  // measure 27
0000
0010
0000
0010
,  // measure 28
0000
0010
0000
0000
,  // measure 29
0000
0100
0000
0100
,  // measure 30
0000
0100
0000
0000
,  // measure 31
0000
1000
0000
1000
,  // measure 32
0000
1000
0000
0000
,  // measure 33
0000
0001
0000
0001
,  // measure 34
0000
0001
0000
0000
,  // measure 35
0000
1000
0000
0100
,  // measure 36
0000
1000
0000
0000
,  // measure 37
0000
0001
0000
0100
,  // measure 38
0000
0001
0000
0000
,  // measure 39
0000
1000
0000
0010
,  // measure 40
0000
1000
0000
0000
,  // measure 41
0000
0001
0000
0010
,  // measure 42
0000
0001
0000
0000
;

//---------------dance-single - ----------------
#NOTES:
     dance-single:
     :
     Easy:
     4:
     0.141708,0.183356,0.000000,0.495976,0.000000,80.000000,80.000000,0.000000,40.000000,0.000000,0.000000,0.141708,0.183356,0.000000,0.495976,0.000000,80.000000,80.000000,0.000000,40.000000,0.000000,0.000000:
0000
0000
0000
0000
,
0000
0000
0000
0000
,
0000
0000
0000
0000
,
0000
0000
0000
0000
,
1000
0000
0100
0000
,
0010
0001
0010
0000
,
0001
0000
0100
0000
,
0010
1000
0001
0010
,
0100
0000
1000
0000
,
0010
1000
0100
0000
,
0010
0000
0001
0000
,
0100
0001
0010
0100
,
2000
0000
0000
3000
,
0002
0000
0000
0003
,
0200
0000
0000
0300
,
0010
1000
1000
0010
,
2000
0000
0000
3000
,
0002
0000
0000
0003
,
0020
0000
0000
0030
,
0100
0000
0010
0100
,
2000
0000
0000
3000
,
0020
0000
0000
0030
,
0002
0000
0000
0003
,
0200
0000
0000
0300
,
1000
1000
1000
0000
,
0001
0001
0001
0000
,
0100
0100
0100
0100
,
0000
2000
3000
2000
,
3000
2000
3000
2000
,
3000
0002
0003
0002
,
0003
0002
0003
0002
,
0003
0200
0300
0200
,
0300
0200
0300
0200
,
0300
0020
0030
0020
,
0030
0020
0030
0020
,
0030
0020
0030
2000
,
3000
0002
0003
0200
,
0300
0020
0030
2000
,
3000
0002
0003
0200
,
0300
0002
0003
0020
,
0030
0200
0300
2000
,
3000
0002
0003
0020
,
0030
0100
0000
0000
;

//---------------dance-single - ----------------
#NOTES:
     dance-single:
     :
     Medium:
     7:
     0.295814,0.348578,0.049598,0.111595,0.185991,167.000000,163.000000,4.000000,9.000000,0.000000,0.000000,0.295814,0.348578,0.049598,0.111595,0.185991,167.000000,163.000000,4.000000,9.000000,0.000000,0.000000:
0000
0000
0000
0000
,
0000
0000
0000
0000
,
0000
0000
0000
0000
,
0000
0000
0000
0000
,
1000
0000
0000
1000
0000
0000
1000
0000
0000
0000
0000
0000
1000
0000
0000
0000
,
0001
0000
0000
0001
0000
0000
0001
0000
0000
0000
0000
0000
0001
0000
0000
0000
,
0100
0000
0000
0100
0000
0000
0100
0000
0000
0000
0000
0000
0100
0000
0000
0000
,
0020
2030
3002
0203
,
0301
0000
0000
0001
0000
0000
0001
0000
0000
0000
0000
0000
1000
0000
0000
0000
,
0100
0000
0000
0100
0000
0000
0100
0000
0000
0000
0000
0000
0010
0000
0000
0000
,
0100
0000
0000
0100
0000
0000
0100
0000
0000
0000
0000
0000
1000
0000
0000
0000
,
0002
0203
0320
2030
,
3001
1000
0001
1000
,
0100
0010
0100
0010
,
0001
0010
0100
1000
,
0010
0000
0100
0010
0000
0010
0100
0000
,
0001
0100
0001
0100
,
1000
0010
1000
0010
,
0001
0010
0001
0010
,
0100
0000
0100
1000
0000
1000
0100
0000
,
1000
0000
0000
1000
0000
0000
1000
0000
1000
0000
0000
0000
0000
0000
0000
0000
,
0001
0000
0000
0001
0000
0000
0001
0000
0001
0000
0000
0000
0000
0000
0000
0000
,
0100
0000
0000
0100
0000
0000
0100
0000
0100
0000
0000
0000
0000
0000
0000
0000
,
0010
0000
0000
0010
0000
0000
0010
0000
0010
0000
0000
0000
0000
0000
0000
0000
,
0010
0000
0000
1000
0000
0000
0001
0000
1000
0000
0000
0000
0000
0000
0000
0000
,
0010
0000
0000
0001
0000
0000
1000
0000
0001
0000
0000
0000
0000
0000
0000
0000
,
1000
0000
0000
0100
0000
0000
0010
0000
0001
0000
0000
0010
0000
0000
0100
0000
,
0000
0000
0000
0000
0010
0000
0000
0010
0000
0000
0000
0000
0100
0000
0000
0100
,
0000
0000
0000
0000
0001
0000
0000
0001
0000
0000
0000
0000
1000
0000
0000
1000
,
0000
0000
0000
0000
0001
0000
0000
0001
0000
0000
0000
0000
0010
0000
0000
0010
,
0000
0000
0000
0000
0100
0000
0000
0100
0000
0000
0000
0000
1000
0000
0000
1000
,
0000
0000
0000
0000
0001
0000
0000
0010
0000
0000
0000
0000
0001
0000
0000
0100
,
0000
0000
0000
0000
0001
0000
0000
0010
0000
0000
0000
0000
0001
0000
0000
0100
,
0000
0000
0000
0000
0010
0000
0000
1000
0000
0000
0000
0000
0010
0000
0000
0100
,
0000
0000
0000
0000
0010
0000
0000
1000
0000
0000
0000
0000
0010
0000
0000
0100
,
0000
0000
0010
0000
0110
0000
0100
0100
,
0100
0000
0001
0000
1000
0000
0001
1000
,
0001
0000
1000
0000
1001
0000
0010
0010
,
0010
0100
1000
0001
,
1001
0000
1000
0000
1001
0000
0001
1000
,
0001
0000
0100
0000
0010
0000
1000
0001
,
0100
0000
0001
0000
1000
0000
0100
0010
,
0001
0002
0000
0000
,
0000
0003
0000
0000
;

//---------------dance-single - ----------------
#NOTES:
     dance-single:
     :
     Hard:
     12:
     0.464092,0.455833,0.185991,0.024799,0.347183,262.000000,247.000000,15.000000,2.000000,0.000000,0.000000,0.464092,0.455833,0.185991,0.024799,0.347183,262.000000,247.000000,15.000000,2.000000,0.000000,0.000000:
0000
0000
0000
0000
,
0000
0000
0000
0000
,
0000
0000
0000
0000
,
0000
0000
0000
0000
,
1000
0000
0000
1000
0000
0000
1000
0000
0001
0000
0000
0000
0011
0000
0000
0000
,
0001
0000
0000
0001
0000
0000
0001
0000
1000
0000
0000
0000
1100
0000
0000
0000
,
0001
0000
0000
1000
0000
0000
0010
0000
0100
0000
0000
0000
0110
0000
0000
0000
,
0101
0110
1010
0110
,
0100
0000
0000
0001
0000
0000
0100
0000
0001
0000
0000
0000
0011
0000
0000
0000
,
0001
0000
0000
0010
0000
0000
0100
0000
1000
0000
0000
0000
1001
0000
0000
0000
,
1000
0000
0000
0010
0000
0000
1000
0000
0100
0000
0000
0000
1100
0000
0000
0000
,
1010
0110
0101
0110
,
1000
1000
0001
0001
1000
1000
0001
0001
,
1000
0100
0010
0100
1000
0100
0010
0100
,
1000
1000
0001
0001
0100
0100
0010
0010
,
0100
0001
0100
0010
0100
0001
0100
0010
,
1000
1000
0001
0001
0010
0010
0100
0100
,
0010
0001
0100
0001
0010
0001
0100
0001
,
0010
0010
0001
0001
1000
1000
0100
0100
,
0010
0100
1000
0001
0100
0010
0100
0001
,
0001
0000
0000
0001
0000
0000
0001
0000
1000
0000
0000
1000
0000
0000
1000
0000
,
0010
0000
0000
0010
0000
0000
0010
0000
0100
0000
0000
0100
0000
0000
0100
0000
,
0001
0000
0000
1000
0000
0000
0010
0000
1000
0000
0000
0001
0000
0000
0010
0000
,
0100
0000
0000
1000
0000
0000
0001
0000
0100
0000
0000
0001
0000
0000
1000
0000
,
0010
0000
0000
0010
0000
0000
0010
0000
1000
0000
0000
1000
0000
0000
1000
0000
,
0001
0000
0000
0001
0000
0000
0001
0000
0010
0000
0000
0010
0000
0000
0010
0000
,
0100
0000
0000
1000
0000
0000
0001
0000
0010
0000
0000
0001
0000
0000
0100
0000
,
0000
0000
0000
0000
0001
0000
0000
0001
0100
0000
0000
0000
1000
0000
0000
1000
,
0100
0000
0000
0000
0001
0000
0000
0001
0100
0000
0000
0000
1000
0000
0000
0000
,
1000
0100
0010
0001
0010
0000
0000
0010
0100
0000
0000
0000
1000
0000
0000
1000
,
0010
0000
0000
0000
0100
0000
0000
0100
0001
0000
0000
0000
0010
0000
0000
0000
,
0010
0100
1000
0001
1000
0000
0000
1000
0100
0000
0000
0000
0001
0000
0000
0001
,
0100
0000
0000
0000
0100
0000
0000
0100
0010
0000
0000
0000
0010
0000
0000
0000
,
0010
1000
0001
0010
0100
0000
0000
0100
1000
0000
0000
0000
0001
0000
0000
0001
,
0100
0000
0000
0000
0010
0000
0000
0010
1000
0000
0000
0000
0001
0000
0000
0001
,
1000
0000
0000
0000
1000
0000
0000
1000
0010
0000
0000
0000
0001
0000
0000
0001
,
0010
0000
0000
0000
1000
0000
0000
1000
0010
0000
0000
0000
0001
0000
0000
0000
,
0001
0010
0100
1000
0100
0000
0000
0100
0010
0000
0000
0000
0001
0000
0000
0001
,
0100
0000
0000
0000
0010
0000
0000
0010
1000
0000
0000
0000
0100
0000
0000
0000
,
0100
0010
0001
1000
0001
0000
0000
0001
0010
0000
0000
0000
1000
0000
0000
1000
,
0010
0000
0000
0000
0010
0000
0000
0010
0100
0000
0000
0000
0100
0000
0000
0000
,
0100
0001
1000
0100
0010
0000
0000
0010
0001
0000
0000
0000
1000
0000
0000
1000
,
0010
2002
0000
0000
,
0000
3003
0000
0000
;
