#TITLE:Better Off Alone;
#SUBTITLE:;
#ARTIST:Alice Deejay;
#TITLETRANSLIT:;
#SUBTITLETRANSLIT:;
#ARTISTTRANSLIT:;
#GENRE:;
#CREDIT:Chewi☆;
#MENUCOLOR:#FFFF00;
#METERTYPE:DDR X;
#BANNER:Better Off Alone.png;
#BACKGROUND:Better Off Alone-bg.png;
#LYRICSPATH:;
#CDTITLE:./CDTITLES/DanceDanceRevolution skyMIX2 -FREEDOM-.png;
#MUSIC:Better Off Alone.mp3;
#OFFSET:-1.668;
#SAMPLESTART:29.701;
#SAMPLELENGTH:15.000;
#SELECTABLE:YES;
#LISTSORT:;
#DISPLAYBPM:137.000;
#BPMS:0.000=137.000;
#STOPS:;
#BGCHANGES:-12.000=X2_Yuni.avi=1.000=0=0=1,
99999=-nosongbg-=1.000=0=0=0 // don't automatically add -songbackground-
;
#ATTACKS:;

//---------------dance-single - Chewi----------------
#NOTES:
     dance-single:
     Chewi:
     Beginner:
     1:
     0.088,0.133,0.066,0.000,0.000:
0000
0000
0000
0000
,
0000
0000
0000
0000
,
0000
0000
0000
0000
,
0000
0000
0000
0000
,
1000
0000
0000
0000
,
0000
0000
0000
0000
,
0001
0000
0000
0000
,
1001
0000
0000
0000
,
0010
0000
0000
0000
,
0010
0000
0000
0000
,
0100
0000
0000
0000
,
0100
0000
0000
0000
,
0010
0000
0000
0000
,
0010
0000
0000
0000
,
0100
0000
0000
0000
,
0110
0000
0000
0000
,
1000
0000
0000
0000
,
0001
0000
0000
0000
,
1000
0000
0000
0000
,
0001
0000
0000
0000
,
0100
0000
0000
0000
,
0100
0000
0000
0000
,
0010
0000
0000
0000
,
0010
0000
0000
0000
,
1001
0000
0000
0000
,
1000
0000
0000
0000
,
0001
0000
0000
0000
,
1000
0000
0000
0000
,
0001
0000
0000
0000
,
1000
0000
0000
0000
,
0001
0000
0000
0000
,
1000
0000
0000
0000
,
0110
0000
0000
0000
,
0010
0000
0010
0000
,
0010
0000
0000
0000
,
1000
0000
0000
0000
,
1001
0000
0000
0000
,
0001
0000
0001
0000
,
0001
0000
0000
0000
,
1001
0000
0000
0000
,
0100
0100
0000
0000
,
0100
0000
0000
0000
,
0010
0010
0000
0000
,
0000
0000
0000
0000
,
0010
0010
0000
0000
,
0010
0000
0000
0000
,
0100
0100
0000
0000
,
1000
0000
1000
0000
,
1000
0000
0000
0000
;

//---------------dance-single - Chewi----------------
#NOTES:
     dance-single:
     Chewi:
     Easy:
     4:
     0.215,0.239,0.111,0.111,0.000: // measure 1
0000
0000
0000
0000
,  // measure 2
0000
0000
0000
0000
,  // measure 3
0000
0000
0000
0000
,  // measure 4
0000
0000
0000
0000
,  // measure 5
0100
0000
0000
0000
,  // measure 6
0000
0000
0000
0000
,  // measure 7
1001
0000
0000
0000
,  // measure 8
0220
0000
0000
0330
,  // measure 9
1000
1000
1000
0000
,  // measure 10
0001
0001
0001
0000
,  // measure 11
0010
0010
0010
0000
,  // measure 12
0100
0100
0100
0000
,  // measure 13
0010
0010
0010
0000
,  // measure 14
0001
0001
0001
0000
,  // measure 15
1000
1000
1000
0000
,  // measure 16
2002
0000
0000
3003
,  // measure 17
0100
0010
1000
0000
,  // measure 18
0100
0001
0010
0000
,  // measure 19
1000
0100
1000
0000
,  // measure 20
1000
0001
1000
0000
,  // measure 21
0100
0010
0001
0000
,  // measure 22
0100
1000
0010
0000
,  // measure 23
0001
0010
0001
0000
,  // measure 24
1000
0001
1000
0001
,  // measure 25
2000
0010
0000
3010
,  // measure 26
0002
0010
0000
0013
,  // measure 27
2000
0100
0000
3100
,  // measure 28
0002
0100
0000
0103
,  // measure 29
1000
0010
0010
0010
,  // measure 30
0001
0010
0010
0010
,  // measure 31
1000
0100
0001
0100
,  // measure 32
0220
0000
0000
0330
,  // measure 33
1000
0100
0010
0000
,  // measure 34
0001
0000
1001
0000
,  // measure 35
0001
0100
0010
0000
,  // measure 36
1000
0000
1001
0000
,  // measure 37
0010
1000
0100
0000
,  // measure 38
0110
0000
0010
0000
,  // measure 39
0010
0001
0100
0000
,  // measure 40
0110
0000
0100
0000
,  // measure 41
1000
1000
1000
1000
,  // measure 42
1001
0000
0000
0000
,  // measure 43
0010
0100
0010
0000
,  // measure 44
0000
0000
0000
0000
,  // measure 45
0001
0001
0001
0001
,  // measure 46
1001
0000
0000
0000
,  // measure 47
0100
0010
0100
0000
,  // measure 48
1000
0100
0001
0010
,  // measure 49
0010
0000
0000
0000
;

//---------------dance-single - Chewi----------------
#NOTES:
     dance-single:
     Chewi:
     Medium:
     6:
     0.291,0.371,0.188,0.022,0.000:
0000
0000
0000
0000
,
0000
0000
0000
0000
,
0000
0000
0000
0000
,
0000
0000
0000
0000
,
1001
0000
0000
0000
,
0000
0000
0000
0000
0000
0000
0000
0010
,
0100
0000
0000
0000
,
0220
0000
0000
0330
,
0010
1000
0100
0001
,
0010
0001
0100
1000
,
0010
0100
0001
1000
,
0100
0010
0001
1000
,
0010
0001
0100
1000
,
0010
1000
0100
0001
,
0010
0100
0001
1000
,
1001
0110
1001
0110
,
0001
0010
0100
1000
0000
0000
1000
0000
,
0010
0100
0001
0100
,
0001
0100
0010
1000
0000
0000
0010
0000
,
0010
0100
0100
1000
,
1000
0100
0010
0001
0000
0000
0010
0000
,
0010
0100
0100
0010
,
0001
0010
0100
1000
0000
0000
0010
0000
,
0110
1001
0110
1001
,
0001
1000
0001
1000
0000
0000
0000
0000
,
1000
0001
1000
0001
0000
0000
0000
0000
,
0100
0010
0100
0010
0000
0000
0000
0000
,
0010
0100
0010
0100
0000
0000
0000
0000
,
1000
0100
1000
0100
0000
0000
0000
0000
,
0001
0010
0001
0010
0000
0000
0000
0000
,
0001
1000
0001
1000
0000
0000
0000
0000
,
0110
1001
0110
1001
,
0010
0100
0001
0000
0010
0000
0100
0000
,
0010
0100
1000
0000
1000
0000
0100
0000
,
0001
0010
1000
0001
,
0010
0100
1000
0001
,
0100
0001
0010
0000
0100
0000
0010
0000
,
0001
0100
0010
0000
1000
0000
0001
0000
,
0100
1000
0010
0001
,
0100
0100
0010
0010
,
0001
0010
0100
1000
0000
0000
0000
0000
,
1000
0000
1000
0000
,
1000
1001
0001
0000
,
0000
0000
0000
0000
,
1000
0010
0100
0001
0000
0000
0000
0000
,
0001
1001
0001
0000
,
0001
1000
0100
0001
,
0010
0010
0100
0100
,
0110
0000
0000
0000
;

//---------------dance-single - Chewphoria~----------------
#NOTES:
     dance-single:
     Chewphoria~:
     Hard:
     9:
     0.445,0.478,0.309,0.066,0.022:
0000
0000
0000
0000
,
0000
0000
0000
0000
,
0000
0000
0000
0000
,
0000
0000
0000
0000
,
1001
0000
0000
0000
,
0000
0000
0000
0000
0000
0000
0000
0001
,
0100
0000
0000
0000
,
2020
0000
0000
3030
,
1000
0000
0010
0100
0000
0001
0000
0010
,
0000
0000
0100
0000
0000
0000
1000
0000
0100
0000
0000
0001
0000
0000
0100
0000
,
1000
0000
0010
0100
0000
0001
0000
0100
,
0000
0000
0010
0000
0000
0000
1000
0000
0001
0000
0000
0010
0000
0000
0100
0000
,
1000
0000
0100
0010
0000
0001
0000
0100
,
0000
0000
1000
0000
0000
0000
0010
0000
1000
0000
0000
0100
0000
0000
0010
0000
,
0001
0000
0010
0100
0000
1000
0000
0001
,
1001
1001
0110
0110
,
0010
0000
1000
0100
1000
0010
0000
1000
,
0000
0100
0000
0010
0001
0000
0001
0100
,
0010
0000
0100
0001
0000
0011
0000
1100
,
0000
0000
0101
0000
0000
0000
1010
0000
0010
0000
0000
0101
0000
0000
0011
0000
,
0100
0000
1000
0100
0010
0001
0000
0101
,
0000
0000
1001
0010
1000
0000
0100
0010
,
0001
0000
0011
1100
0000
0101
0000
0100
,
0010
1000
0001
0010
0100
1000
0001
0100
,
0010
1000
0010
1000
0010
1000
0010
1000
,
0001
1000
0001
1000
0001
1000
0001
1000
,
0001
0010
0001
0010
0001
0010
0001
0010
,
0100
0010
0100
0010
0100
0010
0100
0010
,
0010
0001
0100
0010
0100
0001
0010
0001
,
0100
0010
0100
0001
0010
0001
0100
0010
,
1000
0100
1000
0010
1000
0100
1000
0010
,
1100
0011
0101
1010
,
1000
0010
0001
0010
1000
0010
0001
0010
,
1000
0100
0001
0100
1000
0100
0001
0100
,
1000
0010
1000
0100
1000
0010
1000
0100
,
0001
0010
0001
0100
0001
0010
0001
0100
,
0001
0010
0100
1000
0001
0010
0100
1000
,
0001
0100
0010
1000
0001
0100
0010
1000
,
1000
0100
0010
0001
1000
0100
0010
0001
,
1000
0010
0100
0001
1000
0010
0100
0001
,
0010
1000
0100
0001
0010
0000
0000
0000
,
2002
0000
0000
3003
,
0010
0001
0100
1000
0010
0000
0000
0000
,
0010
1000
0000
0010
0001
0010
1000
0000
,
0100
0010
0001
0100
0010
0000
0000
0000
,
2002
0000
0000
3003
,
1000
0100
0001
0010
0100
1000
0001
1000
,
1010
0011
0101
1100
,
0110
0000
0000
0000
;
