#TITLE:Bend & Snap (Original Mix);
#SUBTITLE:;
#ARTIST:toMOOSE;
#TITLETRANSLIT:;
#SUBTITLETRANSLIT:;
#ARTISTTRANSLIT:;
#GENRE:Fidget House;
#CREDIT:Chewphoria~;
#MENUCOLOR:#FFFF00;
#METERTYPE:DDR;
#BANNER:Bend & Snap (Original Mix).png;
#BACKGROUND:Bend & Snap (Original Mix)-bg.png;
#LYRICSPATH:;
#CDTITLE:;
#MUSIC:Bend & Snap (Original Mix).mp3;
#OFFSET:-7.667;
#SAMPLESTART:30.700;
#SAMPLELENGTH:15.000;
#SELECTABLE:YES;
#LISTSORT:;
#DISPLAYBPM:125.000;
#BPMS:0.000=125.090,86.000=62.545,113.000=125.090;
#STOPS:117.000=0.200
,117.500=0.200
,118.000=0.200
,118.500=0.200
,119.000=0.200
,119.500=0.200
,120.000=0.200
,120.500=0.200
,121.000=0.200
;
#BGCHANGES:;
#ATTACKS:;

//---------------dance-single - ----------------
#NOTES:
     dance-single:
     :
     Easy:
     3:
     0.154,0.174,0.082,0.021,0.000: // measure 1
1000
0100
0001
0100
,  // measure 2
1000
0100
0001
0100
,  // measure 3
1000
0010
0001
0010
,  // measure 4
1000
0010
0001
0010
,  // measure 5
1000
0100
1000
0100
,  // measure 6
0001
0100
0001
0100
,  // measure 7
0020
0000
0000
0030
,  // measure 8
0010
0100
0110
0100
,  // measure 9
0010
1000
0001
0100
,  // measure 10
0100
0000
0001
1000
,  // measure 11
0010
0000
1000
0000
,  // measure 12
0200
0000
0000
0300
,  // measure 13
0001
0000
1001
0000
,  // measure 14
1000
0000
1001
0000
,  // measure 15
0001
0000
1001
0000
,  // measure 16
1000
0000
1001
1001
,  // measure 17
0100
0100
0100
0010
,  // measure 18
0100
0100
0100
0010
,  // measure 19
1000
0000
0001
0001
,  // measure 20
0001
0000
1001
0000
,  // measure 21
1000
0100
0000
0100
,  // measure 22
0000
0010
0001
0000
,  // measure 23
0000
0000
0000
1000
,  // measure 24
0000
0000
0000
0000
,  // measure 25
0010
0000
0000
0000
,  // measure 26
0000
0000
0100
0000
,  // measure 27
0001
0000
1000
0000
,  // measure 28
1001
0000
0000
0000
,  // measure 29
0000
1000
0000
0000
,  // measure 30
0000
1000
0001
1000
,  // measure 31
0001
1000
0000
0000
,  // measure 32
0000
0100
0000
0000
0000
0001
0000
0000
,  // measure 33
0000
0010
0000
0000
0000
1000
0000
0000
,  // measure 34
0000
0100
0000
0000
0000
0001
0000
0000
,  // measure 35
0000
0010
0000
0010
0000
0010
0000
0000
,  // measure 36
0000
0100
0000
0000
0000
0100
0000
0100
,  // measure 37
0000
0100
0000
0000
0000
1000
0000
0000
,  // measure 38
0000
1000
0000
1000
0000
1000
0000
0000
;

//---------------dance-single - ----------------
#NOTES:
     dance-single:
     :
     Medium:
     6:
     0.282,0.290,0.195,0.236,0.277: // measure 1
1000
1010
0001
0011
,  // measure 2
0010
0010
0010
0000
0100
0000
0110
0000
,  // measure 3
0100
1100
0100
0101
,  // measure 4
0100
0000
0100
0000
0000
0100
0000
0000
0010
0000
0000
0000
1010
0000
0000
0000
,  // measure 5
0010
0010
0010
0000
0100
0100
0100
0000
,  // measure 6
0001
0001
0001
0000
1000
1000
1000
0000
,  // measure 7
0002
0000
0000
0000
,  // measure 8
2003
0010
0001
3000
,  // measure 9
0100
0010
0001
0100
,  // measure 10
0110
0000
0010
1000
,  // measure 11
0002
0000
0000
0000
,  // measure 12
2003
0000
0000
0000
0000
0000
0100
0000
0000
0000
0000
0000
0000
0000
0000
3000
,  // measure 13
0000
0001
0000
0000
0100
0000
0000
0000
0101
0000
0000
0000
0000
0000
0000
0000
,  // measure 14
1000
0000
0000
0000
0010
0000
0000
0000
1000
0010
0000
0000
0000
0000
0000
0000
,  // measure 15
0001
0010
0011
0000
,  // measure 16
1000
0100
1100
1100
,  // measure 17
0010
0000
0000
0000
0001
0000
0000
0000
0010
0000
0000
0000
0200
0000
0000
1000
,  // measure 18
0300
1000
0010
2000
,  // measure 19
3010
0100
0001
0100
,  // measure 20
1001
0000
0000
0001
1000
0000
0000
0000
,  // measure 21
0010
0110
0100
0101
,  // measure 22
1000
0001
2000
0000
,  // measure 23
0000
3002
0000
0203
,  // measure 24
0000
0000
0320
0000
0000
0000
0000
2030
,  // measure 25
0000
0000
0000
0000
0000
0000
3002
0000
0000
0000
0000
0000
0000
0000
0000
0023
,  // measure 26
0000
0000
0000
0000
0000
0000
0000
2030
0000
0000
0000
0000
0000
0000
0000
0000
,  // measure 27
0000
3002
0000
0000
0023
0000
0000
0000
0230
0000
0000
0000
0302
0000
0000
0000
,  // measure 28
0000
0023
0000
0000
0000
0000
0230
0000
0000
0000
2300
0000
0000
0000
0020
3000
,  // measure 29
0000
0000
0000
0230
0000
0000
0000
0000
0000
0000
0000
0000
0000
0000
0000
0000
,  // measure 30
0000
0300
0000
0000
0110
0000
0010
0000
0110
0000
0100
0000
0101
0000
0100
0000
,  // measure 31
1100
0000
0100
0000
1001
0000
0000
1000
0000
1000
0000
1000
0000
0000
0000
0001
,  // measure 32
0000
0001
0000
0001
0000
0000
0000
0100
0000
0100
0000
0100
0000
0000
0000
0010
,  // measure 33
0000
0010
0000
0010
0000
0000
0000
1000
0000
1000
0000
1000
0000
0000
0000
0010
,  // measure 34
0000
0010
0000
0010
0000
0000
0000
0100
0000
0100
0000
0100
0000
0000
0000
0001
,  // measure 35
0000
0001
0000
0001
0000
0000
0000
1000
0000
1000
0000
1000
0000
0000
0000
0001
,  // measure 36
0000
0001
0000
0001
0000
0000
0000
1000
0000
1000
0000
1000
0000
0000
0000
0100
,  // measure 37
0000
0100
0000
0100
0000
0000
0000
0010
0000
0010
0000
0010
0000
0000
0000
0001
,  // measure 38
0000
0001
0000
0001
0000
0000
0000
1000
0000
1000
0000
1000
0000
0000
0000
0000
;

//---------------dance-single - ----------------
#NOTES:
     dance-single:
     :
     Hard:
     8:
     0.408,0.373,0.472,0.288,0.149:
1000
0100
1100
0000
0001
0100
0101
0000
,
1010
0011
1010
0000
0001
0010
0011
0000
,
1000
0010
1010
0000
0001
0100
0101
0000
,
1100
0101
1100
0000
1000
0001
1001
0000
,
0001
1000
1001
0000
0010
0001
0011
0000
,
1000
0100
1100
0000
0001
0100
0101
0000
,
1010
0000
0000
1010
0000
0000
1010
0000
0000
1010
0000
0000
1010
0000
0000
0000
,
0101
0101
0101
0110
,
1000
0100
0010
0001
0100
0010
1000
0000
,
1010
0000
0000
0100
0001
0100
1000
0100
,
1001
0000
0000
1000
0000
0000
0001
0000
1000
0000
0000
0001
0000
0000
1000
0000
,
2000
0001
0000
0000
0001
0000
0000
0001
0000
0000
0001
0000
0000
3001
0000
0000
,
0101
0000
0000
1000
1000
1000
0000
0000
,
1100
0000
0000
0001
0001
0001
0000
0000
,
0011
0000
0000
1000
1000
1000
0000
0000
,
1010
0000
0000
0001
0001
0001
0001
0000
,
1001
0000
0000
0000
0110
0000
0000
0000
1001
0000
0000
0000
1000
0010
0100
0001
,
1000
0000
0000
0000
1010
0000
0000
0000
0100
0000
0000
0000
0100
0001
0010
1000
,
0010
0000
0010
0010
1000
0010
1000
0100
,
0001
0000
0000
0010
1000
0100
0010
0001
,
0100
1001
0010
1001
,
1000
0000
0000
0000
0000
0000
0000
0000
0010
0000
0000
0000
0000
0000
0000
0000
2000
0000
0000
3200
0000
0000
0000
0000
0000
0000
0000
0000
0000
0000
0320
0000
,
0000
0000
0000
0000
0000
0000
0000
0032
0000
0000
0000
0000
0000
0000
0000
0000
0203
0000
0000
0000
0320
0000
0000
0000
2030
0000
0000
0000
0000
0000
0000
0000
,
0000
3002
0000
0000
0000
0000
0000
0000
0000
0023
0000
0000
0000
0000
0000
0000
0000
0000
0000
0000
0000
0000
0230
0000
0000
0000
0000
0320
0000
0000
0000
0000
,
0000
0000
0000
0000
2030
0000
0000
0000
0000
0000
0000
0000
3002
0000
0000
0000
0000
0000
0000
0000
0000
0000
0000
0000
0000
0023
0000
0000
0000
0230
0000
0000
,
0000
0000
0000
2300
0000
0001
0000
3200
0000
0000
0000
0000
0000
0000
0000
0000
,
0302
0000
0000
0000
0000
0000
0000
0000
0000
2003
0000
0000
0000
0000
0000
0000
0000
0000
3002
0000
0000
0000
0000
0000
0000
0000
0023
0000
0000
0000
0230
0000
,
0000
0000
2300
0000
0000
0000
0000
0000
0000
0000
0000
3020
0000
0000
0000
0000
0000
0000
0000
0000
0230
0000
0000
0000
0000
0000
0000
0000
0302
0000
0000
0000
,
0000
2003
0000
0000
0000
0000
0000
0000
,
0000
0000
0000
3000
0101
0000
1100
0000
1010
0000
0011
0000
1010
0000
1100
0000
,
0101
0011
1010
0000
1000
0001
0010
0000
,
0100
1000
0010
0000
1000
0001
0010
0000
,
0001
0100
0010
0000
1000
0001
0010
0000
,
0100
1000
0001
0000
1000
0001
0010
0000
,
0001
0100
1000
0000
1000
0001
0010
0000
,
0001
1000
0010
0000
1000
0001
0100
0000
,
0010
1000
0100
0000
0010
0001
0010
0000
,
0010
0001
0100
0000
0100
1000
0010
0000
,
0001
0100
0000
0000
;

//---------------dance-single - ----------------
#NOTES:
     dance-single:
     :
     Beginner:
     1:
     0.116,0.156,0.072,0.021,0.000: // measure 1
1000
0000
0001
0000
,  // measure 2
0010
0000
0100
0000
,  // measure 3
0001
0000
1000
0000
,  // measure 4
0100
0000
0010
0000
,  // measure 5
1000
0000
0001
0000
,  // measure 6
1000
0000
0001
0000
,  // measure 7
2000
0000
0000
3000
,  // measure 8
1000
0000
1001
0000
,  // measure 9
0001
0000
0010
0010
,  // measure 10
0010
0000
1000
0000
,  // measure 11
0100
0000
0001
0000
,  // measure 12
2000
0000
0000
3000
,  // measure 13
1000
0000
1001
0000
,  // measure 14
0001
0000
1001
0000
,  // measure 15
1000
0000
1001
0000
,  // measure 16
0001
0000
1001
0000
,  // measure 17
0010
0010
0010
0000
,  // measure 18
0010
0010
0010
0000
,  // measure 19
0010
0010
0010
0000
,  // measure 20
0110
0000
0110
0000
,  // measure 21
0100
0000
1000
0000
,  // measure 22
0010
0000
0010
0000
,  // measure 23
0000
0000
0000
0100
,  // measure 24
0000
0000
0000
0000
,  // measure 25
1000
0000
0000
0000
,  // measure 26
0000
0001
0000
0000
,  // measure 27
0000
0000
1000
0000
,  // measure 28
0000
0000
0000
0010
,  // measure 29
0000
0100
0000
0000
,  // measure 30
0000
0010
0000
0010
,  // measure 31
0000
0000
0000
0010
0000
0000
0000
0010
,  // measure 32
0000
0000
0000
0010
0000
0000
0000
0010
,  // measure 33
0000
0000
0000
1000
0000
0000
0000
1000
,  // measure 34
0000
0000
0000
1000
0000
0000
0000
1000
,  // measure 35
0000
0000
0000
0100
0000
0000
0000
0100
,  // measure 36
0000
0000
0000
0100
0000
0000
0000
0100
,  // measure 37
0000
0000
0000
0001
0000
0000
0000
0001
,  // measure 38
0000
0000
0000
0001
0000
0000
0000
1000
;
