#TITLE:SHAME;
#SUBTITLE:;
#ARTIST:Basic Element;
#TITLETRANSLIT:;
#SUBTITLETRANSLIT:;
#ARTISTTRANSLIT:;
#GENRE:;
#CREDIT:;
#BANNER:SHAME.png;
#BACKGROUND:SHAME-bg.png;
#LYRICSPATH:;
#CDTITLE:;
#MUSIC:SHAME.ogg;
#OFFSET:0.000000;
#SAMPLESTART:53.510002;
#SAMPLELENGTH:15.000000;
#SELECTABLE:YES;
#BPMS:0.000000=130.000000
;
#STOPS:
;
#BGCHANGES:;
#KEYSOUNDS:;
#ATTACKS:;

//---------------dance-single - ----------------
#NOTES:
     dance-single:
     :
     Beginner:
     2:
     0.145506,0.234380,0.162041,0.034723,0.000000,88.000000,74.000000,14.000000,3.000000,0.000000,0.000000,0.145506,0.234380,0.162041,0.034723,0.000000,88.000000,74.000000,14.000000,3.000000,0.000000,0.000000:
// measure 0
0000
0000
0000
0000
,  // measure 1
0000
0000
0000
0000
,  // measure 2
0000
0000
0000
0000
,  // measure 3
0000
0000
0000
0000
,  // measure 4
0000
0000
0000
0000
,  // measure 5
0000
0001
0000
1000
,  // measure 6
0000
0001
0000
1000
,  // measure 7
0000
0100
0000
0010
,  // measure 8
0000
0100
0000
0010
,  // measure 9
0010
0000
0000
0000
,  // measure 10
0001
0000
0000
0000
,  // measure 11
0010
0000
0010
0000
,  // measure 12
0001
0000
0001
0000
,  // measure 13
1000
0000
0000
0000
,  // measure 14
0100
0000
0000
0000
,  // measure 15
1000
0000
1000
0000
,  // measure 16
0100
0000
0100
0000
,  // measure 17
1000
0000
0001
0000
,  // measure 18
0001
0000
0000
0000
,  // measure 19
0001
0000
1000
0000
,  // measure 20
1000
0000
0000
0000
,  // measure 21
0010
0000
0100
0000
,  // measure 22
0100
0000
0000
0000
,  // measure 23
0100
0000
0010
0000
,  // measure 24
0010
0000
0000
0000
,  // measure 25
1001
0000
0000
0000
,  // measure 26
0010
0010
0010
0000
,  // measure 27
0001
0000
0000
0000
,  // measure 28
0100
0100
0100
0000
,  // measure 29
0110
0000
0110
0000
,  // measure 30
0110
0000
0010
0000
,  // measure 31
1001
0000
1001
0000
,  // measure 32
1001
0000
1000
0000
,  // measure 33
1001
0000
1001
0000
,  // measure 34
1001
0000
0001
0000
,  // measure 35
0110
0000
0110
0000
,  // measure 36
0110
0000
0100
0000
,  // measure 37
0010
0010
0010
0000
,  // measure 38
0002
0000
0000
0003
,  // measure 39
0001
0001
0001
0000
,  // measure 40
0200
0000
0000
0300
,  // measure 41
0100
0100
0100
0000
,  // measure 42
2000
0000
0000
3000
,  // measure 43
1000
1000
1000
0000
,  // measure 44
0010
0000
0100
0000
,  // measure 45
1001
0000
0000
0000
;

//---------------dance-single - ----------------
#NOTES:
     dance-single:
     :
     Easy:
     4:
     0.236447,0.286465,0.104169,0.023149,0.000000,143.000000,134.000000,9.000000,2.000000,0.000000,0.000000,0.236447,0.286465,0.104169,0.023149,0.000000,143.000000,134.000000,9.000000,2.000000,0.000000,0.000000:
0000
0000
0000
0000
,
0000
0000
0000
0000
,
0000
0000
0000
0000
,
0000
0000
0000
0000
,
0000
0000
0000
0000
,
0000
1000
0000
1000
,
0000
0001
0000
0001
,
0000
0100
0000
0100
,
0000
0010
0000
0010
,
1001
0100
0001
0100
,
1000
0000
1000
0000
,
0001
0100
0001
0000
,
1000
0100
1000
0000
,
0001
0010
1000
0010
,
0001
0000
0100
0000
,
0010
1000
0010
0000
,
0100
0001
0100
0000
,
1000
0100
0100
0000
,
0001
0010
0010
0000
,
0010
1000
0100
0000
,
0100
1000
0010
1000
,
0100
0100
1000
0000
,
0010
0010
0001
0000
,
1000
0010
1000
0001
,
0100
0001
0010
0100
,
0010
0001
0100
0010
,
2000
0100
0100
0010
,
3002
0010
1000
1003
,
1000
0010
0100
0001
,
1001
0000
1001
0100
,
0010
0001
1000
0000
,
0010
1000
0001
0100
,
0010
1000
0100
0010
,
0001
1001
1001
0100
,
0010
1000
0001
0000
,
0010
0010
0100
0100
,
1000
0100
0010
0001
,
1100
1000
0010
1000
,
0100
0000
0100
0000
,
0011
0001
0100
0001
,
0010
0100
1000
0001
,
1010
0001
0100
0010
,
1000
0000
0001
1000
,
0011
0001
1000
0100
,
0010
0010
0100
0100
,
1000
0000
0000
0000
;

//---------------dance-single - ----------------
#NOTES:
     dance-single:
     :
     Medium:
     8:
     0.358805,0.390634,0.150466,0.069446,0.011574,217.000000,204.000000,13.000000,6.000000,0.000000,0.000000,0.358805,0.390634,0.150466,0.069446,0.011574,217.000000,204.000000,13.000000,6.000000,0.000000,0.000000:
0000
0000
0000
0000
,
0000
0000
0000
0000
,
0000
0000
0000
0000
,
0000
0000
0000
0000
,
0000
0000
0000
0000
,
0000
1000
0000
1000
,
0000
0100
0000
0100
,
0000
0010
0000
0010
,
0000
0000
0001
0000
0001
0100
0001
0100
,
0010
0000
0000
0000
1000
0000
0001
0000
0010
0000
0000
0010
0000
0000
0200
0000
,
0000
1000
0010
1300
,
0010
1000
0010
1000
0100
0000
0100
0000
,
0010
0001
0010
0001
0100
0000
0100
0000
,
0010
0000
0000
0000
1000
0000
0001
0000
0100
0000
0000
0100
0000
0000
0020
0000
,
0000
1000
1000
0031
,
1000
0010
1000
0010
0100
0000
0100
0000
,
0001
0010
0001
0010
0100
0010
0001
0000
,
1001
0000
0010
0000
0100
1000
0010
0000
,
0100
0000
0010
0000
0100
0001
0010
0000
,
0001
0100
0001
0000
0100
0001
0100
0000
,
0010
1000
0010
0000
1000
0010
1000
0000
,
1001
0000
0010
0000
0100
0001
1000
0000
,
0100
0000
0010
0000
0100
1000
0001
0000
,
1000
0100
1000
0000
0001
1000
0001
0000
,
0100
0001
0100
0000
0010
0100
0010
0000
,
1010
0000
0101
0000
0100
0010
1000
0001
,
0000
0010
0100
1000
0000
0001
0001
0000
,
1000
0000
0010
0000
0100
0010
0100
0000
,
1002
0000
0023
0000
0230
0000
2300
3000
,
1001
0000
0100
0000
1001
0100
0010
1000
,
0000
0001
0001
0000
0010
0001
0010
0001
,
0000
0100
0100
0000
0010
1000
0010
0000
,
0100
0001
0010
0000
0100
1000
0001
0000
,
0100
0000
1001
0000
1001
0010
0100
0001
,
0000
1000
1000
0000
0001
0100
0001
0000
,
1000
0100
0010
0000
0001
0100
0010
0000
,
1010
0101
1001
0110
,
1000
0100
0001
0000
1000
0100
0001
0000
,
0100
1000
0010
0100
,
0001
0010
1000
0000
0001
0010
1000
0000
,
0010
0001
0100
0010
,
1000
0010
0001
0000
1000
0010
0001
0000
,
0010
1000
0100
0010
,
0001
0100
1000
0000
0001
0100
1000
0000
,
0100
0000
0010
0000
1000
0100
0010
0000
,
0001
0000
0000
0000
;

//---------------dance-single - ----------------
#NOTES:
     dance-single:
     :
     Hard:
     12:
     0.491083,0.494803,0.150466,0.000000,0.156254,297.000000,284.000000,13.000000,0.000000,0.000000,0.000000,0.491083,0.494803,0.150466,0.000000,0.156254,297.000000,284.000000,13.000000,0.000000,0.000000,0.000000:
0000
0000
0000
0000
,
0000
0000
0000
0000
,
0000
0000
0000
0000
,
0000
0000
0000
0000
,
0000
0000
0000
0000
,
1000
0000
1000
0000
0000
0100
1000
0000
,
0001
0000
0001
0000
0000
0100
0001
0000
,
0010
0000
0010
0000
0000
0100
0010
0000
,
0100
0000
0100
0000
0010
0100
0010
0100
,
1001
0000
0000
0000
0100
0000
0010
0000
1000
0000
0000
1000
0000
0000
0001
0000
,
0010
0000
0100
0000
0010
0010
0001
1000
,
0100
0000
1000
0000
0100
0000
1000
0000
0001
0000
0001
0100
0000
0000
0010
0000
,
0100
0000
0010
0000
1000
0000
0010
0000
1000
0000
0001
0000
1000
0100
0000
0000
,
1001
0000
0000
0000
0100
0000
0010
0000
0001
0000
0000
0001
0000
0000
1000
0000
,
0010
0000
0100
0000
0001
0000
1000
0000
0001
0000
0100
0000
0010
1000
0000
0000
,
0100
0000
1000
0000
0100
0000
1000
0000
0001
0000
0100
0001
0000
0000
0100
0000
,
0010
0000
0100
0000
0010
0000
1000
0000
0010
0000
1000
0000
0001
0010
0100
1000
,
0010
1000
0001
0000
0100
0001
1000
0100
,
0010
0000
0000
0010
0000
0000
0001
0000
0000
0000
1000
0000
0010
0000
0100
0000
,
0001
0100
0010
0100
0010
1000
0100
0000
,
1000
0100
0010
0100
0010
0001
1000
0001
,
0100
0000
0000
0000
0010
0000
1000
0010
0000
0000
0100
0000
0001
0000
0001
0000
,
1000
0000
0000
0100
0000
0000
0010
0000
0000
0000
0010
0000
0001
0000
0100
0000
,
0010
1000
0001
1000
0001
1000
0100
0000
,
1000
0100
0010
0001
0010
0001
1000
0010
,
0101
0000
0100
0010
1000
0100
0010
0001
,
0000
0010
0100
1000
0001
0100
0010
1000
,
0001
1000
0100
0000
0100
1000
0001
0000
,
1000
0010
0000
0000
0010
0100
0000
0000
0100
0001
0000
0000
0001
1000
0000
0000
,
1001
1000
0100
0000
1001
0001
0100
0010
,
1000
0010
1000
0000
0010
1000
0100
0010
,
0001
0000
0010
0000
0001
0000
0100
0010
0000
0000
1000
0000
0001
0000
0010
0100
,
0000
0000
1000
0000
0100
0000
0010
0000
0100
0000
1000
0000
0001
0000
0100
0010
,
0000
1000
1001
0000
1001
0010
0100
0001
,
0100
0010
1000
0000
0001
0010
0001
0010
,
0100
0000
1000
0000
0010
0000
1000
0010
0000
0000
0100
0000
0001
0000
0001
0000
,
1000
0001
0100
0000
0011
0000
1100
0000
,
1001
0000
1000
0100
0000
0000
1000
0000
0001
0000
1000
0100
0000
0000
0010
0000
,
0001
0001
0010
0100
1000
1000
0010
0100
,
1001
0000
0001
0100
0000
0000
0010
0000
1000
0000
0001
0100
0000
0000
0010
0000
,
1000
1000
0001
0001
0010
0010
0100
0100
,
0110
0000
1000
0001
0000
0000
0100
0000
0010
0000
1000
0001
0000
0000
0100
0000
,
0010
0010
1000
0001
0100
0100
0010
1000
,
0110
0000
0001
0100
0000
0000
0010
0000
1000
0000
0001
0100
0000
0000
0010
0000
,
1000
1000
0001
0001
0010
0010
0100
0100
,
1000
0000
0000
0000
;
