#TITLE:ZAMURAI 大江戸篇;
#SUBTITLE:;
#ARTIST:HIFANA;
#TITLETRANSLIT:ZAMURAI;
#SUBTITLETRANSLIT:;
#ARTISTTRANSLIT:;
#CREDIT:;
#BANNER:zamurai-bn.png;
#BACKGROUND:zamurai-bg_movie.png;
#LYRICSPATH:;
#CDTITLE:!auraelogo_new.png;
#MUSIC:zamurai.mp3;
#OFFSET:0.669;
#SAMPLESTART:40.020;
#SAMPLELENGTH:19.260;
#SELECTABLE:YES;
#DISPLAYBPM:100.000:200.000;
#BPMS:0.000=100.000,12.000=200.000,92.000=100.000,132.000=200.000,196.000=165.000,199.000=102.000;
#STOPS:;
#BGCHANGES:2.000=zamurai.avi=1.000=1=0=0,
210.000=zamurai-bg_movie.png=1.000=1=0=1,
99999=-nosongbg-=1.000=0=0=0 // don't automatically add -songbackground-
;

//---------------dance-single - aurae----------------
#NOTES:
     dance-single:
     aurae:
     Easy:
     3:
     0.218,0.245,0.012,0.143,0.000:
0000
0000
0000
0000
,
0000
0000
0000
0000
,
0000
0000
0000
0000
,
0010
0000
0010
0000
,
1000
1000
0010
0000
,
1000
0000
1000
0000
,
0001
0001
0000
1000
,
1000
0000
0010
0000
,
0100
0100
0010
0000
,
1000
0000
0001
0000
,
0001
0000
0010
0000
,
1001
0000
0100
0000
,
1000
1000
0100
0000
,
1000
0001
1000
0001
,
1000
0000
0001
0000
,
1000
0000
0010
0000
,
0100
0100
0010
0000
,
1000
0000
0001
0000
,
0100
0100
0001
0000
,
2000
3000
2000
3000
,
2000
3000
2000
3000
,
0001
0000
0001
0000
,
0001
0000
0100
0000
,
0002
0003
2000
3000
,
0010
1000
0010
1000
,
0010
0000
0100
0000
,
0100
0001
0100
0000
,
0200
0300
0020
0030
,
0001
0000
1000
0000
,
0200
0300
2000
3000
,
0001
1000
0001
0001
,
0200
0000
0000
0000
,
0300
0000
0000
0000
,
0100
0000
0100
0000
,
0001
0001
0001
0000
,
1000
0000
1000
0000
,
0001
1000
0001
1000
,
0001
0000
0001
0000
,
0100
0100
0100
0000
,
0010
0000
1000
0000
,
0001
1000
0001
1000
,
0001
0000
1000
0000
,
0010
0010
0010
0000
,
1000
0000
0100
0000
,
0010
0000
0001
0001
,
0001
0001
0001
0000
,
1000
0000
0100
0100
,
0100
0000
1000
0000
,
0010
1000
0010
1000
,
0020
0000
0000
0000
,
0000
0000
0000
0000
,
0000
0000
0030
0000
;

//---------------dance-single - aurae----------------
#NOTES:
     dance-single:
     aurae:
     Medium:
     5:
     0.335,0.430,0.131,0.179,0.024:
0000
0000
0000
0000
,
0000
0000
0000
0000
,
0000
0000
0000
0000
,
0010
1000
1000
0001
,
0100
0001
0001
1000
,
0001
1000
0100
0000
,
1000
0001
0010
0000
,
0010
0001
0001
0100
,
0001
1000
1000
0010
,
2020
3030
2002
3003
,
0101
0001
1000
0001
,
0100
0010
1000
1000
,
0001
0100
0001
0001
,
1000
0100
1000
0100
,
1000
0010
0100
0001
,
0010
0001
0010
0100
,
0100
1000
0100
0000
,
1000
0001
1000
1000
,
0002
2003
3002
0003
,
1001
0000
0100
0000
,
1001
0000
0010
0000
,
1000
0000
0100
1000
,
0001
0001
1000
0000
,
0001
0000
1000
0000
0001
0100
0001
0000
,
0010
0000
0010
0000
0001
0100
0001
1000
,
0010
0100
0010
1000
,
0001
0000
0100
0000
0010
0000
0100
0000
0000
0001
0000
0000
,
0100
0001
0100
0000
0001
1000
0001
0000
,
2000
3000
0002
0003
,
0010
0001
0100
0000
0010
1000
0100
0000
,
1000
0000
0010
0000
0100
0000
0002
0000
0000
2000
0000
0000
,
3003
0000
0000
0000
,
0000
0000
0000
0000
,
1000
0001
0100
0001
,
0100
0010
1000
1000
,
0010
1000
0100
1000
,
0001
0100
0002
0003
,
1000
0110
0110
0000
,
0001
0110
1001
0000
,
0100
1000
0001
0100
,
0001
0001
0002
0003
,
1000
1000
0001
0100
,
0001
0010
0100
1000
,
0100
1000
0001
0100
,
0010
0000
1000
0010
0100
0000
0100
0000
,
0100
0100
0100
1001
,
0010
0001
0100
0001
,
1000
1000
0001
0100
,
0001
0010
0100
1000
,
0020
0000
0030
0200
,
0000
0000
0000
0000
,
0000
0300
1001
0000
;

//---------------dance-single - aurae----------------
#NOTES:
     dance-single:
     aurae:
     Hard:
     8:
     0.470,0.583,0.203,0.143,0.292: // measure 1
0000
0000
0000
0000
,  // measure 2
0000
0000
0000
0000
,  // measure 3
0000
0000
0000
0000
,  // measure 4
0001
0010
0100
1000
,  // measure 5
0010
0100
0001
1000
,  // measure 6
0100
1000
0001
0100
,  // measure 7
0001
0000
0000
0001
0000
1000
0000
0000
0001
1000
0000
0000
,  // measure 8
0100
0010
0001
0100
,  // measure 9
0010
0000
0000
1000
0000
0000
0100
0000
1000
0100
0000
0000
,  // measure 10
1001
0010
1001
0100
,  // measure 11
0001
0000
0000
1000
0000
0000
0001
0000
1000
0010
0000
0000
,  // measure 12
0100
0001
0010
0001
,  // measure 13
1000
0000
0100
0010
0000
0001
0010
0000
0100
1000
0000
0001
,  // measure 14
0200
0302
2003
3020
,  // measure 15
0230
0000
0000
0310
0000
0100
0000
0000
0001
0100
0000
0010
,  // measure 16
0100
0000
0001
1000
0000
0000
0100
0000
0000
0010
0000
0000
,  // measure 17
0001
1000
0001
0100
,  // measure 18
0101
0001
1000
0100
,  // measure 19
1100
0000
0000
1000
0000
0000
0001
0000
1000
0001
0000
0100
,  // measure 20
0020
0000
1000
0000
,  // measure 21
1000
0000
0000
1000
0000
0000
1030
0000
,  // measure 22
0010
0000
0000
0000
0000
0000
1010
0000
0000
0000
0000
1000
,  // measure 23
0001
0100
0001
0000
,  // measure 24
0001
1000
1001
0000
0010
0100
0001
0000
,  // measure 25
1000
0100
0010
0001
0100
0010
0100
0000
,  // measure 26
0010
0000
0000
0000
1000
0000
0000
0000
0100
0000
0000
0000
0000
0000
0000
0000
1000
0000
0000
0001
0000
0000
1000
0000
0001
0000
0000
0000
0100
0000
0000
0000
,  // measure 27
0010
0000
1000
0000
0100
0000
1000
0000
0001
0000
0100
0000
0001
0000
0000
1000
0000
0000
0010
0000
0000
0000
0000
0000
,  // measure 28
1000
0010
1010
0000
0100
0001
0010
0000
,  // measure 29
0100
0000
1000
0000
0001
0100
0001
0000
1000
0000
0010
0000
0100
0010
0100
0000
,  // measure 30
0010
1000
1010
0000
0001
0100
0010
1000
,  // measure 31
0001
0000
1000
0000
0100
0000
1000
0000
0001
0000
0010
0000
0001
0000
0000
0200
0000
0000
0002
0000
0000
0000
0000
0000
,  // measure 32
0300
0103
0000
0001
0000
1000
0000
0100
,  // measure 33
0000
0000
0000
1000
0000
0000
0000
0000
0000
0010
0000
0000
0000
0000
0000
1000
0000
0001
1000
0000
0000
0100
0000
0000
,  // measure 34
0010
0000
0000
0011
0000
0000
0001
0000
1000
0100
0000
0000
,  // measure 35
1000
0000
0000
0001
0000
0000
0100
0000
0010
1000
0000
1000
,  // measure 36
0010
0000
0000
0100
0000
0000
0001
0000
0010
0001
0000
0100
,  // measure 37
0010
1000
0100
0010
,  // measure 38
0001
0000
0000
1001
0000
0000
1100
0000
0000
1000
0000
0001
,  // measure 39
0100
0000
0000
0001
0000
1000
0100
0000
0000
0010
0001
0010
,  // measure 40
0001
0000
0000
1000
0001
1000
0001
0000
0000
0100
0001
0100
,  // measure 41
0001
0100
0202
0303
,  // measure 42
1001
0000
0000
1000
0000
0000
0010
0000
1000
0100
0000
0000
,  // measure 43
1000
0000
0000
0001
0000
0000
0100
0000
0010
1000
0000
0000
,  // measure 44
0010
0000
0000
0100
0000
0000
0001
0000
0010
0100
0000
0000
,  // measure 45
1000
0000
0001
0100
0010
0000
0010
0000
,  // measure 46
1010
0110
1010
1000
,  // measure 47
0100
0000
0000
0010
0000
0000
0001
0000
0010
0001
0000
0001
,  // measure 48
0100
0000
0000
0010
0000
0000
1000
0000
0001
0100
0000
0000
,  // measure 49
0010
0000
0000
1000
0000
0000
0001
0000
1000
0100
0000
1000
,  // measure 50
0001
0000
0000
2002
,  // measure 51
0000
0000
0000
0000
,  // measure 52
3003
0000
0010
0000
;
