#TITLE:THE FEVER (AYE AYE);
#SUBTITLE:;
#ARTIST:DEATH GRIPS;
#TITLETRANSLIT:;
#SUBTITLETRANSLIT:;
#ARTISTTRANSLIT:;
#CREDIT:aurae;
#BANNER:thefever.png;
#BACKGROUND:thefever-bg.png;
#LYRICSPATH:;
#CDTITLE:!auraelogo_new.png;
#MUSIC:thefever.mp3;
#OFFSET:0.101;
#SAMPLESTART:35.920;
#SAMPLELENGTH:12.040;
#SELECTABLE:YES;
#DISPLAYBPM:159.500;
#BPMS:0.000=159.520;
#STOPS:;
#BGCHANGES:0.250=thefever.avi=1.000=1=0=0,
254.500=thefever-bg.png=1.000=1=0=0,
99999=-nosongbg-=1.000=0=0=0 // don't automatically add -songbackground-
;

//---------------dance-single - aurae----------------
#NOTES:
     dance-single:
     aurae:
     Hard:
     9:
     0.551,0.624,0.279,0.010,0.062:
0000
0000
0000
0000
,
0000
0000
0000
0000
,
0000
0000
0000
0000
,
0000
0000
0000
0000
,
0000
0000
0000
0000
,
0000
0000
0000
0000
,
0000
0000
0000
0000
,
0000
0000
0000
0000
,
1000
0100
1000
0000
0010
0100
0001
0010
,
0100
0010
0001
0000
1000
0001
0100
0000
,
1001
0000
0001
0100
0010
1000
0100
1000
,
0001
0000
0010
0000
0001
0000
0100
0000
0010
0000
1000
0010
1000
0000
0010
0000
,
1000
0100
1000
0001
0100
0000
0100
0001
,
0010
0001
0100
0000
0101
0000
0000
0000
,
1001
1001
0100
0000
1000
0100
1000
0001
,
0010
0000
0001
0100
0010
1000
0100
0001
,
0100
0000
1000
0100
1000
0000
0010
0000
0001
0000
0010
0000
1000
0000
0000
0000
,
0100
0010
0001
0000
0100
0010
1000
0000
,
0001
0100
0001
0000
0100
0000
0001
0000
1001
0000
0000
0001
1000
0000
0100
0000
,
0010
0001
0010
0000
0001
0000
0010
0000
0100
0000
0000
0000
0100
0000
0010
0000
,
0001
0000
1000
0001
1000
0001
0100
0010
,
1000
0010
1000
0001
1000
0001
0100
0001
,
0100
0010
1000
0100
1000
0010
0100
0010
,
1000
0100
0010
0001
0010
0000
0001
0000
,
1001
1001
0010
0001
0100
0001
1000
0000
,
1000
0000
1000
0000
1000
0000
0000
0001
,
0100
0100
0101
0001
,
1000
0100
1000
0100
1000
0100
1000
0100
,
1000
0000
0010
1000
0010
0000
0100
0000
,
0001
0010
0001
0000
0101
0000
0000
0000
,
1001
0000
0110
0000
1001
0000
0001
1000
,
0010
1000
0010
1000
0010
1000
0010
1000
,
0100
0010
0001
0100
0001
0000
0001
0100
,
0010
1000
0100
0000
1100
0000
0000
0000
,
1000
0000
0001
0010
0001
0100
0010
0000
,
1000
0100
0010
0001
0100
0001
0010
0000
,
0001
0100
0001
1000
0100
1000
0010
0000
,
0100
0010
1000
0100
0001
0100
1000
0200
,
0000
0000
1300
0000
1100
0000
1000
0001
,
0010
0000
0001
0010
0001
0000
0100
0000
0001
0000
1000
0000
0100
0000
0010
0000
,
0100
0000
0000
0000
1000
0000
0001
0000
1001
0000
0000
1000
0001
0000
0100
0000
,
0010
0100
0010
1000
0001
0000
0010
0000
,
0001
0000
0000
0000
0100
0000
0000
0000
0011
0000
0000
0000
0001
1000
0001
0000
,
1100
0000
1001
0001
,
0100
0001
1000
0001
1000
0010
0100
0010
,
1000
0000
0001
0100
0010
0000
0010
1000
,
0001
0100
0100
0001
1000
0000
0001
0000
,
1000
0000
0001
0000
1000
0001
0100
0010
,
0100
0000
0101
0000
,
0001
0000
0000
0000
1001
0000
0000
0001
,
1000
0100
0100
1000
0100
0000
0000
0000
,
1000
0100
1000
0000
1001
0000
0000
0000
,
0010
0000
0011
0000
,
0001
0000
0000
0000
1001
0000
0000
1000
,
0100
0010
0010
0001
0010
0000
0100
0000
,
1000
0100
1000
0000
1100
0000
0000
0000
,
1001
0000
1001
0000
0011
0000
0001
0100
,
0001
0000
1000
0001
1000
0000
0001
0000
0100
0000
0010
0000
1000
0000
0100
0000
,
0010
0000
0001
0010
0100
0000
1000
0100
,
1000
0000
0001
1000
0001
0000
0100
0000
0001
0000
1000
0000
1000
0000
1000
0000
,
0010
0100
0010
1000
0100
0000
1000
0001
,
0100
0000
0001
0100
0001
0000
0010
0000
0001
0000
0100
0000
0010
0000
1000
0000
,
0100
0000
1000
0001
0100
0000
0100
0001
,
1000
0000
0010
1000
0010
0000
0100
0000
0010
0000
0000
0000
0000
0000
0000
0000
;

//---------------dance-single - aurae----------------
#NOTES:
     dance-single:
     aurae:
     Medium:
     7:
     0.446,0.492,0.134,0.010,0.021: // measure 1
0000
0000
0000
0000
,  // measure 2
0000
0000
0000
0000
,  // measure 3
0000
0000
0000
0000
,  // measure 4
0000
0000
0000
0000
,  // measure 5
0000
0000
0000
0000
,  // measure 6
0000
0000
0000
0000
,  // measure 7
0000
0000
0000
0000
,  // measure 8
0000
0000
0000
0000
,  // measure 9
0010
0001
0010
0000
0001
1000
0001
1000
,  // measure 10
0100
1000
0100
0000
1000
0001
1000
0000
,  // measure 11
0010
0100
0001
0000
0100
0010
1000
0010
,  // measure 12
0100
0000
0001
0100
0001
1000
0100
1000
,  // measure 13
0010
0100
0010
1000
0100
0000
1000
0000
,  // measure 14
1001
0001
1001
0000
,  // measure 15
0001
0001
0100
0000
0100
0010
1000
0100
,  // measure 16
0010
0001
0010
0000
0001
1000
0001
1000
,  // measure 17
0100
1000
0100
0000
1000
0010
0100
0000
,  // measure 18
0010
1000
0001
1000
0010
0000
0100
0010
,  // measure 19
1000
1000
1100
1000
,  // measure 20
1000
1000
1200
0000
,  // measure 21
0310
0001
0101
0001
,  // measure 22
1000
0000
0001
0000
0001
1000
0001
0010
,  // measure 23
0100
1000
0001
1000
,  // measure 24
0010
1000
0001
0100
0001
0000
0000
0000
,  // measure 25
1000
1000
0010
0000
0100
0010
1000
0000
,  // measure 26
0001
0000
1000
0000
0001
1000
0001
1000
,  // measure 27
0001
0000
0010
0000
,  // measure 28
0001
0000
0100
0001
0100
0000
0001
0000
,  // measure 29
1000
0100
1000
0000
0010
0000
1000
0001
,  // measure 30
1000
0000
0000
0001
0000
0000
1000
0000
0001
0000
0000
0000
0000
0000
0000
0000
,  // measure 31
0101
0000
0001
0000
1001
0000
1000
0010
,  // measure 32
0100
0000
0100
0010
1000
0000
0100
1000
,  // measure 33
0001
0000
0001
0100
0001
0000
1000
0100
,  // measure 34
1000
0000
0000
0010
0000
0000
0100
0000
0010
0000
0000
0000
0000
0000
0000
0000
,  // measure 35
1000
0000
0010
1000
0010
0000
1000
0001
,  // measure 36
0100
0001
1000
0000
0001
0100
0001
0100
,  // measure 37
0001
0000
0010
0001
1000
0000
0100
1000
,  // measure 38
0010
0100
0010
1000
0100
0000
1000
0100
,  // measure 39
0010
0001
0100
1000
,  // measure 40
0001
0000
0010
0000
1000
0000
0100
0010
,  // measure 41
0001
0010
0011
0001
,  // measure 42
0100
0000
0001
0000
1001
0000
1000
0001
,  // measure 43
1000
0000
0100
0000
1000
0001
0010
0000
,  // measure 44
0011
0000
1001
0100
,  // measure 45
0001
0000
1000
0000
0010
1000
0100
1000
,  // measure 46
0001
0000
0010
0000
0001
0000
0100
0001
,  // measure 47
0100
0001
1000
0000
,  // measure 48
0100
1000
0100
0000
0100
1000
0001
1000
,  // measure 49
0001
0010
0100
1000
,  // measure 50
0001
0000
0100
0000
0010
0000
1000
0001
,  // measure 51
1000
0100
0010
0001
,  // measure 52
1000
0010
1000
0000
1010
0000
0000
0000
,  // measure 53
1000
0010
0100
0001
,  // measure 54
0010
0000
0100
0000
1000
0000
0001
1000
,  // measure 55
0001
0000
0100
0000
0010
0000
1000
0001
,  // measure 56
1000
0001
1000
0000
1001
0000
0000
0000
,  // measure 57
0001
0010
0001
0100
,  // measure 58
0001
0010
0001
0010
0001
0000
1000
0000
,  // measure 59
0001
0000
1000
0001
1000
0000
0010
0000
,  // measure 60
1000
0000
0000
0100
0000
0000
1000
0000
0001
0000
0000
0000
0000
0000
0000
0000
,  // measure 61
0100
0001
1000
0001
,  // measure 62
0100
0001
1000
0001
0100
0001
1000
0001
,  // measure 63
1000
0000
0001
1000
0100
0000
0010
0001
,  // measure 64
1000
0000
0000
0001
0000
0000
1000
0000
0001
0000
0000
0000
0000
0000
0000
0000
;

//---------------dance-single - aurae----------------
#NOTES:
     dance-single:
     aurae:
     Easy:
     4:
     0.230,0.295,0.093,0.041,0.000: // measure 1
0000
0000
0000
0000
,  // measure 2
0000
0000
0000
0000
,  // measure 3
0000
0000
0000
0000
,  // measure 4
0000
0000
0000
0000
,  // measure 5
0000
0000
0000
0000
,  // measure 6
0000
0000
0000
0000
,  // measure 7
0001
0000
1000
0000
,  // measure 8
0001
0000
2000
3000
,  // measure 9
1000
0000
0100
0000
,  // measure 10
1000
0000
0100
0000
,  // measure 11
1000
0000
0001
0000
,  // measure 12
0010
0000
0001
0000
,  // measure 13
0010
0000
0001
0000
,  // measure 14
1000
0000
0001
0000
,  // measure 15
0010
0010
0010
0000
,  // measure 16
0001
0000
0100
0000
,  // measure 17
0001
0000
1000
0000
,  // measure 18
0001
0000
1000
0000
,  // measure 19
0100
0010
0010
0100
,  // measure 20
0100
1000
1000
0000
,  // measure 21
0001
0100
0100
0001
,  // measure 22
0001
1000
0001
0000
,  // measure 23
1000
0000
1001
0000
,  // measure 24
1000
0001
0100
0000
,  // measure 25
0010
0010
1000
0001
,  // measure 26
0001
0000
0000
0000
,  // measure 27
0100
0000
0100
0000
,  // measure 28
0001
0000
0001
0000
,  // measure 29
1000
1000
1000
0001
,  // measure 30
1000
0000
0000
0000
,  // measure 31
0001
0000
0001
0010
,  // measure 32
0001
0000
0010
0100
,  // measure 33
0010
0000
0100
1000
,  // measure 34
0100
1000
1001
0000
,  // measure 35
0001
0000
0001
0000
,  // measure 36
0010
0000
0010
0000
,  // measure 37
0001
0000
0100
0000
,  // measure 38
0010
0000
2000
0000
,  // measure 39
3000
0000
0001
0000
,  // measure 40
0100
0000
0001
1000
,  // measure 41
0001
0000
0100
0000
,  // measure 42
0001
0000
1000
0000
,  // measure 43
0200
0000
0300
0000
,  // measure 44
0200
0000
0300
0000
,  // measure 45
1000
0001
1000
1000
,  // measure 46
0001
1000
0001
0001
,  // measure 47
0010
0000
0100
0000
,  // measure 48
1000
0100
1000
0000
,  // measure 49
0001
0000
0011
0000
,  // measure 50
0001
0000
0011
0000
,  // measure 51
0001
0000
0011
0000
,  // measure 52
0001
0000
0000
0000
,  // measure 53
1000
0000
1100
0000
,  // measure 54
1000
0000
1100
0000
,  // measure 55
1000
0000
1100
0000
,  // measure 56
1000
0000
0000
0000
,  // measure 57
0001
0001
0001
0100
,  // measure 58
0100
0001
0001
1000
,  // measure 59
1000
0010
0010
0000
,  // measure 60
1000
0010
1000
0000
,  // measure 61
0010
0010
0010
0100
,  // measure 62
0010
0000
0100
0001
,  // measure 63
0100
0001
0001
1000
,  // measure 64
1000
0001
1001
0000
;
