#TITLE:GUMBLAR;
#SUBTITLE:(umio remix);
#ARTIST:fazerock;
#TITLETRANSLIT:;
#SUBTITLETRANSLIT:;
#ARTISTTRANSLIT:;
#CREDIT:aurae;
#BANNER:gumblarremix.png;
#BACKGROUND:gumblarremix-bg.png;
#LYRICSPATH:;
#CDTITLE:!auraelogo_new.png;
#MUSIC:gumblarremix.mp3;
#OFFSET:-0.041;
#SAMPLESTART:34.754;
#SAMPLELENGTH:16.820;
#SELECTABLE:YES;
#DISPLAYBPM:228.000;
#BPMS:0.000=228.000,316.000=128.000,322.000=79.000,323.500=114.000,340.000=228.000;
#STOPS:340.000=0.270
;
#BGCHANGES:;

//---------------dance-single - ----------------
#NOTES:
     dance-single:
     :
     Hard:
     11:
     0.857,1.000,0.603,0.207,0.254:
0000
0000
0000
0000
,
0000
0000
0000
0000
,
0000
0000
0000
0000
,
0000
0000
0000
0000
,
0000
0000
0000
0000
,
0000
0000
0000
0000
,
0000
0000
0000
0000
,
0000
0000
0000
0000
,
0000
0000
0000
0000
,
0001
0000
1000
0100
0000
0100
1000
0000
,
0100
0010
0001
0000
0100
0000
0001
0000
,
1000
0000
0010
0100
0000
0100
0010
0000
,
1000
0100
1000
0000
0001
0000
0010
0001
,
0010
0000
0001
0100
0000
0100
0001
0000
,
1000
0100
1000
0010
0100
0010
1000
0100
,
0010
0000
0000
0000
,
0000
0000
0000
0000
,
0100
1000
0100
1000
0100
1000
0100
1000
,
0001
0000
0100
0000
0001
0010
0001
0010
0001
0010
0001
0010
0002
0000
0000
0000
,
1003
0001
0100
0001
0101
0000
1001
0000
,
1000
0010
1000
0001
0100
0001
0020
0000
,
0130
0000
1100
0100
1000
0001
0100
0001
,
1000
0000
0100
0000
1000
0000
0001
0100
0001
0000
0010
0000
0100
0000
0010
0000
,
0001
0000
0100
0000
0001
0000
1000
0000
0001
1000
0001
1000
0001
0000
0100
0000
,
0010
0000
0100
0001
1000
0100
1000
0001
,
0020
0030
0011
0001
,
1000
0001
0100
0001
1000
0010
0200
0000
,
0301
0100
1000
0100
0010
0001
0010
1000
,
0100
0010
0001
1000
0001
0100
0102
0000
,
1003
0000
0001
0010
0000
0010
0001
0100
,
0010
0100
0100
0001
1000
0100
1000
0001
,
0100
0000
0000
0000
,
0001
1000
0001
0000
1001
0000
0110
0000
,
1001
0101
2001
3100
,
1000
0000
0001
0000
1000
0100
1000
0100
1000
0000
0100
0000
0010
0000
0010
0000
,
0001
0011
0101
0000
,
1001
0000
1001
0000
0110
0000
0100
0010
,
0100
0000
0101
0001
1000
0000
1010
0010
,
0100
0000
0101
0001
1000
0000
1001
0001
,
0010
0000
0100
0010
0001
1000
0010
0000
,
0010
0000
1000
0000
0001
0100
0001
0100
0010
0000
1000
0010
2000
0000
0000
0000
,
3010
1000
0001
1000
0110
0000
0100
0000
,
1001
1000
1100
1001
1100
1001
1100
1001
,
0101
0000
0000
0000
1001
0000
0001
0000
0010
0000
0100
0010
0100
0000
0010
0001
,
0010
0000
0001
0000
1000
0000
0100
1000
0100
1000
0100
0000
1000
0000
0001
0000
,
0100
0000
0000
0000
0101
0000
0000
0000
1001
0000
0001
0000
0100
0001
0100
0001
,
0010
0001
1001
0000
0010
0000
0200
0000
,
0310
0100
1001
0100
,
0101
0010
1100
0010
,
1001
0000
0000
0000
,
0000
0000
0000
0000
,
1001
0000
0000
0000
0010
0000
0001
0010
0001
0000
0000
0000
1000
0000
0100
1000
,
0100
0001
0200
0000
1000
0000
1300
0100
,
0010
0000
0011
0000
0001
0100
0010
1000
,
0100
1000
0001
0000
0100
0000
0001
0000
0101
0000
0000
0000
1001
0000
0001
0000
,
2000
3001
1020
0230
,
0301
0100
0001
1000
0100
1000
0010
0100
,
0010
1000
0010
0000
1000
0001
1000
0000
0001
0000
0010
0000
0001
0000
0100
0000
,
0001
1000
0001
1000
0001
1000
0001
0000
1000
0000
0100
0000
0010
0000
0000
0000
,
0011
0000
0001
0000
1000
1000
0010
0000
,
0100
0001
1000
0100
1000
0010
0200
0000
,
0301
0100
0001
0100
0101
0010
0100
1000
,
0100
0000
0010
0010
1000
1000
0001
0000
,
0202
0000
0000
0000
0303
0000
0000
0000
0001
1000
0001
1000
0100
0000
0000
0000
,
0010
0001
0010
0001
1000
0100
0000
1000
,
0100
0000
1000
0000
1001
0000
0001
0010
0001
0000
0100
0000
0010
0000
0100
0000
,
0001
0000
1000
0000
1100
0000
0000
0100
1000
0000
0001
0000
0101
0000
0000
0000
,
1001
0000
0110
0010
1000
0100
1000
0001
,
0100
0001
0010
0001
1000
0100
1000
0010
,
0101
0000
0100
0010
1000
0100
1000
0001
,
0010
0001
0100
0010
1000
0100
1000
0001
,
0010
0000
0000
0000
0001
0000
0100
0000
0001
1000
0001
1000
0001
0000
0100
0000
,
0010
1000
0100
1000
0100
1000
0002
0000
,
0013
0000
0000
0000
0001
0100
0001
0000
0100
0000
0001
0000
1000
0000
0000
0000
,
0010
1000
0001
0100
1001
0000
0000
0000
,
0100
0000
0100
0000
,
0100
0000
0100
0000
,
0100
0001
0100
0001
0100
0001
0100
0001
,
2000
0000
3002
1003
,
1000
0001
0100
0001
1000
0010
0100
0010
,
1000
0001
1000
0001
1000
0000
0001
0010
0001
0000
0000
0000
0000
0000
0011
0000
,
1001
0000
0000
0000
0011
0000
0001
0000
0100
0000
0001
0000
1000
0001
1000
0000
,
0001
0000
0000
0000
0010
0000
0000
0000
0001
0000
0100
0000
0001
0000
1000
0000
0100
1000
0100
1000
0100
0000
0010
0000
0001
0000
0000
0000
0100
0000
0000
0000
,
0202
0000
0000
0000
0303
0000
0001
0000
2000
0000
0000
0000
3010
0000
0100
0001
,
0010
0000
0001
0000
1000
0001
1000
0001
1000
0100
0010
0001
0100
0001
0010
0000
,
0110
0000
0100
1000
0100
1000
0100
1000
,
0100
1000
0100
1000
0001
0000
0010
0000
,
0011
0000
0000
0000
1001
0000
0001
1000
0001
0000
0010
0000
0001
0000
0100
0000
,
0010
1000
0100
1000
1000
0001
0200
0000
,
0000
0000
0000
0000
0301
0100
0001
0100
0001
0000
0000
0000
2000
0000
0000
0000
,
3000
1100
1001
0101
,
0101
0000
0011
0000
0011
0000
0001
1000
,
0001
1000
0001
1000
0200
0000
0310
0000
,
0000
0000
0011
0000
1001
0000
0100
0001
,
0011
0000
0000
0000
1000
0001
1000
0000
1100
0000
0000
0000
0100
0000
0010
0000
,
0001
0000
0010
0000
0100
0000
1000
0000
0001
0000
0100
0000
0010
1000
0100
1000
,
0100
1000
0001
0100
0001
0010
0001
0000
,
0101
0000
0000
0000
0010
1000
0010
1000
0100
0000
1000
0000
0001
0000
1000
0000
,
0001
0100
0010
0100
0010
0000
1000
0000
,
0001
0010
0001
0010
0100
0000
1000
0000
0010
0000
0000
0000
1000
0000
0010
0000
,
0100
0001
1000
0001
0100
0000
1001
0000
;

//---------------dance-single - aurae----------------
#NOTES:
     dance-single:
     aurae:
     Medium:
     8:
     0.586,0.651,0.353,0.172,0.000: // measure 1
0000
0000
0000
0000
,  // measure 2
0000
0000
0000
0000
,  // measure 3
0000
0000
0000
0000
,  // measure 4
0000
0000
0000
0000
,  // measure 5
0000
0000
0000
0000
,  // measure 6
0000
0000
0000
0000
,  // measure 7
0000
0000
0000
0000
,  // measure 8
0000
0000
0000
0000
,  // measure 9
0000
0000
0000
0000
,  // measure 10
0001
1000
0100
1000
,  // measure 11
0100
0010
0001
0000
,  // measure 12
0001
0001
0010
0001
,  // measure 13
0001
0100
0010
0000
,  // measure 14
1000
0001
0100
0001
,  // measure 15
1000
0010
0100
0100
,  // measure 16
0010
0000
0000
0000
,  // measure 17
0000
0000
0000
0000
,  // measure 18
1010
1010
1010
1010
,  // measure 19
1100
0000
0000
0000
1000
0100
1000
0000
,  // measure 20
1001
0001
0010
0010
,  // measure 21
0001
0000
0100
0000
0001
1000
0001
0000
,  // measure 22
0100
0000
0001
1000
0010
0000
0100
0000
,  // measure 23
0001
0010
0001
0100
0010
1000
0100
0000
,  // measure 24
1000
0000
0000
0100
0000
0000
0010
0001
,  // measure 25
0100
0000
0000
0010
0000
0000
1000
0000
,  // measure 26
2200
3300
1001
0110
,  // measure 27
1001
0000
0010
0001
0010
0001
0100
0000
,  // measure 28
0001
0000
1000
0000
0010
1000
0010
0100
,  // measure 29
0010
1000
0100
1000
0001
0100
0001
0000
,  // measure 30
0010
0000
0100
1000
0001
1000
0001
0100
,  // measure 31
0001
1000
0001
0000
0100
0001
0010
0000
,  // measure 32
0200
0000
1300
0000
,  // measure 33
0002
0000
1003
1000
,  // measure 34
0011
0011
0022
0033
,  // measure 35
1001
0000
0001
0100
0001
1000
0100
0000
,  // measure 36
0010
0000
0001
0000
1000
0100
1000
0100
,  // measure 37
2000
0000
0000
3000
,  // measure 38
0100
0010
0001
0010
0100
0010
0001
0010
,  // measure 39
0100
0000
1000
0000
0001
0100
0010
1000
,  // measure 40
0010
0100
0001
0100
0010
1000
0010
0100
,  // measure 41
0001
1000
0101
1001
,  // measure 42
1100
1100
1001
0000
,  // measure 43
0001
0100
0001
0010
0001
0100
0010
1000
,  // measure 44
0100
0000
1000
0001
1000
0000
0001
0000
,  // measure 45
0100
0010
1000
0001
,  // measure 46
0011
0110
1100
1010
,  // measure 47
1001
0000
0001
0000
0100
0000
0001
1000
,  // measure 48
0010
2000
3010
2000
,  // measure 49
3001
2000
3100
2000
,  // measure 50
3001
0000
0000
0000
,  // measure 51
0000
0000
0000
0000
,  // measure 52
0010
0000
0101
0000
0001
1000
0001
1000
,  // measure 53
0001
0000
1100
0000
1000
0010
0100
0000
,  // measure 54
0010
0000
1000
0000
0001
0100
0001
0100
,  // measure 55
0001
0000
1000
0000
0100
1000
0001
0000
,  // measure 56
1001
0000
0000
0000
1000
0001
1000
0001
,  // measure 57
1000
0100
0010
0000
0001
0010
0001
0010
,  // measure 58
0100
0000
1000
0000
0001
1000
0001
0000
,  // measure 59
0100
0000
0001
0000
1000
0001
0010
0000
,  // measure 60
0200
0000
0000
0000
1300
0100
1000
0000
,  // measure 61
0001
0100
0001
0000
0100
0000
0001
0000
,  // measure 62
1000
0000
1001
0000
0101
0000
0010
0100
,  // measure 63
1000
0000
0010
0001
0010
1000
0010
0000
,  // measure 64
0200
0000
0301
0101
,  // measure 65
1000
0001
1000
0001
1000
0001
1000
0000
,  // measure 66
0100
0010
0001
0010
,  // measure 67
0100
1000
0001
0100
,  // measure 68
0001
0000
1000
0100
0000
0100
1000
0000
,  // measure 69
0001
0100
0001
0000
0010
0001
0010
0000
,  // measure 70
0100
0000
1000
0001
0000
1000
0001
0000
,  // measure 71
0100
0001
0100
0001
0100
0000
0000
0000
,  // measure 72
0001
0000
1000
0001
0000
0001
1000
0000
,  // measure 73
0010
0100
0010
0000
1000
0100
1000
0100
,  // measure 74
1000
0000
0001
1000
0100
1000
0001
0000
,  // measure 75
0010
0100
1000
0100
1000
0000
0001
0000
,  // measure 76
1001
0000
0000
0000
,  // measure 77
0000
0000
0000
0000
,  // measure 78
0000
0000
0000
0000
,  // measure 79
0000
0000
0000
0000
,  // measure 80
0002
0000
2003
0000
3001
0001
0100
0000
,  // measure 81
0001
0010
0110
0000
,  // measure 82
1001
0000
1000
1000
0100
0000
0010
0001
,  // measure 83
0100
0000
0001
0000
1000
0001
1000
0000
,  // measure 84
0001
0000
0100
0100
0001
0000
0010
0001
,  // measure 85
1000
0000
0100
0000
1000
0001
1000
0001
,  // measure 86
1000
0001
1000
0001
,  // measure 87
1000
0001
1000
0010
,  // measure 88
0110
0100
0001
1000
,  // measure 89
1000
0001
1000
0001
0010
0000
2200
0000
,  // measure 90
3300
0000
1000
0001
0100
0000
0002
0000
,  // measure 91
0000
1003
0001
0100
,  // measure 92
0100
0000
1000
0000
0100
0000
0001
0100
,  // measure 93
1000
0100
0001
0100
0001
0000
2002
0000
,  // measure 94
3003
0001
0010
0001
,  // measure 95
1000
0000
0100
1000
0100
1000
0100
0000
,  // measure 96
0010
0000
0011
0000
0001
0000
1000
0001
,  // measure 97
1000
0101
0101
1001
,  // measure 98
1000
0010
0000
1000
0010
0000
0100
0001
,  // measure 99
0100
0000
0001
0000
1000
0001
1000
0000
,  // measure 100
0001
0010
0001
0010
0001
0000
1000
0010
,  // measure 101
0001
0010
1000
0000
0100
0000
1001
0000
;

//---------------dance-single - aurae----------------
#NOTES:
     dance-single:
     aurae:
     Easy:
     5:
     0.364,0.434,0.147,0.000,0.000:
0000
0000
0000
0000
,
0000
0000
0000
0000
,
0000
0000
0000
0000
,
0000
0000
0000
0000
,
0000
0000
0000
0000
,
0000
0000
0000
0000
,
0000
0000
0000
0000
,
0000
0000
0000
0000
,
0000
0000
0000
0000
,
0001
0000
0001
0000
,
0001
0000
0001
0000
,
1000
0000
1000
0000
,
1000
0000
1000
0000
,
0001
0000
0001
0000
,
0001
0000
1000
0000
,
1001
0000
0000
0000
,
0000
0000
0000
0000
,
0010
0010
0010
0010
,
0001
0000
0000
0000
,
1000
0000
0100
1000
,
0100
0000
1000
0001
,
0100
0000
0100
0001
,
1000
0000
1000
0001
,
0010
0000
0010
0001
,
1000
0100
1000
0001
,
1000
0000
0100
0000
,
1000
0001
1000
0001
,
0100
0000
0001
0100
,
0001
0100
0001
0100
,
0001
0000
1000
0001
,
0100
0001
0100
0100
,
0001
0100
0001
0100
,
0001
0000
1001
0000
,
1001
0001
0001
0000
,
1000
1000
0100
1000
,
0010
0010
0010
1000
,
0100
0000
0000
0000
,
1001
1001
1001
1001
,
0100
0001
1000
0001
,
0100
0100
0001
0001
,
1000
0001
1000
0000
,
0100
0100
0100
1000
,
0010
0010
0100
0010
,
1000
0100
0100
1000
,
0001
0100
0100
0001
,
0010
0000
0010
0001
,
0100
0001
1000
0100
,
1100
0000
1001
0000
,
0101
0000
1001
0000
,
1100
0000
0000
0000
,
0000
0000
0000
0000
,
1000
0010
0100
0010
,
1000
0100
1000
0001
,
0100
0100
0001
0001
,
0100
0000
0001
0000
,
0010
0001
0010
0000
,
0001
0001
0010
0010
,
0001
1000
1000
0100
,
1000
0000
0001
0001
,
0001
0000
0100
0001
,
0100
0001
0001
1000
,
0100
0000
0010
0001
,
0010
0010
0010
0010
,
0001
1000
1000
0100
,
1000
0001
0100
0100
,
0001
0000
1001
0000
,
1100
0000
1001
0000
,
0001
0000
0100
0100
,
0001
1000
0001
1000
,
0100
0000
1000
0100
,
1000
0001
0010
0100
,
1000
0000
1000
0010
,
0001
0010
1000
0010
,
0001
0000
0010
1000
,
0100
0000
1000
0001
,
0100
0000
0000
0000
,
0000
0000
0000
0000
,
0000
0000
0000
0000
,
0000
0000
0000
0000
,
0010
1000
0100
1000
,
0001
0100
0001
0000
,
0001
1000
1000
0001
,
0010
0000
0010
0000
0001
0100
0001
0000
,
0001
0001
1000
1000
,
0100
0000
1000
0000
0001
0000
0100
0001
,
1000
0000
0000
0000
,
0000
0000
0000
1000
,
1000
1000
1000
0001
,
0100
0001
0010
0001
,
0000
0001
0100
0100
,
0010
1000
0100
1000
,
1000
0001
0001
1000
,
0001
1000
0001
0100
,
0000
0101
0001
1000
,
0001
0010
0010
0001
,
0010
0010
0001
1000
,
0100
1000
0000
0001
,
0100
0100
0001
0010
,
0100
1000
0001
0100
,
0000
0010
1000
0100
,
0001
0100
1000
1001
;
