#TITLE:CLOUDLIGHT;
#SUBTITLE:;
#ARTIST:ESKMO;
#TITLETRANSLIT:;
#SUBTITLETRANSLIT:;
#ARTISTTRANSLIT:;
#CREDIT:aurae;
#BANNER:cloudlight.png;
#BACKGROUND:cloudlight-bg.png;
#LYRICSPATH:;
#CDTITLE:!auraelogo_new.png;
#MUSIC:cloudlight.mp3;
#OFFSET:-0.053;
#SAMPLESTART:20.580;
#SAMPLELENGTH:20.580;
#SELECTABLE:YES;
#DISPLAYBPM:140.000;
#BPMS:0.000=140.000;
#STOPS:;
#BGCHANGES:0.000=cloudlight.avi=1.000=1=0=0,
274.000=cloudlight-bg.png=1.000=0=0=1,
99999=-nosongbg-=1.000=0=0=0 // don't automatically add -songbackground-
;

//---------------dance-single - aurae----------------
#NOTES:
     dance-single:
     aurae:
     Hard:
     7:
     0.386,0.431,0.254,0.262,0.275: // measure 1
0000
0000
0000
0000
,  // measure 2
0000
0000
0000
0000
,  // measure 3
0000
0000
0000
0000
,  // measure 4
0000
0000
0000
0000
,  // measure 5
1100
0000
0000
0000
0100
0000
0000
1000
0010
0000
0000
0000
0100
0000
0000
0000
,  // measure 6
0002
0000
0023
0000
,  // measure 7
0032
0000
1000
0000
,  // measure 8
1003
0000
0000
0000
0001
0000
0000
0100
0010
0000
0000
0000
0001
0000
0000
0000
,  // measure 9
0020
0000
0000
0000
0030
0000
0000
0100
0001
0000
0000
0000
1000
0000
0000
0000
,  // measure 10
0200
0000
2300
0000
,  // measure 11
3002
0000
0010
0000
,  // measure 12
0013
0000
0000
0000
0001
0000
0000
1000
0100
0000
0000
0000
0000
0000
0000
0000
,  // measure 13
1100
0000
0000
0000
1000
0000
0000
0001
0100
0000
0000
0000
0000
0000
0000
0000
,  // measure 14
0001
0100
1000
0010
,  // measure 15
0001
0000
0010
0000
0010
0000
0100
0000
1000
0000
1000
0000
,  // measure 16
0001
0000
0000
0000
0000
0000
0000
0000
0100
0000
0000
0000
0000
0000
0000
0000
0010
0000
0000
0000
0000
0000
0000
0000
0100
0000
0000
0000
0000
0000
0000
0000
0000
0000
0000
0000
0001
0000
0000
0000
0000
0000
0000
0000
0000
1000
0000
0000
,  // measure 17
0200
0000
0000
0000
0300
0000
0000
0100
0010
0000
0000
0000
0001
0000
0000
0000
,  // measure 18
0020
0000
0130
0000
,  // measure 19
0011
0001
1001
0001
,  // measure 20
0101
0000
0000
0000
0000
0000
0000
0000
0000
0000
0000
0000
0100
0000
0000
0000
0000
0000
0000
0000
0000
0001
0000
0000
0020
0000
0000
0000
0000
0000
0000
0000
0000
0000
0000
0000
0031
0000
0000
0000
0000
0000
0000
0000
1000
0000
0000
0000
,  // measure 21
0010
0200
0001
0010
,  // measure 22
0300
0000
0000
0000
0010
0000
0000
1000
0100
0000
0000
0000
0100
0000
0000
0000
,  // measure 23
1000
0000
0010
0000
0001
0000
1000
0000
0100
0000
0001
0000
,  // measure 24
1000
0000
0010
0000
0001
0000
0010
0000
0100
0001
0000
1000
,  // measure 25
0100
0020
0001
0100
,  // measure 26
0030
0000
0000
0000
0100
0000
0000
1000
0001
0000
0000
0000
0010
0000
0000
0000
,  // measure 27
0001
0000
0100
0000
1000
0000
0001
0000
0010
0000
1000
0000
,  // measure 28
0001
0000
0100
0000
1000
0000
0100
0000
0001
1000
0000
0100
,  // measure 29
0010
0002
0100
0010
,  // measure 30
0003
0001
1100
0001
,  // measure 31
1000
0000
0010
0000
0100
0000
0001
0000
0010
0000
1000
0000
,  // measure 32
0001
0000
0100
0000
0010
0000
0001
0000
1000
0010
0000
0100
,  // measure 33
0001
2000
0001
0100
,  // measure 34
3000
1000
0011
1000
,  // measure 35
0001
0000
0100
0000
0010
0000
0001
0000
0010
0000
1000
0000
,  // measure 36
0100
0000
0001
0000
1000
0000
0010
0000
0100
1000
0000
0001
,  // measure 37
0100
0002
1000
1000
,  // measure 38
1003
0000
0000
0001
0000
0000
0101
0000
0000
0001
0000
1000
,  // measure 39
0100
0020
0001
0001
,  // measure 40
0031
0000
0000
0010
0000
0000
1100
0000
0000
1000
0000
0001
,  // measure 41
0010
0200
0010
0010
,  // measure 42
0310
0000
0000
0100
0000
0000
1100
0000
0000
1000
0000
0001
,  // measure 43
0100
0010
1010
0010
,  // measure 44
0110
0100
0101
1001
,  // measure 45
2020
0000
0000
0000
3000
0000
0030
1000
0010
0000
0000
0000
0000
0000
0000
0000
,  // measure 46
0000
0000
0000
0000
,  // measure 47
1001
0001
0011
0010
,  // measure 48
0110
0100
1100
1000
,  // measure 49
1001
0000
0000
0000
0010
0000
0000
0100
0001
0000
0000
0000
2000
0000
0000
0000
,  // measure 50
3020
0000
0000
0100
0000
0000
0130
0000
0010
0000
1000
0000
,  // measure 51
0010
0100
0101
0001
,  // measure 52
1001
0000
0000
0000
1010
0000
0000
0100
0010
0000
0000
0000
0101
0000
0000
0000
,  // measure 53
2002
0000
0000
0000
3003
0000
0000
0020
0200
0000
0000
0000
0330
0000
0000
0000
,  // measure 54
0010
0000
0001
0000
0010
0000
0100
0000
0000
0000
0000
0000
,  // measure 55
1100
1000
1001
1000
,  // measure 56
1010
0000
0000
0000
0010
0000
0000
0100
0001
0000
0000
0000
1000
0000
0000
0000
,  // measure 57
0001
0000
0000
0000
1000
0000
0000
0001
0100
0000
0000
0000
0000
0000
0000
0000
,  // measure 58
0010
1000
1010
0100
,  // measure 59
0001
0100
0101
0001
,  // measure 60
1000
0000
0000
0000
0100
0000
0000
1000
0001
0000
0000
0000
0000
0000
0000
0000
,  // measure 61
0010
0000
0000
0000
0000
0000
0000
0000
0000
0000
0000
0000
0100
0000
0000
0000
0000
0000
0000
0000
0000
1000
0000
0000
0001
0000
0000
0000
0000
0000
0000
0000
0010
0000
0000
0000
0100
0000
0000
0000
0000
0000
0000
0000
0000
0000
0000
0000
,  // measure 62
2000
0001
0001
3001
,  // measure 63
0200
0010
0320
1000
,  // measure 64
2030
0001
3002
0003
,  // measure 65
0200
0000
0000
0000
,  // measure 66
0000
0000
0000
0000
,  // measure 67
0000
0000
0000
0000
,  // measure 68
0000
0000
0000
0000
,  // measure 69
0300
0000
0000
0000
;

//---------------dance-single - aurae----------------
#NOTES:
     dance-single:
     aurae:
     Medium:
     4:
     0.318,0.460,0.211,0.304,0.059: // measure 1
0000
0000
0000
0000
,  // measure 2
0000
0000
0000
0000
,  // measure 3
0000
0000
0000
0000
,  // measure 4
0000
0000
0000
0000
,  // measure 5
0011
0001
0001
0000
,  // measure 6
2000
3000
0200
0000
,  // measure 7
0010
0000
0310
0000
,  // measure 8
0010
0001
1001
0000
,  // measure 9
1100
1000
1000
0000
,  // measure 10
0020
0030
0200
0000
,  // measure 11
0001
0000
0301
0000
,  // measure 12
0001
0100
0011
0000
,  // measure 13
0100
1000
0001
0000
,  // measure 14
0001
0100
0001
0001
,  // measure 15
1000
0010
1000
0100
,  // measure 16
1000
0001
1100
0000
,  // measure 17
0010
0001
0100
0100
,  // measure 18
0020
1000
1030
0000
,  // measure 19
0010
1000
0010
0001
,  // measure 20
0010
0000
0000
0100
0000
0000
0010
0000
0000
1000
0000
1000
,  // measure 21
0001
0100
0202
0300
,  // measure 22
0003
0001
0101
0100
,  // measure 23
0020
0000
2030
0000
,  // measure 24
3002
0000
0000
0000
0000
0000
0023
0000
0000
0130
0000
0100
,  // measure 25
1000
0001
2002
3000
,  // measure 26
0003
0001
1001
1000
,  // measure 27
0200
0000
2300
0000
,  // measure 28
3020
0000
0000
0000
0000
0000
0230
0000
0000
0310
0000
0010
,  // measure 29
1000
0100
2200
0300
,  // measure 30
3000
1000
1100
0100
,  // measure 31
0020
0000
0032
0000
,  // measure 32
0203
0000
0000
0000
0000
0000
0320
0000
0000
0031
0000
0001
,  // measure 33
0010
0001
0022
0003
,  // measure 34
0030
0010
0011
0001
,  // measure 35
2000
0000
3200
0000
,  // measure 36
0320
0000
0000
0000
0000
0000
0230
0000
0000
1300
0000
1000
,  // measure 37
0010
0010
1000
0001
,  // measure 38
0100
0000
0000
0001
0000
0000
0010
0000
0000
0100
0000
0100
,  // measure 39
1000
1000
0010
0100
,  // measure 40
0010
0000
1000
0000
0010
0000
0100
0000
0000
0001
0000
0001
,  // measure 41
1000
1000
0001
0100
,  // measure 42
0001
0000
0000
1000
0000
0000
0100
0000
0000
1000
0000
1000
,  // measure 43
0010
0110
0100
0110
,  // measure 44
1010
1001
0202
0303
,  // measure 45
1001
0100
1001
0000
,  // measure 46
0000
0000
0000
0000
,  // measure 47
1000
1000
0010
0010
,  // measure 48
0100
0000
0000
0100
0000
0000
0001
0000
0001
0100
0000
0000
,  // measure 49
0002
0000
1000
0003
,  // measure 50
0001
0000
0000
0010
0000
0010
0100
0000
1000
0000
0100
0000
,  // measure 51
0010
0001
0011
0010
,  // measure 52
0100
1000
1100
1000
,  // measure 53
2002
3003
0001
0100
,  // measure 54
0020
0000
0000
0030
,  // measure 55
1000
0010
1000
0001
,  // measure 56
0100
0010
1000
0100
,  // measure 57
0010
0000
0011
0001
,  // measure 58
0100
0000
0100
0010
,  // measure 59
1000
1000
0001
0100
,  // measure 60
0001
0001
1000
0100
,  // measure 61
1000
0000
1010
0010
,  // measure 62
0100
0000
0001
0100
,  // measure 63
0010
0010
1000
0001
,  // measure 64
0100
0010
1000
0100
,  // measure 65
0020
0000
0000
0000
,  // measure 66
0000
0000
0000
0000
,  // measure 67
0000
0000
0000
0000
,  // measure 68
0000
0000
0000
0000
,  // measure 69
0030
0000
0000
0000
;

//---------------dance-single - aurae----------------
#NOTES:
     dance-single:
     aurae:
     Easy:
     2:
     0.147,0.201,0.034,0.101,0.000: // measure 1
0000
0000
0000
0000
,  // measure 2
0000
0000
0000
0000
,  // measure 3
0000
0000
0000
0000
,  // measure 4
0000
0000
0000
0000
,  // measure 5
1000
0000
1000
0000
,  // measure 6
0200
0000
0000
0300
,  // measure 7
0100
0000
0100
0000
,  // measure 8
0100
0000
0000
0000
,  // measure 9
0001
0000
0001
0000
,  // measure 10
0200
0000
0000
0300
,  // measure 11
0100
0000
0100
0000
,  // measure 12
0100
0000
0000
0000
,  // measure 13
0010
0000
0010
0000
,  // measure 14
0010
0000
0000
0000
,  // measure 15
1000
0000
1000
0000
,  // measure 16
0001
0000
0001
0000
,  // measure 17
0100
0000
0100
0000
,  // measure 18
0100
0000
0000
0000
,  // measure 19
1000
0000
1000
0000
,  // measure 20
1000
0000
0001
0010
,  // measure 21
0010
0020
0000
0000
,  // measure 22
0030
0000
1000
0000
,  // measure 23
0010
0000
0010
0000
,  // measure 24
0010
0000
0010
1000
,  // measure 25
1000
2000
0000
0000
,  // measure 26
3000
0000
1000
0000
,  // measure 27
0001
0000
0001
0000
,  // measure 28
0001
0000
0001
0100
,  // measure 29
0100
0200
0000
0000
,  // measure 30
0300
0000
0100
0000
,  // measure 31
1000
0000
1000
0000
,  // measure 32
1000
0000
1000
0001
,  // measure 33
0001
0002
0000
0000
,  // measure 34
0003
0000
0001
0000
,  // measure 35
0100
0000
0100
0000
,  // measure 36
0100
0000
0100
0000
,  // measure 37
2000
0000
0001
0000
,  // measure 38
0001
0000
3001
0000
,  // measure 39
0002
0000
0100
0000
,  // measure 40
0100
0000
0103
0000
,  // measure 41
0200
0000
0010
0000
,  // measure 42
0010
0000
0310
0000
,  // measure 43
0020
0000
1000
0000
,  // measure 44
1030
0000
0010
0000
,  // measure 45
0110
0000
0000
0000
,  // measure 46
0000
0000
0000
0000
,  // measure 47
1001
0000
1001
0000
,  // measure 48
1001
0000
0000
0000
,  // measure 49
0100
0000
0001
0000
,  // measure 50
0001
0000
0001
0000
,  // measure 51
1000
0000
1000
0000
,  // measure 52
1000
0000
1000
0000
,  // measure 53
0020
0000
0030
0000
,  // measure 54
0000
0000
0000
0000
,  // measure 55
0100
0000
0100
0000
,  // measure 56
0100
0000
0001
0000
,  // measure 57
1000
0000
1000
0000
,  // measure 58
0001
0000
0000
0000
,  // measure 59
0001
0000
0001
0000
,  // measure 60
0010
0000
0010
0000
,  // measure 61
0100
0000
1000
0000
,  // measure 62
0100
0000
0000
0000
,  // measure 63
0010
0000
0001
0000
,  // measure 64
0010
0000
0100
0000
,  // measure 65
2000
0000
0000
0000
,  // measure 66
0000
0000
0000
0000
,  // measure 67
0000
0000
0000
0000
,  // measure 68
0000
0000
0000
0000
,  // measure 69
3000
0000
0000
0000
;
