#TITLE:Amenijad;
#SUBTITLE:;
#ARTIST:CARDOPUSHER & ROTATOR;
#TITLETRANSLIT:;
#SUBTITLETRANSLIT:;
#ARTISTTRANSLIT:;
#CREDIT:;
#BANNER:amenijad.png;
#BACKGROUND:amenijad-bg.png;
#LYRICSPATH:;
#CDTITLE:!auraelogo_new.png;
#MUSIC:amenijad.mp3;
#OFFSET:-0.030;
#SAMPLESTART:18.260;
#SAMPLELENGTH:13.720;
#SELECTABLE:YES;
#DISPLAYBPM:210.000;
#BPMS:0.000=210.000,344.000=203.789,347.000=179.086,348.000=168.224,349.000=171.640,350.000=166.123,351.000=148.852,352.000=141.173,353.000=142.128,354.000=132.618,355.000=119.577,356.000=117.163,357.000=107.178,358.000=101.395,359.000=111.214,360.000=103.428,361.000=105.532,362.000=105.000,363.000=100.410,364.000=85.311,365.000=70.000;
#STOPS:;
#BGCHANGES:;

//---------------dance-single - aurae----------------
#NOTES:
     dance-single:
     aurae:
     Easy:
     4:
     0.359,0.540,0.136,0.172,0.000:
0000
0000
0000
0000
,
0000
0000
0000
0000
,
0000
0000
0000
0000
,
0000
0000
0000
0000
,
0000
0000
0000
0000
,
0000
0000
0000
0000
,
0000
0000
0000
0000
,
0000
0000
0000
0000
,
1000
1000
0010
0100
,
0010
1000
0020
0000
,
1030
1000
0001
0100
,
0001
0100
0002
0000
,
1003
0001
0100
0001
,
2000
0000
3020
0000
,
1030
1000
0010
1000
,
0010
0000
0100
0100
,
0001
0100
0001
0100
,
0001
0001
1000
0000
,
1000
0001
1000
0010
,
1000
0000
0010
0000
,
1000
1000
0010
0010
,
1000
0100
2000
3000
,
0001
0001
0100
0001
,
0010
0000
0000
0001
0000
0000
0010
0000
,
0100
0010
0100
0000
,
0001
0100
0001
1000
,
1000
0010
1000
1000
,
0100
0000
0000
0010
0000
0000
0001
0000
,
1000
0001
0100
0100
,
0001
1000
0001
0000
,
1000
0010
1000
0010
,
0100
0000
0100
0000
,
1001
1001
0100
0000
,
1000
0001
1000
0001
,
0100
0001
0010
0001
,
0200
0300
0002
0003
,
0110
0110
0100
0000
,
0001
1000
0001
1000
,
0100
1000
0010
0100
,
0010
0000
0000
1000
0000
0000
0010
0000
,
2000
0000
0000
3000
0000
0000
0001
0000
,
1000
0000
0000
1000
0001
0000
0000
0000
,
0002
0000
0000
0003
0000
0000
0010
0000
,
0001
0001
0001
0001
,
1000
0000
0000
0010
0000
0010
1000
0000
,
0020
0000
0000
0000
,
0130
0010
0100
0000
,
0020
0000
0000
0000
,
1030
0000
1000
0000
,
0001
0000
0001
0000
,
0100
0000
0100
0000
,
1001
0000
0000
0000
,
0010
0000
0010
0000
,
1000
0000
1000
0000
,
0001
0000
0001
0000
,
0110
0000
0000
0000
,
0100
0100
0001
0000
,
0001
1000
0002
0000
,
1003
0010
0010
0000
,
1000
0100
2000
0000
,
3001
0000
1000
0000
,
0001
0000
0100
0100
,
0100
0000
0010
0000
,
2000
0000
3000
0000
,
0000
1001
0000
1001
,
0000
0110
0000
0110
,
0000
1001
0000
1001
,
1001
0000
0110
0000
,
1000
0001
1000
0001
,
1000
0000
0001
0100
,
0001
0100
0001
1000
,
0002
2003
3002
2003
,
3001
0100
0001
1000
,
0010
1000
0010
0000
,
1000
0100
1000
0001
,
0100
0000
0100
0000
,
0100
0100
0100
0000
,
0001
1000
0001
0000
,
1000
0100
0010
0001
,
1000
0010
0100
0000
,
0010
0010
0010
0000
,
1000
1000
1000
0000
,
0001
0100
0010
1000
,
0001
0010
0100
0000
,
1001
0000
0000
0000
,
0000
1000
0001
1000
,
0001
0000
1000
0000
,
0001
0000
0100
0001
,
0100
0000
0010
0000
,
1000
0010
1000
0100
,
1000
0000
0001
0100
,
0002
0000
0003
0000
;

//---------------dance-single - aurae----------------
#NOTES:
     dance-single:
     aurae:
     Medium:
     7:
     0.546,0.581,0.127,0.091,0.000: // measure 1
0000
0000
0000
0000
,  // measure 2
0000
0000
0000
0000
,  // measure 3
0000
0000
0000
0000
,  // measure 4
0000
0000
0000
0000
,  // measure 5
0000
0000
0000
0000
,  // measure 6
0000
0000
0000
0000
,  // measure 7
0000
0000
0000
0000
,  // measure 8
0000
0000
0000
0000
,  // measure 9
0001
0001
0100
0001
,  // measure 10
1000
0000
0100
0000
1000
0000
0010
1000
,  // measure 11
0010
1000
0100
1000
,  // measure 12
0001
0000
0100
0000
0001
1000
0001
1000
,  // measure 13
0001
0100
0001
1000
,  // measure 14
0100
0000
1000
0000
0010
1000
0010
1000
,  // measure 15
0100
1000
0010
1000
,  // measure 16
0001
0000
1001
0110
,  // measure 17
1001
1000
0010
1000
,  // measure 18
0100
1000
0002
0003
,  // measure 19
0100
0001
1000
0100
,  // measure 20
2000
3000
0020
0030
,  // measure 21
1000
0001
0001
0010
,  // measure 22
0001
0010
0100
0000
,  // measure 23
0010
0001
1000
0100
,  // measure 24
1000
0000
1000
0001
0000
0000
0001
0000
,  // measure 25
1000
1100
0100
1000
,  // measure 26
0100
0000
1000
0000
0001
0100
0001
0100
,  // measure 27
0001
0000
1000
0000
0001
0000
0100
0001
,  // measure 28
0100
0000
0010
1000
0000
0001
0100
0000
,  // measure 29
0001
1001
1000
0010
,  // measure 30
1000
0000
0100
0000
1000
0100
1000
0100
,  // measure 31
1000
0001
0010
0001
,  // measure 32
1100
0010
1001
0000
,  // measure 33
0100
0000
0001
0100
0001
0000
1000
0000
,  // measure 34
0100
1000
0010
1000
0100
0000
2000
3000
,  // measure 35
0001
0100
0001
1000
,  // measure 36
0100
1000
0010
1000
0100
0000
2000
0000
,  // measure 37
3001
0010
0001
0010
0001
0000
1000
0000
,  // measure 38
0010
0000
1000
0000
0010
0100
0010
0100
,  // measure 39
0010
0000
1000
0010
1000
0010
1000
0000
,  // measure 40
0001
0000
0001
0010
0000
0010
0001
0000
,  // measure 41
1000
0000
1000
0100
0000
0100
1000
0000
,  // measure 42
0010
1000
0010
0100
0010
0000
1000
0100
,  // measure 43
1000
0000
0001
0100
0000
0100
0001
0000
,  // measure 44
1000
0100
0010
0001
1000
0001
0100
0010
,  // measure 45
0100
0000
0001
0010
0000
0001
1000
0000
,  // measure 46
0001
0010
0001
0010
0100
0000
0010
0000
,  // measure 47
0001
1000
0001
0010
0000
0100
1000
0010
,  // measure 48
0200
0000
0000
0000
,  // measure 49
0301
0000
0100
0000
0100
0000
0001
0100
,  // measure 50
0001
0000
1000
0000
0010
0000
0000
0010
,  // measure 51
1000
0000
1000
0000
1000
0000
0100
1000
,  // measure 52
0100
0000
0000
0000
,  // measure 53
1000
0000
1000
0000
0010
0000
1000
0100
,  // measure 54
1000
0000
0100
0000
0100
0000
1000
0001
,  // measure 55
0100
0000
0001
0000
0001
0000
0100
0001
,  // measure 56
0010
0000
0000
0000
,  // measure 57
0001
0000
1000
0000
0001
1000
0000
1000
,  // measure 58
0010
0100
0220
0330
,  // measure 59
0010
0000
1000
0000
0010
1000
0000
1000
,  // measure 60
0100
0000
1000
0000
1000
0100
0000
0000
,  // measure 61
1001
0100
1001
0010
,  // measure 62
0001
0000
0100
0000
0001
1000
0001
1000
,  // measure 63
0010
0100
0010
1000
,  // measure 64
0100
1000
0100
0001
0100
1000
0100
0000
,  // measure 65
1001
0010
1001
0100
,  // measure 66
1000
0000
0010
0000
1000
0010
1000
0010
,  // measure 67
0100
0010
1000
0100
,  // measure 68
1000
0001
1000
0001
1000
0001
0200
0000
,  // measure 69
0301
0000
0100
0000
0001
0100
0001
0000
,  // measure 70
1000
0000
0010
0000
1000
0010
1000
0000
,  // measure 71
0100
0000
1000
0000
0100
1000
0100
0000
,  // measure 72
1000
0001
1000
0001
0010
0001
1000
0100
,  // measure 73
0010
0000
0001
0000
0010
0001
0010
0000
,  // measure 74
0001
0000
0100
0000
0001
1000
0100
1000
,  // measure 75
0100
0000
1001
0000
0010
1000
0010
0000
,  // measure 76
0100
0001
0100
0001
0100
0000
0000
0000
,  // measure 77
0010
0000
0010
1000
0010
0000
1000
0000
,  // measure 78
0100
0000
1000
0100
1000
0000
0001
0000
,  // measure 79
0100
0001
0100
0000
0001
0000
0001
1000
,  // measure 80
0001
1000
0010
0000
,  // measure 81
0010
1000
0010
0000
1000
0000
0100
1000
,  // measure 82
0100
0000
1000
0000
0001
0000
0001
0100
,  // measure 83
0001
0100
0001
0000
1000
0000
0100
1000
,  // measure 84
0100
1000
0010
0000
1000
0000
0010
0000
,  // measure 85
1010
0000
0000
0000
,  // measure 86
0000
0000
1000
0010
1000
0000
0010
0000
,  // measure 87
0100
0000
0000
0100
0010
0000
0010
1000
,  // measure 88
0010
0000
1000
0000
0100
1000
0100
1000
,  // measure 89
0001
0000
0001
0010
0001
0000
1000
0000
,  // measure 90
0100
1000
0001
0000
0010
0000
0001
0000
,  // measure 91
0100
0000
0010
0000
1000
0001
1000
0100
,  // measure 92
0020
0000
0030
0000
;

//---------------dance-single - aurae----------------
#NOTES:
     dance-single:
     aurae:
     Hard:
     9:
     0.683,0.706,0.272,0.182,0.045:
0000
0000
0000
0000
,
0000
0000
0000
0000
,
0000
0000
0000
0000
,
0000
0000
0000
0000
,
0000
0000
0000
0000
,
0000
0000
0000
0000
,
0000
0000
0000
0000
,
0000
0000
0000
0000
0000
1000
0000
1000
,
0001
0100
0001
1000
,
0100
0000
1000
0000
0010
0000
1000
0010
,
1000
0001
0010
0001
,
1000
0000
0000
0000
0001
0000
0000
0000
1000
0000
0001
0100
0001
0000
1000
0000
,
0001
0010
0001
0100
,
0001
0000
0000
0000
1000
0000
0000
0000
0010
0000
1000
0010
1000
0000
0001
1000
,
0001
0010
0001
1000
,
0001
0100
1001
1001
,
1000
0001
0100
0001
0010
0001
0010
0100
,
1000
0100
1000
0001
0100
0100
0002
0000
,
1003
0001
1000
0100
1000
0010
0100
0010
,
1000
0100
2000
0000
3001
0000
0020
0000
,
0031
0000
0100
0000
0001
1000
0001
0000
,
0001
0000
0100
0000
0010
0000
1000
0000
0010
0000
1000
0001
1000
0000
1000
0000
,
0001
0001
0100
0000
0001
0000
1000
0000
,
0002
0000
1003
0200
0000
0300
0200
0000
,
0310
0000
0100
0000
1000
0000
0010
1000
,
0010
0000
0000
0000
0100
0000
0000
0000
0001
0000
0010
0001
0010
0000
0100
0000
,
1000
0010
0100
0010
1000
0010
0100
0010
,
2000
0000
3001
0200
0000
0301
2000
0000
,
3001
0010
0001
0100
0001
1000
0100
1000
,
0100
0010
0001
0010
0001
0001
0010
0000
,
0001
0100
0001
1000
0100
1000
0100
0000
,
1100
0001
0110
0000
,
1001
1100
1001
0001
,
0100
0001
1000
0000
0001
0100
0002
0000
,
1003
0001
1000
0000
0100
1000
0010
0000
,
1000
0100
1000
0001
0100
0010
2000
0000
,
3001
0001
1000
0001
0100
0000
0001
0000
,
0010
0001
0100
0001
0010
0100
0010
0000
,
0001
0010
1000
0001
0100
1000
0010
0000
,
0100
0000
0001
1000
0000
1000
0001
0000
,
1001
0000
1000
0100
0000
0010
0001
0000
,
1001
0000
1000
0100
1000
0000
0110
0000
,
0011
0000
0001
0100
0000
0001
0100
0001
,
1000
1000
0100
0010
0001
1000
0001
0100
,
0001
0000
0000
0100
0000
0000
0010
0000
0100
0000
0010
0000
1000
0000
0000
0000
,
1000
0010
0100
0001
1000
0100
0010
0001
,
1000
0001
0010
0001
0000
1000
0100
1000
,
0200
0000
0300
1000
,
0001
0000
1000
0000
0001
0000
0100
0001
,
0010
0000
0100
0000
1000
0000
0010
1000
,
0010
0000
0010
0000
1000
0000
0001
0100
,
2002
0000
0000
3003
,
0010
0000
1000
0000
0010
0000
1000
0001
,
1000
0000
0001
0000
0100
0000
0001
0100
,
0001
0000
0100
0000
0010
0000
1000
0010
,
2002
0000
0000
3003
,
1000
0000
0101
0000
0001
0100
0000
0100
,
0001
0000
1000
0001
0220
0000
0330
0000
,
0010
0000
1001
0000
0001
1000
0000
1000
,
0100
1000
0010
1000
0001
0010
0000
0000
,
0010
1001
0100
1001
,
0010
0000
1001
0000
1000
0001
1000
0000
,
0001
0110
1000
0101
,
1000
0001
1000
0010
1000
0001
0100
0100
,
0010
1100
0010
0101
,
1000
0001
0100
0000
0001
1000
0001
1000
,
0001
1100
0010
0101
,
1000
0010
1000
1000
0001
0010
0200
0000
,
1300
0000
0110
0000
0001
1000
0001
0000
,
1000
0000
0010
1000
0100
0010
0001
0000
,
0010
1100
0010
1001
,
1000
0001
0010
0001
1000
0010
0100
0001
,
1000
0000
1001
0000
0001
0010
0001
0000
,
1000
0000
0110
0000
1000
0100
0010
0000
,
0010
0000
0001
1000
0001
0000
0010
0001
,
1000
0100
1000
0001
0100
0000
0000
0000
,
0001
1000
0010
0100
0001
0000
0001
1000
,
0100
0000
1000
0001
1000
0000
0010
0000
0100
0000
0000
0000
0100
0000
0100
0000
,
0001
0000
1000
0001
0100
0000
0010
0000
0100
0000
0001
0000
0001
0000
1000
0000
,
0010
0100
1000
0100
0010
0100
0010
0000
,
1000
0001
0010
0001
0100
0000
0001
1000
,
1000
0000
0100
1000
0100
0000
0010
0000
0001
0000
0000
0000
0001
0000
0100
0000
,
0001
0000
0010
0001
0100
0000
0010
0000
1000
0000
0000
0000
0001
0000
1000
0000
,
0100
1000
0001
0010
0001
0100
1000
0100
,
0001
0000
0000
0000
,
0000
0000
0100
1000
0100
0000
0010
0000
,
1000
0000
0010
1000
0100
0000
0010
0001
,
0010
0000
0100
0000
0100
1000
0001
1000
,
0100
0000
1000
0001
0100
0000
0001
0010
,
0100
1000
0100
1000
0010
0100
0001
0100
,
0001
0000
1000
0001
0100
0000
0001
1000
,
0200
0000
0300
0000
;
