#TITLE:Last Christmas;
#SUBTITLE:V.R. DJ New Year Remix;
#ARTIST:Cascada;
#TITLETRANSLIT:;
#SUBTITLETRANSLIT:;
#ARTISTTRANSLIT:;
#GENRE:;
#CREDIT:;
#MENUCOLOR:;
#METERTYPE:DDR;
#BANNER:LastChristmasRemixLogo.png;
#BACKGROUND:LastChristmasRemixBG.png;
#LYRICSPATH:;
#CDTITLE:;
#MUSIC:LastChristmasRemix.ogg;
#OFFSET:-0.254;
#SAMPLESTART:100.000;
#SAMPLELENGTH:11.900;
#SELECTABLE:YES;
#LISTSORT:;
#DISPLAYBPM:130.000;
#BPMS:0.000=130.000,199.000=133.000,200.000=130.000;
#STOPS:;
#BGCHANGES:;
#ATTACKS:;

//---------------dance-single - ----------------
#NOTES:
     dance-single:
     :
     Hard:
     7:
     0.485,0.498,0.267,0.194,0.097:
0000
0000
0000
0000
,
0000
0000
0000
0000
,
0000
0000
0000
0000
,
0000
0000
0000
0000
,
0020
0000
0100
0000
0031
0100
0001
0000
,
2000
0000
0100
0000
3010
0001
0010
0000
,
0100
0100
1000
0001
0000
2000
0000
3020
,
0000
0230
0000
0301
0000
0001
0010
0000
,
0100
1000
0010
0100
0001
0000
0110
0000
,
0100
0001
0010
0100
1000
0000
0110
0000
,
0010
0100
0100
0000
1000
0100
0100
0000
,
0001
0010
1000
0200
0000
0000
0310
0000
,
0010
0001
0100
0000
1000
0100
0010
0000
,
0001
0010
1000
0200
0000
0000
0310
0000
,
0100
1000
0001
0200
0000
0301
0000
2000
,
0000
3010
0000
0200
0000
0310
0000
0000
,
0001
0000
1000
0000
0000
0001
0000
0000
0100
0000
0000
0000
0110
0000
0000
0000
,
1000
0000
0100
0000
0000
0010
0000
0000
0011
0000
0000
0000
1001
0000
0000
0000
,
0100
0000
0010
0000
0000
1000
0000
0000
0001
0000
0000
0000
0101
0000
0000
0000
,
0100
0000
0001
0000
0000
0010
0000
0000
0100
1000
0100
1000
0001
0100
0001
0100
,
0001
0000
1000
0000
0000
0100
0000
0000
0110
0000
0000
0000
1001
0000
0000
0000
,
0001
0000
0100
0000
0000
0010
0000
0000
0110
0000
0000
0000
1001
0000
0000
0000
,
0010
0000
0100
0000
0000
0001
0000
0000
0010
0000
0000
0000
0110
0000
0000
0000
,
0100
0000
1000
0000
0000
0010
0000
0000
0001
0010
0001
0010
1000
0010
1000
0010
,
1000
0000
0100
0010
0100
0000
1000
0010
,
0100
0010
1000
0100
0000
0010
0001
0100
,
0001
0000
0010
1000
0010
0000
0001
0100
,
0010
1000
0100
0001
0000
0100
1000
0001
,
0100
0000
0010
0100
0010
0000
0100
1000
,
0100
0001
0010
0100
0000
1000
0100
0001
,
0100
0000
0010
0100
0010
0000
0100
1000
,
0001
0100
0010
0010
0000
0100
0001
0000
,
0101
0000
1010
0000
0010
0100
0001
0000
,
0101
0000
0000
0000
0011
0000
0000
0000
0010
0000
0100
0000
1000
0001
0000
0001
,
0100
0000
0010
0000
0100
0001
0100
0000
,
0010
0000
0000
0000
1000
0000
0000
0000
0100
0000
0010
0000
0100
1000
0000
1000
,
0001
0000
0100
0000
0010
0100
0010
0000
,
0101
0000
0000
0000
1100
0000
0000
0000
1000
0000
0010
0000
0100
0001
0000
0001
,
0010
0000
0110
0000
0100
1000
0010
0000
,
0100
0000
0001
0000
0010
0000
1000
0000
0000
0000
0010
0000
0100
0001
0000
0100
,
1000
0001
0100
0001
0010
0100
1100
0000
,
0100
0010
0001
0100
0010
1000
0110
0000
,
0010
0100
0001
0010
0100
1000
1001
0000
,
1000
0001
1000
0100
1000
0010
0110
0000
,
0100
0010
1000
0100
0010
0001
0101
0000
,
0010
1000
0100
0010
0001
0100
1001
0000
,
0001
1000
0001
0010
0001
1000
1010
0000
,
1001
0000
1100
0000
0100
0010
0001
0000
,
0001
0100
0010
0100
0001
0000
0101
0000
,
1000
0100
0010
0100
1000
0000
1100
0000
,
0010
0100
1000
0000
0010
0100
0001
0000
,
0010
1000
0010
0100
0000
0001
0100
0000
,
2000
0010
0001
3100
,
0002
0010
1000
0103
,
0010
0100
1000
0020
0000
0032
0000
0203
,
0000
2300
0000
3020
0000
0130
0001
0000
,
0011
0000
0100
1000
0001
0000
0001
1000
,
0100
0010
0100
1000
0000
1000
0010
0001
,
0010
0000
1000
0001
0100
0000
1000
0100
,
0002
0010
0000
0010
0003
0100
1000
0000
,
1000
1000
0100
0010
0001
0001
0100
0010
,
2000
0100
0000
0100
3000
0100
0010
0001
,
1100
0001
0100
0010
0101
1000
0100
0010
,
1002
0100
0000
0203
0000
0320
0000
2030
,
0000
3002
0000
0000
0000
0000
0003
0000
;

//---------------dance-single - ----------------
#NOTES:
     dance-single:
     :
     Medium:
     5:
     0.364,0.367,0.113,0.210,0.000:
0000
0000
0000
0000
,
0000
0000
0000
0000
,
0000
0000
0000
0000
,
0000
0000
0000
0000
,
2000
0000
0000
3002
0000
0000
0003
1000
,
0010
1000
0001
0200
0000
0000
0300
0001
,
1000
0001
1000
0010
0000
1000
0000
0100
,
0000
0010
0000
0010
0000
0100
0000
0000
,
2000
0000
0000
0010
0000
3010
0000
0001
,
0100
0010
1000
0200
0000
0000
0300
0010
,
0001
0010
0100
0000
1000
0000
0010
0000
,
0100
0001
0100
0020
0000
0000
0030
0000
,
2000
0000
0000
3002
0000
0000
0003
1000
,
0001
1000
0100
0020
0000
0000
0030
0100
,
1000
0001
0100
0001
0000
0100
0000
0010
,
0000
1000
0000
1000
0000
0001
0000
0000
,
1000
0010
1001
0000
,
0100
0010
1001
0000
,
0001
0010
1001
0000
,
0100
0000
0010
0000
1000
1000
0001
0001
,
0100
0010
1001
0000
,
1000
0100
0011
0000
,
0100
0010
1001
0000
,
0001
0000
0100
0000
0010
0010
0100
0100
,
0001
1000
0100
0010
,
0100
1000
0001
0100
0000
0000
0110
0000
,
0100
0001
1000
0100
,
0010
0001
1000
0100
0000
0000
0110
0000
,
0001
1000
0010
0100
,
0001
1000
0100
0010
0000
0000
0110
0000
,
0001
1000
0010
0100
,
0001
1000
0001
0010
0000
0000
0110
0000
,
1000
0000
0001
0000
0100
0010
0000
1000
,
0002
0000
0000
0200
0000
0000
0303
0000
,
0000
1000
0100
1000
0001
0100
0000
0001
,
1000
0100
0000
0010
0000
0100
0000
1000
,
0010
0100
0002
0000
0010
0000
0013
0000
,
0100
1000
0001
1000
0200
0000
0310
0000
,
0000
1000
0000
0001
0100
0001
0000
1000
,
0100
1000
0001
0020
0000
0130
0000
0000
,
1000
0100
1000
0100
0010
0000
0001
0000
,
0100
0010
0100
0010
1000
0000
0100
0000
,
0012
0103
0012
1003
,
0001
0001
1000
0100
,
0010
0001
0010
0001
0100
0000
0010
0000
,
1000
0010
1000
0010
0100
0000
0001
0000
,
2010
3001
2010
3100
,
1000
0001
0010
0100
,
2000
0000
0000
0010
0000
3010
0000
0100
,
0001
0100
0010
0100
0000
0000
0000
0001
,
1000
0001
0100
0000
0100
0000
0000
0010
,
1000
0100
0010
0200
0000
0000
0310
0000
,
0002
0000
0000
2000
0003
0000
3000
0001
,
0100
0001
0010
0200
0000
0000
0300
1000
,
0001
1000
0010
0100
0000
0001
0000
1000
,
0000
0001
0000
0100
0000
0010
0000
0000
,
1000
1000
0001
0001
,
1000
0100
0001
0000
0100
0000
1000
0000
,
0001
0001
1000
1000
,
0001
0100
0000
1000
0000
0100
0001
0000
,
0010
0100
0010
0000
0010
0100
0010
0000
,
0100
1000
0000
0001
0000
0100
0001
0000
,
0010
0100
1000
0010
0000
0010
0000
0100
,
0001
0010
0100
1000
0000
2000
0000
3002
,
0000
2003
0000
0000
0000
0000
3000
0000
;

//---------------dance-single - ----------------
#NOTES:
     dance-single:
     :
     Easy:
     4:
     0.302,0.314,0.113,0.081,0.000:
0000
0000
0000
0000
,
0000
0000
0000
0000
,
0000
0000
0000
0000
,
0000
0000
0000
0000
,
1000
1000
0001
0001
,
1000
0001
1000
1000
,
0010
0100
0001
1000
,
0100
0100
0010
0001
,
1000
0100
0001
0100
,
1000
0010
0100
0110
,
0002
0013
0002
0013
,
0100
1000
1000
1001
,
1000
0010
1000
1000
,
0001
0010
0001
0001
,
1000
0010
0001
0010
,
1000
1000
0001
0001
,
2000
0000
3010
1001
,
0002
0000
0013
1001
,
0200
0000
1300
1001
,
0200
0000
0001
0301
,
1000
0001
0010
1001
,
0100
0010
1000
1001
,
0001
0010
0100
1001
,
0001
1000
0010
0010
,
0100
0001
0100
1000
,
0010
1000
0100
0001
,
0100
0010
1000
0100
,
0010
0001
1000
1000
,
0100
0001
0010
0001
,
0100
1000
0010
0010
,
0100
0001
0010
0100
,
1000
0010
0100
1001
,
0001
0100
1000
1000
,
0001
0100
1000
1000
,
0010
0100
0001
1000
,
0100
0010
0100
1000
,
0001
0200
0010
0310
,
1000
0200
0010
0310
,
1000
0100
0001
0001
,
1000
0100
0001
0001
,
1000
0010
1000
0100
,
0010
0001
0010
0001
,
0100
0010
1000
0010
,
1000
0100
0010
0100
,
0010
0001
0100
1000
,
0010
0001
0100
1000
,
0010
0100
0001
0010
,
0100
1000
0001
1001
,
0100
0001
0010
0110
,
0010
1000
0100
0110
,
0001
0100
1000
0100
,
0001
1000
0001
1001
,
1000
0100
0010
0100
,
1000
0010
0100
0100
,
0001
0100
0010
1000
,
0100
0100
0010
0010
,
0001
1000
0100
0010
,
0100
1000
0001
1000
,
0010
0100
0001
0100
,
0010
0010
0100
0100
,
0001
0100
0001
0100
,
0010
1000
0010
1000
,
0100
0001
0100
0010
,
1000
0001
0001
0100
,
0220
0000
0000
0330
;
