#TITLE:Jingle Bell Rock;
#SUBTITLE:;
#ARTIST:Speedomaster;
#TITLETRANSLIT:;
#SUBTITLETRANSLIT:;
#ARTISTTRANSLIT:;
#GENRE:;
#CREDIT:;
#MENUCOLOR:;
#METERTYPE:DDR;
#BANNER:;
#BACKGROUND:;
#LYRICSPATH:;
#CDTITLE:;
#MUSIC:Jingle Bell Rock.ogg;
#OFFSET:-0.585;
#SAMPLESTART:11:596;
#SAMPLELENGTH:10.147;
#SELECTABLE:YES;
#LISTSORT:;
#BPMS:0.000=173.700;
#STOPS:;
#BGCHANGES:;
#ATTACKS:;

//---------------dance-single - ----------------
#NOTES:
     dance-single:
     :
     Hard:
     8:
     0.562,0.605,0.341,0.288,0.064:
0000
0000
0000
0000
,
0000
0000
0000
0000
,
0000
0000
0000
0000
,
0000
0000
0000
0000
,
0000
0000
0000
0000
,
0000
0000
0000
0000
,
0000
0000
0000
0000
,
0000
0000
0000
0000
,
0010
0001
0010
0000
0100
1000
0100
0000
,
1000
0010
2000
0000
3100
0000
1100
0000
,
1000
0100
0001
0000
0001
0100
1000
0000
,
0010
0100
0001
0000
1100
0000
0101
0000
,
0010
0200
0000
0310
1000
0020
0000
0130
,
0001
0010
0001
0200
0000
0000
0310
0000
,
1010
1100
0101
0011
,
0101
1100
1010
1001
,
0010
1000
0010
0000
0100
0001
0100
0000
,
0001
0010
0200
0000
1300
0000
1100
0000
,
1000
0100
0010
0000
0011
0000
0101
0000
,
0100
0010
1000
0000
1010
0000
1100
0000
,
0010
0200
0000
0301
0010
0200
0000
1300
,
0010
0100
0010
0000
1010
0000
1100
0000
,
0001
0000
0100
0000
0010
0000
0001
0020
,
0000
0000
0000
0000
0030
0000
1000
0100
,
0010
0000
0010
0001
0000
0001
0100
0010
,
1000
0000
1000
0100
0000
0100
0010
0000
,
0010
1000
0010
0000
0001
0010
1000
0000
,
0010
0001
0100
0010
1000
0000
0010
0100
,
1000
0000
0100
0001
0000
0100
1000
0200
,
0000
0001
0000
0302
0000
0000
0013
0000
,
0110
0000
1100
0000
,
1001
0001
0100
0000
0010
0000
1000
0000
,
0100
0000
0010
0001
0000
0001
0100
0000
0100
0010
0000
0010
,
1000
0100
0010
0001
1000
0000
1001
0000
,
0001
0100
0002
0000
0023
0000
2030
0000
,
3200
0302
1000
1003
,
0001
0000
0100
0010
0000
0000
1000
0000
0100
0010
0000
0000
,
0100
1000
0001
0020
0000
0100
0130
0000
,
1000
0010
0000
0100
0001
1000
0100
0000
,
0020
0100
0100
0130
,
0100
1000
0100
0000
0010
0001
0010
0000
,
0001
0100
0002
0000
0013
0000
1100
0000
,
0010
1000
0200
0000
0010
0000
0310
0000
,
0010
0001
0200
0000
0010
0000
0310
0000
,
1000
0010
0100
0001
0010
1000
0000
0010
,
0001
0100
0010
1000
0010
0000
0001
0000
,
0010
1000
0100
0010
0001
0100
0000
0010
,
1000
0000
0001
0010
0000
0100
1000
0001
,
0100
0000
0100
0000
0100
0000
0010
1000
,
0100
0000
0100
0000
0100
0000
0010
0001
,
0100
0000
1000
0100
0001
0000
1000
0100
,
0001
0000
0100
1000
0000
0001
0010
0100
,
1000
0000
0010
0100
0000
0001
1000
0010
,
0000
0100
0000
0001
0000
0010
0100
0000
,
0110
0000
0011
0000
,
1001
1000
0010
0000
0100
0000
0001
0000
,
0010
0000
0100
1000
0000
1000
0010
0000
0010
0100
0000
0100
,
0001
0010
0100
1000
0001
0000
0101
0000
,
2000
3020
0032
0203
,
2300
3020
0100
0130
,
0001
0000
1000
0100
0000
0000
0010
0000
0001
0100
0000
0000
,
0010
1000
0100
0020
0000
0000
0031
0000
,
0000
1001
0000
0100
0010
0001
0100
0000
,
0000
1001
0000
0100
0010
1000
0100
0000
,
0000
1001
0000
0100
0010
0001
0100
0000
,
0010
1000
0010
0000
0100
0001
0100
0000
,
0010
1000
0100
0000
0101
0000
1100
0000
;

//---------------dance-single - ----------------
#NOTES:
     dance-single:
     :
     Medium:
     6:
     0.492,0.534,0.309,0.139,0.000:
0000
0000
0000
0000
,
0000
0000
0000
0000
,
0000
0000
0000
0000
,
0000
0000
0000
0000
,
0000
0000
0000
0000
,
0000
0000
0000
0000
,
0000
0000
0000
0000
,
0000
0000
0000
0000
,
1000
0001
1000
0000
0001
1000
0001
0000
,
1000
0001
1000
0000
0101
0000
0101
0000
,
1000
0001
1000
0000
1100
0000
1100
0000
,
0001
1000
0001
0000
0101
0000
0101
0000
,
0020
1030
0020
0130
,
0002
0013
0100
1000
,
0010
0100
0010
0000
0100
0001
0100
0000
,
1010
1001
1100
1001
,
1000
0001
1000
0000
0001
1000
0001
0000
,
1000
0001
1000
0000
1100
0000
1100
0000
,
0001
1000
0001
0000
0101
0000
0101
0000
,
1000
0001
1000
0000
1100
0000
1100
0000
,
0200
0310
0002
0103
,
0020
1030
1001
1001
,
1000
0001
0000
0100
0010
0000
1000
0002
,
0000
0000
0000
0000
0003
0000
0100
1000
,
0200
0000
0010
0000
0310
0000
0010
0001
,
0200
0010
0010
0310
,
0010
1000
0010
0100
,
0001
0000
0010
0000
0100
0000
1000
0001
,
2000
0000
0010
0000
3010
0000
0001
1000
,
0002
0100
0100
0103
,
0101
0000
0110
0000
,
0010
0100
0010
0000
1000
0000
0001
0000
,
0100
0010
0100
0000
0010
1000
0010
0000
,
1000
0001
1000
0000
0100
0000
0100
0000
,
1000
0001
1000
0000
0010
0000
0001
0000
,
0100
1000
0010
0010
,
0100
0001
0010
0000
0100
1000
0010
0000
,
0100
0001
0010
0010
,
0000
0110
0000
0100
0010
0100
0010
0000
,
0001
1000
0001
1000
,
0010
0100
0010
0000
0100
0010
0100
0000
,
0010
0100
0010
0000
1000
0000
0100
0000
,
0010
0100
0010
0000
0100
0000
0100
0000
,
0010
0100
0010
0000
0010
0000
0010
0000
,
0001
0100
0001
0000
0100
0000
0100
0000
,
0010
1000
0010
0000
1000
0000
1000
0000
,
0100
0010
0100
0000
0010
0000
0010
0000
,
0001
0000
1000
0100
0000
0010
0001
0000
,
0100
0000
0100
0000
0100
0000
0010
0100
,
0010
0000
0010
0000
0010
0000
0100
0010
,
0100
0010
1000
0100
,
0010
0000
0001
0000
0001
0000
0100
0010
,
0100
0000
0100
0000
0100
0000
0010
0100
,
0010
0000
0010
0000
0010
0000
1000
0100
,
0010
0000
0110
0000
,
0010
0001
0100
0000
0010
0000
1000
0000
,
0100
0010
0001
0000
0100
0010
1000
0000
,
0100
0010
0001
0000
0100
0000
0100
0000
,
0001
1000
0100
0000
0001
0000
0010
0000
,
1000
0100
0001
0001
,
2100
3010
0102
0013
,
0100
0010
0100
0000
0010
0000
0010
0000
,
0000
1001
0000
1000
0001
1000
0001
0000
,
0000
1001
0000
0001
1000
0001
1000
0000
,
0000
1001
0000
1000
0100
0010
0001
0000
,
0100
0010
0100
0000
0010
0100
0010
0000
,
0100
0001
1000
0000
1001
0000
1001
0000
;

//---------------dance-single - ----------------
#NOTES:
     dance-single:
     :
     Easy:
     3:
     0.271,0.356,0.107,0.235,0.000: // measure 1
0000
0000
0000
0000
,  // measure 2
0000
0000
0000
0000
,  // measure 3
0000
0000
0000
0000
,  // measure 4
0000
0000
0000
0000
,  // measure 5
0000
0000
0000
0000
,  // measure 6
0000
0000
0000
0000
,  // measure 7
0000
0000
0000
0000
,  // measure 8
0000
0000
0000
0000
,  // measure 9
1000
0000
0001
0000
,  // measure 10
1000
0001
1000
0000
,  // measure 11
0100
0010
0100
0000
,  // measure 12
0010
0100
0010
0000
,  // measure 13
0002
0000
0203
0000
,  // measure 14
0320
0000
1030
0000
,  // measure 15
0100
0000
1000
0000
,  // measure 16
0001
0100
0010
0000
,  // measure 17
1000
0000
0001
0000
,  // measure 18
1000
0001
1000
0000
,  // measure 19
0010
0000
0100
0000
,  // measure 20
0010
0100
0010
0000
,  // measure 21
0200
0000
0302
0000
,  // measure 22
0023
0000
0032
0000
,  // measure 23
0103
0000
0010
0000
,  // measure 24
2002
0000
3003
0000
,  // measure 25
1000
0000
0100
0000
,  // measure 26
0010
0000
0001
0000
,  // measure 27
0100
0010
0100
0000
,  // measure 28
0010
0100
0010
0000
,  // measure 29
0001
0000
0010
0000
,  // measure 30
0100
0000
1000
0000
,  // measure 31
1001
0000
0000
0000
,  // measure 32
0000
0010
0100
0001
,  // measure 33
0101
0000
0101
0000
,  // measure 34
0100
0010
1000
0000
,  // measure 35
0001
0100
1000
0010
,  // measure 36
0002
0000
0000
0003
,  // measure 37
0020
1030
0200
0310
,  // measure 38
0001
0001
0001
0000
,  // measure 39
0100
0000
0010
0000
,  // measure 40
1000
0001
1000
0000
,  // measure 41
0010
0000
0100
0000
,  // measure 42
0010
0100
0010
0010
,  // measure 43
0001
1000
0001
0001
,  // measure 44
1000
0001
1000
1000
,  // measure 45
0200
0000
1300
0000
,  // measure 46
0002
0000
0103
0000
,  // measure 47
0010
1000
0010
0000
,  // measure 48
0100
0000
0001
0000
,  // measure 49
0020
0000
0000
0030
,  // measure 50
0200
0000
0000
0300
,  // measure 51
1000
0000
0001
0000
,  // measure 52
0100
0010
1000
0000
,  // measure 53
0002
0000
0000
0003
,  // measure 54
2000
0000
0000
3000
,  // measure 55
0100
0000
0010
0000
,  // measure 56
0100
0001
0100
0010
,  // measure 57
0110
0000
1001
0000
,  // measure 58
0001
1000
0001
0000
,  // measure 59
1000
0100
0001
0010
,  // measure 60
2000
0000
0000
3000
,  // measure 61
0011
0000
1001
0000
,  // measure 62
0101
0000
1001
0000
,  // measure 63
0200
0000
0010
0310
,  // measure 64
0020
0000
0100
0130
,  // measure 65
0200
0000
0010
0310
,  // measure 66
0010
0010
1000
1000
,  // measure 67
0001
0100
1000
1000
;
