#TITLE:Christmas Accelerator;
#SUBTITLE:;
#ARTIST:Braeden47;
#TITLETRANSLIT:;
#SUBTITLETRANSLIT:;
#ARTISTTRANSLIT:;
#CREDIT:;
#BANNER:banner.png;
#BACKGROUND:bg.png;
#LYRICSPATH:;
#CDTITLE:baysonmix.png;
#MUSIC:xmas accel.mp3;
#OFFSET:0.000;
#SAMPLESTART:40.933;
#SAMPLELENGTH:12.000;
#SELECTABLE:YES;
#BPMS:0.000=40.000,4.000=45.000,8.000=50.000,12.000=55.000,16.000=60.000,20.000=65.000,24.000=70.000,28.000=75.000,32.000=80.000,36.000=85.000,40.000=90.000,44.000=95.000,48.000=100.000,52.000=105.000,56.000=110.000,60.000=115.000,64.000=120.000,68.000=125.000,72.000=130.000,76.000=135.000,80.000=140.000,84.000=145.000,88.000=150.000,92.000=155.000,96.000=160.000,100.000=165.000,104.000=170.000,108.000=175.000,112.000=180.000,116.000=185.000,120.000=190.000,124.000=195.000,128.000=200.000,132.000=205.000,136.000=210.000,140.000=215.000,144.000=220.000,148.000=225.000,152.000=230.000,156.000=235.000,160.000=240.000,164.000=245.000,168.000=250.000,172.000=255.000,176.000=260.000,180.000=265.000,184.000=270.000,188.000=275.000,192.000=280.000,196.000=285.000,200.000=290.000,204.000=295.000,208.000=300.000,212.000=305.000,216.000=310.000,220.000=315.000,224.000=320.000,256.000=350.000,260.000=400.000,264.000=450.000,268.000=500.000;
#STOPS:;
#BGCHANGES:;

//---------------dance-single - ----------------
#NOTES:
     dance-single:
     :
     Hard:
     10:
     0.721,0.975,0.252,0.531,0.382:
0000
0000
0000
0000
,
1000
0010
0100
0001
0100
0010
2000
0000
,
3001
0100
0010
1000
0001
0100
0001
1000
,
0010
1000
0001
0100
0010
1000
0002
0000
,
1003
0100
1000
0100
0100
0010
0010
0001
,
0010
0100
0100
0010
1000
1000
1001
0000
,
1000
0010
1000
0010
1000
0010
1000
0001
2000
0000
3020
0000
0230
0000
0302
0000
,
1003
0010
0100
0001
0100
0010
1000
0010
0200
0000
0302
0000
0203
0000
0300
0000
,
0001
0000
0001
0000
0001
0100
0000
0100
0010
0000
0010
1000
0000
1000
0010
0000
,
0100
0000
0001
0000
0100
0010
0000
0010
0100
0000
0100
1000
0000
1000
0001
0000
,
0001
0000
0010
0000
0100
1000
0000
1000
0001
0000
0001
1000
0000
1000
0100
0000
,
1000
0000
0100
0000
1000
0010
0000
0010
0100
0000
0100
0001
0000
0001
0100
0000
,
0010
0100
0001
1000
0010
0100
0001
1000
0100
0010
0001
0010
0100
0010
0001
0010
,
0001
1000
0001
1000
0100
0010
0001
0010
0100
1000
0010
0100
0001
0100
0010
0000
,
0010
0100
0001
0100
0010
1000
0010
0100
0001
0100
0010
1000
0010
0100
0001
1000
,
0001
0100
0010
1000
0100
0010
0001
1000
0100
0010
0001
1000
0100
0010
0100
0000
,
0001
0100
0010
1000
0001
1000
0010
0100
0001
1000
0010
0100
0010
1000
0001
0100
,
0010
1000
0010
0100
0001
1000
0010
0100
0001
1000
0100
0010
0001
0010
0100
0000
,
1000
0000
0100
0000
0010
0001
0000
0001
0100
0000
0100
0010
0000
0010
1000
0000
,
0100
0000
1000
0000
0100
0010
0000
0010
0100
0000
0100
1000
0000
1000
0001
0000
,
1000
0010
0100
0001
0100
0010
1000
0001
,
0100
0010
1000
0100
0010
0001
0100
0010
,
1000
0000
0010
0000
0100
0001
0000
0001
0100
0000
0100
0001
0000
0001
1000
0000
,
1000
0000
0100
0000
0010
0001
0000
0001
0100
0000
0100
0010
0000
0010
0100
0000
,
0001
0100
0001
0100
0010
1000
0010
0100
,
0001
1000
0001
0100
0001
0010
0001
0010
,
0002
0203
2300
3200
,
0302
0023
0230
0302
,
0203
2300
3020
0230
,
0301
0011
0000
0110
0000
1100
0000
1010
,
0000
1001
0000
0110
0000
0011
0000
0000
,
0001
0100
1000
0100
0001
0010
0100
0010
,
0001
0100
0001
0100
0010
1000
0010
0100
,
0001
1000
0010
1000
0001
0100
0001
1000
,
0010
1000
0010
0100
0001
0100
0010
1000
,
0002
0203
0320
2030
,
3002
0023
0230
0320
,
0031
0100
0001
0100
0010
0100
0001
0100
,
0001
0100
0001
0010
0100
1000
0100
0010
,
0001
0100
0010
0100
0010
1000
0010
0100
,
0001
0100
0010
1000
0001
0100
0001
0100
,
0110
0011
1001
1010
,
0110
0101
0011
0110
,
1100
1001
0101
0110
,
1010
1100
0110
0011
,
2000
3020
0230
0302
,
2003
0000
3002
0000
0203
0000
0310
1000
,
0002
0203
0320
2030
,
3002
0000
0203
0000
0320
0000
1030
0010
,
1000
0001
1000
0000
0000
0100
0000
0000
,
0010
0001
0010
0000
0000
0100
0000
0000
,
0100
1000
0001
0000
0000
0100
0000
0000
,
0010
1000
0010
0000
0000
0100
0000
0000
,
0200
0320
2030
3002
,
0203
0320
2030
3002
,
1003
0010
1000
0000
0010
1000
0010
0000
,
0100
0001
0100
0000
0001
0100
0010
0000
,
1000
0010
0100
0000
0001
0100
0010
0000
,
1000
0010
1000
0000
0001
1000
0100
0000
,
2002
3003
0022
0033
,
0220
0330
2200
3300
,
1000
0010
1000
0010
1000
0000
0000
0000
,
0001
0100
0001
0100
0001
0000
0000
0000
,
1000
0010
1000
0010
1000
0000
0000
0000
,
0001
0010
0001
0010
,
0001
0010
0001
0010
,
0001
0010
0001
0010
,
0001
0010
0001
0010
;

//---------------dance-single - Copied from----------------
#NOTES:
     dance-single:
     Copied from:
     Challenge:
     13:
     0.864,1.000,0.459,0.675,0.544:
0000
0000
0000
0000
,
1000
0010
0100
0001
0100
0010
2000
0000
,
3001
0100
0010
1000
0001
0100
0001
1000
,
0010
1000
0001
0100
0010
1000
0002
0000
,
1003
0100
1100
0100
0110
0010
0011
0001
,
0011
0100
0101
0010
1010
1000
1001
0000
,
2000
3010
2000
3010
2000
3010
2000
3001
2000
0000
3020
0000
0230
0000
0302
0000
,
2003
3010
0200
0301
0200
0310
2000
3010
0200
0000
0302
0000
0203
0000
0300
0000
,
0001
0000
0011
0000
0001
0100
0000
0100
0010
0000
0010
1000
0000
1000
0010
0000
,
0100
0000
1001
0000
0100
0010
0000
0010
0100
0000
0100
1000
0000
1000
0001
0000
,
0001
0000
0011
0000
0100
1000
0000
1000
0001
0000
0001
1000
0000
1000
0100
0000
,
1010
0000
0100
0000
1000
0010
0000
0010
0100
0000
0100
0001
0000
0001
0100
0000
,
M010
0100
0001
1000
0010
0100
0001
1000
0100
0010
0001
0010
0100
0010
0001
0010
,
0001
1000
0001
1000
0100
0010
0001
0010
0100
1000
0010
0100
0001
0100
0010
0000
,
0010
0100
0001
0100
0010
1000
0010
0100
0001
0100
0010
1000
0010
0100
0001
1000
,
0001
0100
0010
1000
0100
0010
0001
1000
0100
0010
0001
1000
0100
0010
0100
0000
,
0001
0100
0010
1000
0001
1000
0010
0100
0001
1000
0010
0100
0010
1000
0001
0100
,
0010
1000
0010
0100
0001
1000
0010
0100
0001
1000
0100
0010
0001
0010
0010
0000
,
0100
0000
1100
0000
0010
0001
0000
0001
0100
0000
0100
0010
0000
0010
1000
0000
,
0100
0000
1100
0000
0100
0010
0000
0010
0100
0000
0100
1000
0000
1000
0100
0000
,
1100
0110
0011
0001
1100
0010
1100
0001
,
0101
0010
0101
1000
0101
0010
1001
1000
,
0010
0000
1010
0000
0100
0001
0000
0001
0100
0000
0100
0001
0000
0001
1000
0000
,
1000
0000
1100
0000
0010
0001
0000
0001
0100
0000
0100
0010
0000
0010
0100
0000
,
0002
0203
0302
0203
0320
2030
3020
0230
,
0302
2003
3020
0230
0302
0203
0320
2030
,
3002
0203
2300
3200
,
0302
0023
0230
0302
,
0203
2300
3020
0230
,
0301
0011
0010
0110
0100
1100
1000
1010
,
1000
1001
0000
0110
0000
0011
0000
0000
,
0001
0100
1000
0100
0001
0010
0100
0010
,
MM10
0001
0001
0100
0010
1000
0010
0100
,
0001
1000
0010
1000
0001
0100
0001
1000
,
0010
1000
0010
0100
0001
0100
0010
1000
,
0002
0203
0320
2030
,
3002
0023
0230
0320
,
0031
0100
0001
0100
0010
0100
0001
0100
,
0001
0100
0001
0010
0100
1000
0100
0010
,
0001
0100
0010
0100
0010
1000
0010
0100
,
0001
0100
0010
1000
0001
0100
0001
0100
,
0110
0011
1001
1010
,
0110
0101
0011
0110
,
1100
1001
0101
0110
,
1010
1100
0110
0011
,
1000
0100
1000
0100
1000
0100
1000
0100
1000
0100
1000
0100
1000
0100
1000
0100
,
2000
0000
3002
0000
0203
0000
0310
1000
,
0001
0010
0001
0010
0001
0010
0001
0010
0001
0010
0001
0010
0001
0010
0001
0010
,
0002
0000
0203
0000
0320
0000
1030
0010
,
1000
0000
0001
0000
1000
0000
0000
0010
0000
0000
0100
0000
0000
0001
0000
0000
,
0100
0000
0010
0000
1000
0000
0000
0010
0000
0000
0100
0000
0000
0001
0000
0000
,
0100
0000
0010
0000
1000
0000
0000
0010
0000
0000
0100
0000
0000
0001
0000
0000
,
010M
0000
001M
0000
100M
0000
0000
0010
0000
0000
0100
0000
0000
0001
0000
0000
,
0200
0320
2030
3002
,
0203
0320
2030
3002
,
1003
0010
1000
0001
1000
0010
1000
0001
,
0100
0001
1000
0001
0100
0001
1000
0001
,
0010
0001
0010
0001
0100
0001
1000
0010
,
0100
0001
1000
0010
1000
0001
1000
0010
,
2002
3003
0022
0033
,
0220
0330
2200
3300
,
1000
0010
1000
0010
1000
0010
1000
0010
1000
0000
0000
0000
0000
0000
0000
0000
,
0001
0100
0001
0100
0001
0100
0001
0100
0001
0000
0000
0000
0000
0000
0000
0000
,
1000
0001
1000
0001
1000
0001
1000
0001
1000
0000
0000
0000
0000
0000
0000
0000
,
1000
0001
1000
0001
1000
0001
1000
0001
,
1MM0
0MM1
1000
0001
1000
0001
1000
0001
,
1000
0001
1000
0001
1000
0001
1000
0001
,
1000
0001
1000
0001
1000
0001
1000
0001
;

//---------------dance-single - Copied from----------------
#NOTES:
     dance-single:
     Copied from:
     Medium:
     8:
     0.534,0.947,0.117,0.675,0.000:
0000
0000
0000
0000
,
1000
0010
0100
0001
0100
0010
2000
0000
,
3001
0100
0010
1000
0001
0100
0001
1000
,
0010
1000
0001
0100
0010
1000
0002
0000
,
1003
0100
1000
0100
0010
0001
0100
0010
,
1000
0010
0100
0001
1000
0001
1000
0000
,
2000
3020
2030
3020
2030
3020
0230
0302
,
2003
3200
0320
2030
3200
0320
0032
0003
,
1000
0010
1000
0000
2020
0000
3030
0000
,
0100
0010
0022
0033
,
0001
0100
0010
0000
2020
0000
3030
0000
,
1000
0100
0010
0000
1001
0000
0000
0000
,
1000
0010
1000
0010
0100
0001
1000
0001
,
1000
0010
1000
0010
1000
0001
0100
0001
,
0100
0010
1000
0010
0100
0001
1000
0001
,
0100
0001
1000
0100
0010
0001
0010
0100
,
1000
0010
0100
0001
0100
0010
1000
0001
,
1000
0100
1000
0001
0100
0010
1000
0001
,
1000
0100
0010
0000
0011
0000
0000
0000
,
0001
1000
0100
0000
1100
0000
0000
0000
,
1000
0001
1000
0001
1000
0001
1000
0001
,
1000
0010
1000
0010
1000
0010
1000
0010
,
1000
0010
0100
0000
0101
0000
0000
0000
,
0001
0100
0010
0000
0011
0000
0000
0000
,
0001
0100
0001
0100
0010
1000
0010
0100
,
0001
1000
0001
0100
0001
0010
0001
0010
,
0002
0203
0320
0230
,
0302
0023
0230
2300
,
3200
2300
3020
0230
,
0301
1000
0100
0010
,
0001
1000
0001
1000
0001
1000
0001
1000
,
0001
0010
0001
0000
1000
0010
0100
0000
,
0001
0100
0010
0000
1000
0100
1000
0000
,
0001
0100
0010
0000
1000
0010
0100
0000
,
0001
0010
0100
0000
1000
0100
0010
0000
,
0002
0203
0320
2030
,
3002
0023
0230
0320
,
0031
0100
0001
0000
0010
0000
0100
0000
,
1000
0001
1000
0000
0100
0000
0001
0000
,
1000
0100
0010
0000
0001
0000
0010
0000
,
0001
0100
0010
0000
1000
0000
1000
0000
,
0001
0001
0100
0100
,
0010
0010
1000
1000
,
0001
0001
0010
0010
,
0001
1000
0100
1000
,
2000
3020
0230
0302
,
2003
3002
0203
0310
,
0002
0203
0320
2030
,
3002
0203
0320
1030
,
1000
0000
1000
0000
0000
0100
0000
0000
,
0010
0000
0010
0000
0000
0100
0000
0000
,
0100
0000
0001
0000
0000
0100
0000
0000
,
0010
0000
0010
0000
0000
0010
0000
0000
,
0002
0023
0230
2300
,
3200
0320
0032
0203
,
0310
1000
0010
0100
,
0001
0100
0010
1000
,
0100
1000
0001
0010
,
0100
1000
0001
0100
,
2002
3003
0022
0033
,
0220
0330
2200
3300
,
1000
0010
1000
0010
1000
0000
0000
0000
,
0001
0100
0001
0100
0001
0000
0000
0000
,
1000
0010
1000
0010
1000
0000
0000
0000
,
0220
0000
0000
0000
,
0000
0000
0000
0000
,
0000
0000
0000
0000
,
0000
0000
0000
0000
0000
0000
0000
0330
;

//---------------dance-single - ----------------
#NOTES:
     dance-single:
     :
     Edit:
     13:
     1.000,1.000,1.000,0.270,1.000:
1100
0110
0011
0101
0110
1010
1001
0011
,
0110
1100
1100
0110
0110
0011
2002
0000
,
3013
0110
0110
1100
0011
1001
1010
0110
,
0101
0011
0110
1100
1010
1001
0102
0000
,
1003
0000
0000
0100
0000
1000
1100
0000
0000
0100
0000
1000
0110
0000
0000
0010
0000
0001
0011
0000
0000
0001
0000
0010
,
0011
0000
0000
0100
0000
0001
0101
0000
0000
0010
0000
1000
1010
0000
0000
1000
0000
0001
1001
0000
0000
0000
0000
0001
,
2000
0000
0000
3010
0000
0000
2000
0000
0000
3010
0100
0000
1000
0000
0000
0100
0000
0000
0010
0000
0000
0001
0010
0000
0100
0000
0000
0000
0000
0000
0020
0000
0000
0000
0100
0000
0230
0000
0000
0000
0000
0000
0302
0000
0000
0000
1000
0000
,
2003
0000
0000
3010
0000
0000
0100
0000
0000
0001
1000
0000
0100
0000
0000
0010
0000
0000
0100
0000
0000
0010
0100
0000
0010
0000
0000
0000
0000
0000
0001
0000
0000
0000
0100
0000
0002
0000
0000
0000
0000
0000
0000
0000
0000
0000
0100
0000
,
0013
0000
0000
0000
0000
0000
0011
0000
0000
0000
0001
0000
0100
0000
0000
0100
0000
0000
0000
0000
0000
0100
0010
0000
1000
0000
0000
0000
0000
0000
0010
0000
0000
1000
0010
0000
0000
0000
0000
1000
0000
0000
0010
0000
0000
0000
0100
0000
,
0001
0000
0000
0000
0000
0000
1001
0000
0000
0000
1000
0000
0100
0000
0000
0010
0000
0000
0000
0000
0000
0010
0100
0000
0010
0000
0000
0000
0000
0000
0100
0000
0000
1000
0010
0000
0000
0000
0000
1000
0000
0000
0001
0000
0000
0000
0010
0000
,
0001
0000
0000
0000
0000
0000
0011
0000
0000
0000
1000
0000
0100
0000
0000
1000
0000
0000
0000
0000
0000
1000
0100
0000
0010
0000
0000
0000
0000
0000
0010
0000
0000
1000
0100
0000
0000
0000
0000
1000
0000
0000
0100
0000
0000
0000
0010
0000
,
1010
0000
0000
0000
0000
0000
0100
0000
0000
0000
0010
0000
1000
0000
0000
0010
0000
0000
0000
0000
0000
0010
1000
0000
0100
0000
0000
0000
0000
0000
0100
0000
0000
0001
0010
0000
0000
0000
0000
0001
0000
0000
0100
0000
0000
0000
0010
0000
,
M100
0000
0000
0001
0000
0000
1000
0000
0000
0010
1000
0000
0001
0000
0000
0100
0000
0000
0001
0000
0000
1000
0100
0000
0010
0000
0000
0001
0000
0000
0010
0000
0000
0100
1000
0000
0100
0000
0000
0010
0000
0000
0001
0000
0000
0010
0001
0000
,
1000
0000
0000
1000
0000
0000
0001
0000
0000
1000
0100
0000
0010
0000
0000
0001
0000
0000
0100
0000
0000
0001
0010
0000
0100
0000
0000
1000
0000
0000
0010
0000
0000
0100
0001
0000
0100
0000
0000
0010
0000
0000
1000
0000
0000
0000
0100
0000
,
0010
0000
0000
0100
0000
0000
0001
0000
0000
0100
0010
0000
1000
0000
0000
0010
0000
0000
0100
0000
0000
0001
0010
0000
0100
0000
0000
1000
0000
0000
0010
0000
0000
1000
0100
0000
0010
0000
0000
0100
0000
0000
0001
0000
0000
0100
1000
0000
,
0010
0000
0000
0100
0000
0000
0010
0000
0000
1000
0100
0000
0010
0000
0000
0001
0000
0000
0010
0000
0000
0100
0010
0000
0100
0000
0000
0010
0000
0000
0001
0000
0000
1000
0010
0000
0100
0000
0000
0010
0000
0000
0100
0000
0000
0000
0010
0000
,
0001
0000
0000
0100
0000
0000
0010
0000
0000
1000
0100
0000
0010
0000
0000
0100
0000
0000
0010
0000
0000
0001
0010
0000
0100
0000
0000
1000
0000
0000
0010
0000
0000
0100
1000
0000
0010
0000
0000
1000
0000
0000
0001
0000
0000
0100
0001
0000
,
1000
0000
0000
1000
0000
0000
0010
0000
0000
0100
0001
0000
0100
0000
0000
0010
0000
0000
1000
0000
0000
0001
0010
0000
0001
0000
0000
1000
0000
0000
0100
0000
0000
0010
0001
0000
0010
0000
0000
0100
0000
0000
1000
0000
0000
0000
0000
0000
,
0100
0000
1100
0000
0011
0011
0000
0101
0101
0000
0110
0110
0000
1010
1010
0000
,
0100
0000
1100
0000
0110
0110
0000
0011
0011
0000
0101
0101
0000
1010
1010
0000
,
1110
0110
0111
0001
1110
0010
1110
0001
,
0111
0010
0111
1000
0111
0010
1001
1000
,
0010
0000
1010
0000
0101
0101
0000
0101
0101
0000
0110
0110
0000
1010
1010
0000
,
1000
0000
1100
0000
0011
0011
0000
0101
0101
0000
0110
0110
0000
0011
0110
0000
,
0102
0103
0102
0103
1020
1030
1010
1000
,
1001
1000
1010
0100
0101
0010
1010
0100
,
0101
0010
0001
0010
0200
0000
0000
0000
2300
0000
0000
0000
3200
0000
0000
0000
,
0301
0010
0001
0010
0002
0000
0000
0000
0203
0000
0000
0000
0302
0000
0000
0000
,
0203
2300
3020
0230
,
0301
0011
0010
0110
0100
1100
1000
1010
,
1000
0000
0000
1001
0000
0000
1000
0000
0000
0110
0000
0000
0010
0000
0000
0011
0000
0000
0001
0000
0000
1001
0000
0010
,
0001
0000
0000
0100
0000
0100
1000
0000
0000
0100
0000
0100
0001
0000
0000
0010
0000
0010
0100
0000
0000
0010
0000
0001
,
MM10
0000
0000
0001
0000
0000
0100
0000
0000
0010
1000
0000
0010
0000
0000
0000
0000
0000
0010
0000
0000
0000
0100
0000
0010
0000
0000
0000
0000
0000
1000
0000
0000
0000
0100
0000
0010
0000
0000
0000
0000
0000
0100
0000
0000
0000
0010
0000
,
0001
0000
0000
1000
0000
0100
0010
0000
0000
1000
0000
0010
0001
0000
0000
0100
0000
0010
0001
0000
0000
1000
0000
0100
,
0010
0000
0000
1000
0000
0100
0010
0000
0000
0100
0000
0010
0001
0000
0000
0100
0000
0001
0010
0000
0000
1000
0000
1000
,
0001
0001
0200
0000
0320
0000
2030
0000
,
3002
0023
0230
0320
,
0031
0000
0000
0100
0000
0000
0010
0000
0000
1000
0000
0000
0001
0000
0000
0000
0000
0000
0100
0000
0000
0000
0100
0000
0010
0000
0000
0000
0000
0000
0100
0000
0000
0000
0010
0000
0001
0000
0000
0000
0000
0000
0010
0000
0000
0000
0100
0000
,
0001
0000
0000
0100
0000
0000
0001
0000
0000
0000
0000
0000
1000
0000
0000
0010
0000
0000
1000
0000
0000
0000
0010
0000
0100
0000
0000
0000
0000
0000
1000
0000
0000
0000
0100
0000
0010
0000
0000
0000
0000
0000
0001
0000
0000
0000
0010
0000
,
0001
0000
0000
0100
0000
0000
0001
0000
0000
0000
0000
0000
1000
0000
0000
0010
0000
0000
1000
0000
0000
0000
0010
0000
1000
0000
0000
0000
0000
0000
0010
0000
0000
0000
1000
0000
0010
0000
0000
0000
0000
0000
0100
0000
0000
0000
0001
0000
,
0100
0000
0000
0001
0000
0000
0100
0000
0000
0000
0000
0000
1000
0000
0000
0010
0000
0000
1000
0000
0000
0000
0001
0000
0100
0000
0000
0000
0000
0000
0001
0000
0000
0000
1000
0000
0100
0000
0000
0000
0000
0000
0010
0000
0000
0000
0001
0000
,
0011
0000
0011
0011
1001
1001
1010
1010
,
0110
0110
0101
0101
0011
0011
0110
0110
,
1100
1100
1001
1001
0101
0101
0110
1001
,
1010
1010
1100
1100
0110
0110
0011
0011
,
1000
0010
1000
0001
0100
0010
1000
0010
0100
0001
1000
0010
1000
0010
1000
0001
,
0010
0001
1000
0010
1000
0010
1000
0001
0100
0010
1000
0010
0100
0001
0100
0010
,
1000
0010
0100
0001
0100
0010
1000
0010
0100
0001
0100
0010
1000
0010
0100
0001
,
0100
0010
1000
0010
0100
0001
1000
0010
0100
0001
0100
0010
1000
0010
0100
0001
,
1000
0000
0001
0000
1000
0010
0000
1000
0010
0000
1000
0010
0000
1000
0010
0000
,
0100
0000
0001
0000
0001
0100
0000
0001
0100
0000
0001
0100
0000
0001
0100
0000
,
0010
0000
1000
0000
0001
0100
0000
0001
0100
0000
0001
0100
0000
0001
0100
0000
,
001M
0000
100M
0000
001M
0100
0000
0100
0001
0000
0001
0100
0000
0100
0001
0000
,
0001
0100
0010
1000
0010
0100
0001
1000
0010
0100
0001
0100
0010
1000
0010
0100
,
0001
1000
0010
1000
0010
1000
0001
1000
0010
0100
0001
1000
0010
0100
0001
1000
,
0001
0000
0000
0100
0000
0010
1000
0000
0000
0010
0000
0100
0001
0000
0000
0100
0000
0010
1000
0000
0000
0010
0000
1000
,
0001
0000
0000
0100
0000
0010
1000
0000
0000
0100
0000
0001
0100
0000
0000
0001
0000
0010
0100
0000
0000
1000
0000
0010
,
0100
0000
0000
0001
0000
1000
0100
0000
0000
0001
0000
0010
0100
0000
0000
1000
0000
0010
1000
0000
0000
0100
0000
0001
,
0100
0000
0000
1000
0000
0001
0100
0000
0000
0010
0000
0100
1000
0000
0000
0010
0000
0100
0001
0000
0000
0001
0000
1000
,
0001
0000
0000
0000
0000
1000
0100
0000
0000
0000
0000
0001
0010
0000
0000
0000
0000
0100
1000
0000
0000
0000
0000
0000
,
0010
0000
0000
0000
0000
0001
0100
0000
0000
0000
0000
0100
1000
0000
0000
0000
0000
0001
0100
0000
0000
0000
0000
0000
,
1000
0000
0000
0010
0000
0000
0100
0000
0000
0001
0000
0000
1000
0000
0000
0010
0000
0000
0100
0000
0000
0010
0000
0000
1000
0000
0000
0000
0000
0000
0000
0000
0000
0000
0100
0000
0010
0000
0000
0000
0000
0000
0000
0000
0000
0000
0010
0000
,
0001
0000
0000
0100
0000
0000
0010
0000
0000
1000
0000
0000
0001
0000
0000
0100
0000
0000
0010
0000
0000
1000
0000
0000
0001
0000
0000
0000
0000
0000
0000
0000
0000
0000
0010
0000
0100
0000
0000
0000
0000
0000
0000
0000
0000
0000
0010
0000
,
1000
0000
0000
0001
0000
0000
0100
0000
0000
0010
0000
0000
1000
0000
0000
0001
0000
0000
0100
0000
0000
0001
0000
0000
1000
0000
0000
0000
0000
0000
0000
0000
0000
0000
0100
0000
0010
0000
0000
0000
0000
0000
0000
0000
0000
0000
0001
0000
,
1000
0100
0010
0001
0010
0100
1000
0010
,
0100
0001
0100
0010
1000
0010
0100
0001
,
1000
0010
0100
0001
0100
0001
1000
0010
,
0100
0001
0100
0010
1000
0001
1000
0001
;

//---------------dance-single - ----------------
#NOTES:
     dance-single:
     :
     Beginner:
     3:
     0.176,0.274,0.108,0.081,0.000:
0000
0000
0000
0000
,
1000
0000
0001
0000
,
0100
0000
0010
0000
,
1000
0000
0100
0000
,
0010
0000
0100
0000
,
0001
0000
1000
0000
,
0001
0000
0010
0000
,
0100
0000
1000
0000
,
0001
0001
0001
0000
,
1000
1000
1000
0000
,
0100
0100
0100
0000
,
0001
0001
0001
0000
,
0001
0000
0010
0000
,
0100
0000
1000
0000
,
0100
0000
0010
0000
,
0001
0000
1000
0000
,
1001
0000
0110
0000
,
1001
0000
0110
0000
,
0001
0000
0000
0000
,
1000
0000
0000
0000
,
0100
0000
0000
0000
,
0010
0000
0000
0000
,
0001
0000
1000
0000
,
0001
0000
1000
0000
,
0010
0000
1000
0000
,
0001
0000
1000
0000
,
0001
0000
0001
0000
,
1000
0000
1000
0000
,
0001
0001
0001
0000
,
1000
1000
1000
0000
,
0001
0000
0000
0000
,
0001
0000
0000
0000
,
1000
0000
0000
0000
,
0010
0000
0000
0000
,
0100
0000
0000
0000
,
0001
0000
0001
0000
,
0100
0000
0100
0000
,
0010
0000
0010
0000
,
1000
0000
0100
0000
,
0010
0000
0001
0000
,
0010
0000
0100
0000
,
1000
0000
0001
0000
,
1000
0000
0010
0000
,
0100
0000
0001
0000
,
1000
1000
1000
0000
,
0001
0000
0000
0000
,
0002
0000
0000
0003
,
2000
0000
0000
3000
,
0020
0000
0000
0030
,
0200
0000
0000
0300
,
1001
0000
0000
0000
,
0110
0000
0000
0000
,
1001
0000
0000
0000
,
1000
1000
1000
0000
,
0001
0001
0001
0000
,
0100
0000
0010
0000
,
1000
0000
0010
0000
,
0100
0000
0001
0000
,
0100
0000
0001
0000
,
1001
0000
0110
0000
,
1001
0000
0110
0000
,
2000
0000
3000
0000
,
0002
0000
0003
0000
,
2000
0000
3000
0000
,
2002
0000
0000
0000
,
0000
0000
0000
0000
,
0000
0000
0000
0000
,
0000
0000
0000
3003
;

//---------------dance-single - ----------------
#NOTES:
     dance-single:
     :
     Easy:
     6:
     0.237,0.273,0.009,0.018,0.000: // measure 1
0000
0000
0000
0000
,  // measure 2
0001
1000
0010
0100
,  // measure 3
0001
1000
0100
0010
,  // measure 4
0001
1000
0010
0100
,  // measure 5
0001
1000
0010
0100
,  // measure 6
0001
1000
0100
0010
,  // measure 7
0100
0010
0001
1000
,  // measure 8
0010
0001
1000
0100
,  // measure 9
0010
0000
0001
0000
,  // measure 10
1000
0000
0100
0000
,  // measure 11
0010
0000
0001
0000
,  // measure 12
1000
0000
0001
0000
,  // measure 13
1000
0001
1000
0001
,  // measure 14
0100
0010
0100
0010
,  // measure 15
0001
1000
0100
0010
,  // measure 16
0100
0010
0001
0100
,  // measure 17
0010
1000
0010
1000
,  // measure 18
0001
0100
0010
1000
,  // measure 19
0001
0000
1000
0000
,  // measure 20
0010
0000
0100
0000
,  // measure 21
0001
0000
1000
0000
,  // measure 22
0010
0000
0100
0000
,  // measure 23
0001
0000
1000
0000
,  // measure 24
0100
0000
0010
0000
,  // measure 25
0001
0000
1000
0000
,  // measure 26
0001
0000
1000
0000
,  // measure 27
0100
0010
0001
1000
,  // measure 28
0010
0100
0001
1000
,  // measure 29
0010
1000
0010
0100
,  // measure 30
0001
0010
0100
0010
,  // measure 31
0100
0000
0000
0000
,  // measure 32
0001
1000
0100
0010
,  // measure 33
0001
0100
0010
1000
,  // measure 34
0010
0001
1000
0000
,  // measure 35
0001
1000
0100
0010
,  // measure 36
0001
1000
0010
1000
,  // measure 37
0001
1000
0010
0100
,  // measure 38
0001
0010
0100
1000
,  // measure 39
0001
0010
0100
1000
,  // measure 40
0010
0100
0010
1000
,  // measure 41
0001
0010
0100
1000
,  // measure 42
0001
0000
0001
0000
,  // measure 43
1000
0000
1000
0000
,  // measure 44
0010
0000
0010
0000
,  // measure 45
0100
0000
0100
0000
,  // measure 46
0001
0000
0001
0000
,  // measure 47
0001
0000
1000
0000
,  // measure 48
1000
0000
0010
0000
,  // measure 49
0100
0000
0010
0000
,  // measure 50
1000
0000
0001
0000
,  // measure 51
0010
0000
0010
0000
,  // measure 52
1000
0000
1000
0000
,  // measure 53
0001
0000
0001
0000
,  // measure 54
1000
0000
0100
0000
,  // measure 55
1000
0000
0001
0000
,  // measure 56
1000
0001
0100
0010
,  // measure 57
1000
0001
0100
0010
,  // measure 58
1000
0001
0100
0010
,  // measure 59
1000
0001
1000
0001
,  // measure 60
0100
0000
0000
0000
,  // measure 61
0000
0000
0000
0000
,  // measure 62
0001
0000
0000
0000
,  // measure 63
1000
0000
0000
0000
,  // measure 64
0001
0000
0000
0000
,  // measure 65
2002
0000
0000
0000
,  // measure 66
0000
0000
0000
0000
,  // measure 67
0000
0000
0000
0000
,  // measure 68
0000
0000
0000
3003
0000
0000
0000
0000
;
