#TITLE:Z#00;
#SUBTITLE:Over and Out;
#ARTIST:choife;
#TITLETRANSLIT:;
#SUBTITLETRANSLIT:;
#ARTISTTRANSLIT:;
#CREDIT:;
#BANNER:Z #00 Over and Out.png;
#BACKGROUND:Z #00 Over and Out-bg.png;
#LYRICSPATH:;
#CDTITLE:;
#MUSIC:Z #00 Over and Out.ogg;
#OFFSET:-0.040;
#SAMPLESTART:40.140;
#SAMPLELENGTH:9.600;
#SELECTABLE:YES;
#DISPLAYBPM:*;
#BPMS:0.000=200.000,36.000=399.998,164.000=95.000,178.000=399.999,268.000=800.013,284.000=101.000,300.000=399.999,480.000=100.000,480.167=399.998,481.000=800.012;
#STOPS:178.000=0.960
,244.000=0.160
,247.000=0.160
,250.000=0.060
,250.500=0.080
,252.000=0.160
,256.000=0.160
,259.000=0.160
,262.000=0.060
,262.500=0.080
,264.000=0.160
;
#BGCHANGES:0.000=Z #00 Over and Out.avi=0.800=1=1=0,
480.167=Z #00 Over and Out-bg.png=1.000=0=0=1,
99999=-nosongbg-=1.000=0=0=0 // don't automatically add -songbackground-
;

//---------------dance-single - ----------------
#NOTES:
     dance-single:
     :
     Hard:
     10:
     0.847,1.000,0.182,0.235,0.053: // measure 1
0000
0000
0000
0000
,  // measure 2
0000
0000
0000
0000
,  // measure 3
0000
0000
0000
0000
,  // measure 4
0000
0000
0000
0000
,  // measure 5
0010
0000
1000
0100
1000
0001
0100
0000
,  // measure 6
0010
0000
1000
0001
0010
0100
0010
0000
,  // measure 7
0001
0100
0010
1000
0001
0010
0100
0010
,  // measure 8
0001
0000
1000
0010
0000
0010
1000
0000
0001
0010
0001
0000
0100
0000
0010
0000
,  // measure 9
2000
0000
0000
3000
,  // measure 10
1000
0010
0100
0001
,  // measure 11
0010
0001
0100
0010
,  // measure 12
1000
0001
0010
0100
,  // measure 13
0010
0001
0100
0010
,  // measure 14
1000
0001
0100
0010
,  // measure 15
1000
0100
0010
0001
,  // measure 16
0100
0010
1000
0001
,  // measure 17
0010
0000
0100
1000
0000
1000
0010
0100
,  // measure 18
0001
0010
0001
1000
,  // measure 19
0010
0100
0001
1000
,  // measure 20
0010
0001
0010
0100
,  // measure 21
1000
0001
0010
0100
,  // measure 22
1000
0100
0010
0001
,  // measure 23
1000
0010
0100
0010
,  // measure 24
1000
0001
0010
0001
,  // measure 25
0100
0010
2002
3003
,  // measure 26
0010
0100
0001
0100
,  // measure 27
0001
1000
0001
0010
,  // measure 28
0100
1000
0100
0010
,  // measure 29
0001
1000
0010
0100
,  // measure 30
0010
1000
0001
0010
,  // measure 31
0001
0100
0010
1000
,  // measure 32
0100
0010
0100
1000
,  // measure 33
0001
0000
0100
0010
0000
1000
0001
0010
,  // measure 34
0001
0010
0001
0100
,  // measure 35
0010
1000
0001
0010
,  // measure 36
0001
0100
0010
1000
,  // measure 37
0001
0010
0100
1000
,  // measure 38
0100
0010
0001
1000
,  // measure 39
0010
0100
0010
1000
,  // measure 40
0001
0010
0100
1000
,  // measure 41
0100
0010
0001
1000
,  // measure 42
0010
1000
0100
0001
0100
1000
0010
0100
,  // measure 43
0001
0010
0100
0001
0100
0010
0001
0100
,  // measure 44
0010
1000
0200
0000
1300
0010
0200
0000
0301
0010
0002
0000
0103
0010
2000
0000
,  // measure 45
3001
0010
0200
0000
1300
0100
0020
0000
0032
0000
0000
0000
1000
0000
0000
0000
,  // measure 46
1003
0010
0100
1000
,  // measure 47
0100
0010
1000
0001
,  // measure 48
0010
0100
0001
0100
,  // measure 49
0010
0000
0001
0000
0100
0010
1000
0001
,  // measure 50
0100
0001
0010
0100
,  // measure 51
0010
0001
0100
0010
,  // measure 52
1000
0001
0010
0100
,  // measure 53
0010
0000
0001
0000
0100
0010
1000
0010
,  // measure 54
0100
0000
0001
0100
0001
0000
0010
0000
,  // measure 55
0100
0000
1000
0001
1000
0000
0010
0000
,  // measure 56
0100
0000
0001
0100
0001
0000
0010
0000
,  // measure 57
0001
0000
0100
1000
0100
0000
0010
0000
,  // measure 58
1000
0001
0010
0100
,  // measure 59
1000
0001
0100
0010
,  // measure 60
1000
0010
1000
0000
0001
0010
0001
0000
,  // measure 61
0100
0010
1000
0010
0100
0001
0010
0100
,  // measure 62
1000
0000
0000
1000
0001
0000
0011
0000
,  // measure 63
0000
0010
0001
0000
0100
0101
0000
0000
,  // measure 64
1100
0000
0010
0000
1000
0010
0100
0001
,  // measure 65
0010
0000
0000
0010
0001
0000
0101
0000
,  // measure 66
0000
0100
0010
0000
1000
0100
0000
0000
,  // measure 67
0001
0000
0100
0000
1000
0010
0100
0001
,  // measure 68
2000
0000
0000
0000
,  // measure 69
0000
0000
0000
0000
,  // measure 70
0000
0000
0000
0000
,  // measure 71
0000
0000
0000
0000
,  // measure 72
3010
0001
0102
0100
0013
1000
1200
1000
,  // measure 73
0301
0100
0102
0100
0013
1000
2100
0001
,  // measure 74
3100
0010
0001
0010
0100
0001
0010
0100
,  // measure 75
1000
1100
0001
0101
1000
1010
0022
0033
,  // measure 76
1100
1000
0010
0100
,  // measure 77
0001
0010
0100
0010
,  // measure 78
0001
0100
0010
1000
,  // measure 79
0001
0010
0001
0100
,  // measure 80
0010
1000
0100
0010
,  // measure 81
0100
1000
0001
0100
,  // measure 82
0010
1000
0001
0010
,  // measure 83
0100
0000
1000
0010
0100
0000
0001
0010
,  // measure 84
0001
0100
0010
1000
,  // measure 85
0001
0010
0100
1000
,  // measure 86
0100
0010
0001
0100
,  // measure 87
0010
1000
0001
0010
,  // measure 88
0011
0001
0100
0010
,  // measure 89
1000
0100
1000
0010
,  // measure 90
0220
0000
0000
0330
,  // measure 91
0001
0100
0001
0100
0010
1000
0010
1000
,  // measure 92
0001
0010
0100
0010
0001
0000
1000
0010
,  // measure 93
0100
0010
1000
0000
0001
0100
0010
1000
,  // measure 94
0001
0000
0001
0010
0100
1000
0010
0000
,  // measure 95
0010
1000
0100
0001
0100
0000
1000
0010
,  // measure 96
0100
0001
0010
0000
0010
0001
0100
0010
,  // measure 97
1000
0000
0001
0100
0010
1000
0001
0000
,  // measure 98
0001
0100
0010
1000
0100
0000
0010
0001
,  // measure 99
0100
0010
1000
0000
0010
0100
0001
0010
,  // measure 100
0100
1000
0100
0000
0010
0001
0100
0000
,  // measure 101
0010
1000
0001
0000
0001
0100
0010
0000
,  // measure 102
0010
1000
0100
0000
0100
1000
0010
0000
,  // measure 103
0100
0001
0010
0000
0010
0001
0100
0000
,  // measure 104
0010
1000
0100
0010
0001
0100
0010
0100
,  // measure 105
0001
0010
0100
1000
0001
0100
0010
1000
,  // measure 106
0010
0100
0001
0010
0100
1000
0100
0010
,  // measure 107
0001
0100
0010
1000
0100
1000
0010
0100
,  // measure 108
0002
0000
0000
0000
,  // measure 109
0000
0000
0000
0000
,  // measure 110
0000
0000
0000
0000
,  // measure 111
0000
0000
0000
0000
,  // measure 112
0000
0000
0000
0000
,  // measure 113
0000
0000
0000
0000
,  // measure 114
0000
0000
0000
0000
,  // measure 115
0000
0000
0000
0000
,  // measure 116
0000
0000
0000
0000
,  // measure 117
0000
0000
0000
0000
,  // measure 118
0000
0000
0000
0000
,  // measure 119
0000
0000
0000
0000
,  // measure 120
0003
0000
0000
0000
,  // measure 121
0000
2002
0000
0000
0000
0000
0000
0000
0000
0000
0000
0000
0000
0000
0000
0000
0000
0000
0000
0000
0000
0000
0000
0000
,  // measure 122
0000
0000
0000
0000
,  // measure 123
0000
0000
3003
0000
;

//---------------dance-single - ----------------
#NOTES:
     dance-single:
     :
     Beginner:
     3:
     0.191,0.343,0.075,0.043,0.000:
0000
0000
0000
0000
,
0000
0000
0000
0000
,
0000
0000
0000
0000
,
0000
0000
0000
0000
,
1000
0000
1000
0000
,
0001
0000
0001
0000
,
0100
0000
0010
0000
,
1000
0000
0001
0000
,
2002
0000
3003
0000
,
0001
0000
0000
0000
,
0001
0000
0000
0000
,
1000
0000
0000
0000
,
1000
0000
0000
0000
,
0010
0000
0000
0000
,
0100
0000
0000
0000
,
0001
0000
0000
0000
,
1000
0000
0000
0000
,
0100
0000
0000
0000
,
0100
0000
0000
0000
,
0010
0000
0000
0000
,
0010
0000
0000
0000
,
0001
0000
0000
0000
,
0100
0000
0000
0000
,
0010
0000
0000
0000
,
0000
0000
0000
0000
,
0010
0000
0000
0000
,
1000
0000
0000
0000
,
0100
0000
0000
0000
,
1000
0000
0000
0000
,
0010
0000
0000
0000
,
0100
0000
0000
0000
,
0001
0000
0000
0000
,
0100
0000
0000
0000
,
0010
0000
0000
0000
,
1000
0000
0000
0000
,
0100
0000
0000
0000
,
0010
0000
0000
0000
,
0001
0000
0000
0000
,
0100
0000
0000
0000
,
0010
0000
0000
0000
,
0000
0000
0000
0000
,
0010
0000
1000
0000
,
0100
0000
0001
0000
,
0010
0001
0010
0000
,
0100
1000
0100
0000
,
1000
0000
0000
0000
,
1000
0000
0000
0000
,
0001
0000
0000
0000
,
0001
0000
0000
0000
,
0000
0100
0000
0000
,
0100
0000
0000
0000
,
0010
0000
0000
0000
,
0010
0000
0000
0000
,
1000
0000
0000
0000
,
0001
0000
0000
0000
,
1000
0000
0000
0000
,
0001
0000
0000
0000
,
0100
0000
0000
0000
,
0010
0000
0000
0000
,
0100
0000
0000
0000
,
0010
0000
0000
0000
,
1001
0000
0000
0000
,
0000
0000
1000
0000
,
0000
0000
0000
0000
,
0001
0000
0000
0000
,
0000
0000
0100
0000
,
0000
0000
0000
0000
,
0020
0000
0000
0000
,
0000
0000
0000
0000
,
0000
0000
0000
0000
,
0000
0000
0000
0000
,
0030
0000
1000
0000
,
0001
0000
0100
0000
,
0010
0000
0100
0000
,
0001
0000
1000
0000
,
0001
0000
0000
0000
,
0001
0000
0000
0000
,
1000
0000
0000
0000
,
1000
0000
0000
0000
,
0010
0000
0000
0000
,
0010
0000
0000
0000
,
0100
0000
0000
0000
,
0100
0000
0000
0000
,
0001
0000
0000
0000
,
0010
0000
0000
0000
,
0100
0000
0000
0000
,
1000
0000
0000
0000
,
0010
0000
0000
0000
,
0100
0000
0000
0000
,
0002
0000
0000
0000
,
0003
0000
0000
0000
,
0001
0000
0001
0000
,
0001
0000
0000
0000
,
0001
0000
0000
0000
,
0001
0000
0000
0000
,
1000
0000
1000
0000
,
1000
0000
1000
0000
,
1000
0000
0000
0000
,
1000
0000
0000
0000
,
0010
0000
0010
0000
,
0010
0000
0000
0000
,
0100
0000
0100
0000
,
0100
0000
0000
0000
,
1001
0000
0000
0000
,
0110
0000
0000
0000
,
1001
0000
0000
0000
,
0110
0000
0000
0000
,
1001
0000
0000
0000
;

//---------------dance-single - ----------------
#NOTES:
     dance-single:
     :
     Easy:
     9:
     0.428,0.963,0.128,0.139,0.005:
0000
0000
0000
0000
,
0000
0000
0000
0000
,
0000
0000
0000
0000
,
0000
0000
0000
0000
,
1000
0000
1000
0010
,
0100
0000
0100
0001
,
0010
0100
0010
0001
,
1000
0010
0100
0001
,
0020
0000
0000
0000
,
0031
0000
0100
0000
,
0010
1000
0100
0000
,
1000
0000
0001
0000
,
0100
0010
1000
0000
,
0001
0000
0010
0000
,
0100
0010
0001
0000
,
0100
0000
0010
0000
,
1000
0001
0010
0000
,
0100
0000
1000
0000
,
0100
0010
0001
0000
,
1000
0000
0010
0000
,
0100
0001
1000
0000
,
0100
0000
0010
0000
,
0100
1000
0001
0000
,
0200
0000
0000
0000
,
0000
0000
0000
0000
,
0310
0000
1000
0000
,
0100
0010
0100
0000
,
1000
0000
0001
0000
,
0100
0010
1000
0000
,
0001
0000
0010
0000
,
0100
1000
0100
0000
,
0010
0000
0001
0000
,
1000
0010
0100
0000
,
0001
0000
0010
0000
,
0001
0100
0010
0000
,
1000
0000
0001
0000
,
0010
0100
0010
0000
,
0001
0000
0100
0000
,
0010
1000
0001
0000
,
0010
0000
0100
0000
,
1000
0000
0001
0000
,
0010
0001
0010
0000
0100
1000
0100
0000
,
1000
0010
1000
0000
0001
0100
0001
0000
,
0020
0000
0032
0000
0103
0010
2000
0000
,
3200
0320
0031
0000
,
0010
0000
0001
0000
,
0010
0000
0001
0000
,
1000
0000
0100
0000
,
1000
0000
0100
0000
,
1000
0000
0010
0000
,
1000
0000
0010
0000
,
0100
0000
0001
0000
,
0100
0000
0001
0100
,
0001
0000
0010
0000
,
0100
0000
1000
0000
,
0001
0000
0100
0000
,
0010
0000
1000
0000
,
0001
1000
0001
1000
,
0001
1000
0001
1000
,
0001
1000
0001
1000
,
0001
1000
0001
1000
,
0001
0000
0010
0010
,
0000
0100
0100
0000
,
1000
0001
0000
0000
,
0100
0000
0010
0010
,
0000
1000
0001
0000
,
0100
0010
0000
0000
,
2002
0000
0000
0000
,
0000
0000
0000
0000
,
0000
0000
0000
0000
,
0000
0000
0000
0000
,
3003
0000
0100
0000
0010
1000
0100
0000
,
0010
0000
0100
0000
1000
0010
0100
0000
,
0001
0000
0010
0000
0001
1000
0010
0000
,
0100
0000
0001
0000
0100
1000
0100
0000
,
0001
0000
0010
0000
,
0100
1000
0100
0000
,
0010
0000
0001
0000
,
1000
0010
0100
0000
,
0001
0000
0100
0000
,
0010
1000
0001
0000
,
0010
0000
0100
0000
,
1000
0001
0100
0000
,
0010
0000
1000
0000
,
0100
0010
0100
0000
,
1000
0000
0001
0000
,
0100
0010
1000
0000
,
0001
0000
0010
0000
,
0100
1000
0001
0000
,
2002
0000
0000
0000
,
3003
0000
0000
0000
,
0010
0000
1000
0000
,
0100
0000
1000
0000
,
0010
0000
0100
0000
,
0001
0000
0100
0000
,
0010
0000
1000
0000
,
0001
0000
0010
0000
,
0100
0000
1000
0000
,
0100
0000
0010
0000
,
0001
0000
0001
0000
,
0100
0000
0100
0000
,
0010
0000
0010
0000
,
1000
0000
1000
0000
,
1001
0000
0110
0000
,
1001
0000
0110
0000
,
1100
0000
0011
0000
,
0101
0000
1010
0000
,
2002
0000
0000
0000
,
0000
0000
0000
0000
,
0000
0000
0000
0000
,
0000
0000
0000
0000
,
0000
0000
0000
0000
,
0000
0000
0000
0000
,
0000
0000
0000
0000
,
0000
0000
0000
0000
,
0000
0000
0000
0000
,
0000
0000
0000
0000
,
0000
0000
0000
0000
,
0000
0000
0000
0000
,
3003
0000
0000
0000
,
0000
1001
0000
0000
0000
0000
0000
0000
0000
0000
0000
0000
0000
0000
0000
0000
0000
0000
0000
0000
0000
0000
0000
0000
;

//---------------dance-single - ----------------
#NOTES:
     dance-single:
     :
     Medium:
     9:
     0.639,0.983,0.043,0.107,0.005:
0000
0000
0000
0000
,
0000
0000
0000
0000
,
0000
0000
0000
0000
,
0000
0000
0000
0000
,
0010
1000
0100
0000
1000
0001
0100
0000
,
0010
0000
1000
0000
0001
0010
0100
0000
,
0010
0001
0100
0000
0010
1000
0001
0000
,
1000
0000
0010
0100
0001
0000
0100
0010
,
2000
0000
0000
0000
,
3001
0010
0100
0010
,
0001
0100
0010
1000
,
0001
0100
0010
1000
,
0010
0100
0001
0000
,
0010
0001
0100
0010
,
1000
0100
0010
0100
,
1000
0001
0100
0010
,
1000
0001
0010
0000
,
0010
0001
0100
0010
,
1000
0001
0010
0100
,
1000
0100
0010
0001
,
1000
0010
0100
0000
,
0010
1000
0001
0010
,
0100
1000
0100
0010
,
0001
1000
0010
0100
,
0001
0000
1001
0000
,
0001
0100
0010
1000
,
0001
0010
0100
0000
,
0010
0001
0100
0010
,
1000
0100
1000
0000
,
0001
0100
0010
1000
,
0001
0010
0100
0000
,
0010
0001
0100
0010
,
1000
0001
0010
0000
,
0001
0010
0100
0010
,
0001
0100
0010
0000
,
1000
0001
0010
0100
,
1000
0100
0010
0000
,
0001
1000
0010
0100
,
0001
0100
0010
0000
,
1000
0100
0010
0001
,
1000
0010
0100
0001
,
1000
0010
0100
0000
0001
0100
0010
0000
,
1000
0100
0010
0000
0010
0100
1000
0000
,
0001
0010
0100
0001
0100
0010
0001
0100
,
0010
1000
0100
0010
0100
0000
0000
0000
,
1000
0010
0100
0001
,
0010
0001
1000
0010
,
0100
0010
1000
0001
,
0010
0100
0010
0000
,
0001
0100
0010
1000
,
0001
0010
0100
1000
,
0100
0010
0001
1000
,
0010
0100
0001
0000
,
0100
0010
1000
0001
,
0010
0000
0001
0100
,
0010
1000
0100
0010
,
0100
0000
1000
0001
,
0100
0010
1000
0001
,
0010
0100
1000
0100
,
0010
0001
1000
0010
,
0100
0010
1000
0001
,
0010
0000
0000
0010
0000
0000
0001
0000
,
0000
0001
0000
0000
0100
0010
0000
0000
,
0100
0001
0000
0000
,
0010
0000
0000
0010
0000
0100
1000
0000
,
0000
1000
0000
0000
0010
0100
0000
0000
,
0001
0010
0100
1000
,
0002
0000
0000
0000
,
0000
0000
0000
0000
,
0000
0000
0000
0000
,
0000
0000
0000
0000
,
1003
0100
0001
0000
0001
0100
1000
0000
,
1000
0010
0001
0000
0001
0010
1000
0000
,
1000
0010
0100
1000
0100
0010
2000
0000
,
3001
0010
0100
0001
0100
0010
0002
0000
,
1003
0010
1000
0010
,
0100
0001
0100
0001
,
0010
0001
0010
0001
,
1000
0100
1000
0100
,
1000
0001
0100
0010
,
1000
0001
0010
0100
,
1000
0100
0010
0001
,
1000
0010
0100
0001
,
0100
0010
0100
0010
,
1000
0001
1000
0001
,
0010
0001
0010
0001
,
1000
0100
1000
0100
,
1000
0001
0100
0010
,
1000
0001
0010
0000
,
2002
0000
3003
0000
,
1000
0010
1000
0000
0001
0100
0001
0000
,
0010
0001
0100
0010
,
1000
0001
0010
0100
,
1000
0100
0010
0001
,
1000
0010
0100
0001
,
1000
0100
1000
0000
0010
0000
0100
0000
,
0001
0010
0100
1000
,
0010
1000
0010
0100
,
0001
0010
0001
0100
,
0010
1000
0010
0000
0100
0000
0001
0000
,
0100
0010
0100
0000
1000
0000
0010
0000
,
0100
0001
0100
0000
0010
0000
1000
0000
,
0001
0010
0001
0000
1000
0000
0010
0000
,
0100
0001
0010
0100
,
1000
0100
0010
0001
,
1000
0010
0100
0001
,
0010
0001
0100
0010
,
2002
0000
0000
0000
,
0000
0000
0000
0000
,
0000
0000
0000
0000
,
0000
0000
0000
0000
,
0000
0000
0000
0000
,
0000
0000
0000
0000
,
0000
0000
0000
0000
,
0000
0000
0000
0000
,
0000
0000
0000
0000
,
0000
0000
0000
0000
,
0000
0000
0000
0000
,
0000
0000
0000
0000
,
3003
0000
0000
0000
,
0000
0220
0000
0000
0000
0000
0000
0000
0000
0000
0000
0000
0000
0000
0000
0000
0000
0000
0000
0000
0000
0000
0000
0000
,
0000
0000
0000
0000
,
0000
0000
0330
0000
;

//---------------dance-single - ----------------
#NOTES:
     dance-single:
     :
     Challenge:
     10:
     0.990,1.000,0.214,0.235,0.257: // measure 1
0000
0000
0000
0000
,  // measure 2
0000
0000
0000
0000
,  // measure 3
0000
0000
0000
0000
,  // measure 4
0000
0000
0000
0000
,  // measure 5
0010
1000
0100
1000
0001
0100
0010
1000
,  // measure 6
0001
0010
0100
0010
0001
1000
0010
0100
,  // measure 7
0010
1000
0001
0010
0100
1000
0100
0010
,  // measure 8
0001
0000
1000
0010
0000
0100
0001
0000
1000
0100
1000
0100
0010
0001
0010
0001
,  // measure 9
0020
0000
0000
0000
,  // measure 10
0031
0100
0010
1000
,  // measure 11
0100
0010
0100
1000
,  // measure 12
0001
0100
1001
1000
,  // measure 13
0001
0010
0100
1000
,  // measure 14
0100
0010
0001
1000
,  // measure 15
0010
0100
0010
1000
,  // measure 16
0001
0010
1100
1000
,  // measure 17
0100
0000
0010
0001
0100
0000
0010
1000
,  // measure 18
0100
0010
0001
1000
,  // measure 19
0010
0100
0001
0010
,  // measure 20
0100
1000
1100
0010
,  // measure 21
0001
1000
0010
0100
,  // measure 22
0001
0010
0001
0100
,  // measure 23
0010
1000
0001
0010
,  // measure 24
0100
0000
1000
0100
0000
0100
1000
0010
,  // measure 25
0100
0000
0001
0010
0000
0010
0001
0100
,  // measure 26
0010
1000
0100
1000
,  // measure 27
0001
0100
0010
1000
,  // measure 28
0001
0010
1100
0010
,  // measure 29
0001
0100
0010
1000
,  // measure 30
0001
0010
0100
0010
,  // measure 31
0001
1000
0010
0100
,  // measure 32
0001
0100
0101
1000
,  // measure 33
0001
0000
0010
1000
0010
0000
0001
0000
,  // measure 34
0100
1000
0100
0000
0010
0000
1000
0000
,  // measure 35
0001
0010
0110
1000
,  // measure 36
0100
0010
0001
1000
,  // measure 37
0010
0100
0001
0010
,  // measure 38
0001
0100
0010
1000
,  // measure 39
0001
0010
1100
1000
,  // measure 40
0001
0100
0001
0000
0100
0010
0100
0000
,  // measure 41
0010
1000
0010
0100
0001
0010
0100
1000
,  // measure 42
0001
0010
0000
0000
0100
1000
0000
0000
0010
0100
0000
0000
1000
0100
0000
0000
0010
1000
0000
0000
0100
0001
0000
0000
0001
0100
0000
0000
0100
0010
0000
0000
,  // measure 43
0010
1000
0000
0000
1000
0100
0000
0000
0100
0010
0000
0000
0010
0001
0000
0000
0001
0100
0000
0000
0100
0010
0000
0000
0010
1000
0000
0000
1000
0001
0000
0000
,  // measure 44
0001
0000
0010
0000
0100
0000
1000
0100
1000
0000
0010
0000
0100
0000
0001
0010
0001
0000
0100
0000
1000
0000
0100
0001
0100
0000
0010
0000
1000
0000
0001
0100
,  // measure 45
0001
0000
0010
0000
0100
0000
1000
0001
1000
0000
0100
0000
0010
0000
0001
0000
1000
0000
0000
0000
0000
0000
0000
0000
1001
0000
0000
0000
0000
0000
0000
0000
,  // measure 46
1000
0000
0010
0001
0010
0000
0100
0000
,  // measure 47
0001
0000
1000
0010
1000
0000
0100
0000
,  // measure 48
0010
0000
0001
1000
0001
0000
0010
0000
,  // measure 49
0100
0000
1000
0010
1000
0000
0010
0000
,  // measure 50
0100
0000
0001
1000
0001
0000
0100
0000
,  // measure 51
0010
0000
1000
0100
1000
0000
0001
0000
,  // measure 52
0010
0000
0100
0001
0100
0000
0010
0000
,  // measure 53
0001
0000
0100
1000
0100
0000
0010
0000
,  // measure 54
1000
0000
0100
0000
0010
0000
0001
0100
,  // measure 55
0010
0000
0100
0000
0001
0000
0010
0100
,  // measure 56
1000
0000
0010
0000
1000
0000
0001
0010
,  // measure 57
0100
0000
0010
0000
0001
0000
0100
0010
,  // measure 58
1000
0100
0010
0001
1000
0100
0001
0100
,  // measure 59
1000
0100
0010
1000
0100
0010
0001
0100
,  // measure 60
0010
1000
0001
0010
0100
0001
0100
0010
,  // measure 61
0001
0100
0010
1000
0001
0010
0100
1000
,  // measure 62
0010
0000
0000
0010
0100
0000
1001
0000
,  // measure 63
0000
0001
0010
0000
1100
1010
0000
0000
,  // measure 64
0101
0000
1001
0000
1000
0010
0100
0001
,  // measure 65
0011
0000
0000
0001
0100
0000
0110
0000
,  // measure 66
0000
0010
1000
0000
1010
0101
0000
0000
,  // measure 67
1001
0000
1000
0000
0010
0100
0001
1000
,  // measure 68
0020
0000
0000
0000
,  // measure 69
0000
0000
0000
0000
,  // measure 70
0000
0000
0000
0000
,  // measure 71
0000
0000
0000
0000
,  // measure 72
1030
0100
1000
0000
0010
0000
0100
0000
0001
0010
0001
0000
0100
0000
0010
0000
,  // measure 73
1000
0001
0010
0000
0100
0000
1000
0000
0100
0010
0001
0000
1000
0000
0010
0000
,  // measure 74
0100
0001
0010
0000
0100
0000
0010
0000
0001
0100
0010
0000
1000
0000
0100
0000
,  // measure 75
0010
0000
0100
1000
0001
0000
0100
0000
0010
1000
0001
0000
2002
0000
3003
0000
,  // measure 76
1000
0000
0002
0000
0103
0010
0100
0000
,  // measure 77
0001
0000
0020
0000
0031
1000
0001
0000
,  // measure 78
0010
0000
0200
0000
1300
0010
1000
0000
,  // measure 79
0010
0000
0200
0000
0301
0100
0001
0000
,  // measure 80
0010
0000
0200
0000
1300
0010
1000
0000
,  // measure 81
0010
0000
0200
0000
0310
1000
0010
0000
,  // measure 82
1000
0000
0002
0000
0013
1000
0010
0000
,  // measure 83
0001
0000
0100
0010
1000
0000
1000
0001
,  // measure 84
0100
0000
0020
0000
1030
0100
1000
0000
,  // measure 85
0010
0000
0200
0000
0301
0010
0100
0000
,  // measure 86
0010
0000
0002
0000
0103
0010
1000
0000
,  // measure 87
0010
0000
0200
0000
0301
0010
0001
0000
,  // measure 88
0100
0000
0020
0000
1030
0001
0010
0000
,  // measure 89
0001
0000
2000
0000
3010
0100
0001
0000
,  // measure 90
2002
0000
0000
3003
,  // measure 91
1000
0010
0100
0001
1000
0100
0010
0001
,  // measure 92
1000
0100
0010
0100
1000
0001
0100
0000
,  // measure 93
0010
1000
0100
0001
0100
1000
0010
0000
,  // measure 94
0010
0100
0001
0100
0010
1000
0001
0000
,  // measure 95
0010
0100
1000
0001
0100
0010
1000
0000
,  // measure 96
0010
0100
0001
0010
0100
1000
0010
0000
,  // measure 97
0010
1000
0100
1000
0010
0100
0001
0000
,  // measure 98
0010
0001
0100
0010
1000
0100
1000
0000
,  // measure 99
0010
0100
0001
0010
0100
0010
0001
0100
,  // measure 100
0010
1000
0100
0010
0001
0010
0100
1000
,  // measure 101
0010
0100
0001
0010
0100
1000
0100
0010
,  // measure 102
0001
0100
0010
1000
0100
1000
0010
0100
,  // measure 103
0001
0010
0100
0010
0001
0100
0010
1000
,  // measure 104
0001
0010
0100
1000
0001
0010
0100
1000
,  // measure 105
0010
0100
0001
1000
0010
0100
0001
1000
,  // measure 106
0010
1000
0100
0010
0001
0100
0010
1000
,  // measure 107
0001
0010
0100
1000
0010
0100
0001
2000
,  // measure 108
0002
0000
0000
0000
,  // measure 109
0000
0000
0000
0000
,  // measure 110
0000
0000
0000
0000
,  // measure 111
0000
0000
0000
0000
,  // measure 112
0000
0000
0000
0000
,  // measure 113
0000
0000
0000
0000
,  // measure 114
0000
0000
0000
0000
,  // measure 115
0000
0000
0000
0000
,  // measure 116
0000
0000
0000
0000
,  // measure 117
0000
0000
0000
0000
,  // measure 118
0000
0000
0000
0000
,  // measure 119
0000
0000
0000
0000
,  // measure 120
0000
0000
0003
0000
,  // measure 121
0000
0020
0000
0000
0000
0000
0000
0000
0000
0000
0000
0000
0000
0000
0000
0000
0000
0000
0000
0000
0000
0000
0000
0000
,  // measure 122
0000
0000
0000
0000
,  // measure 123
0000
0000
3030
0000
;
