#TITLE:THROUGH THE FIRE AND FLAMES;
#SUBTITLE:;
#ARTIST:DRAGONFORCE;
#TITLETRANSLIT:;
#SUBTITLETRANSLIT:;
#ARTISTTRANSLIT:;
#CREDIT:;
#BANNER:BANNER.png;
#BACKGROUND:BG.png;
#LYRICSPATH:;
#CDTITLE:;
#MUSIC:audio.mp3;
#OFFSET:-0.080;
#SAMPLESTART:110.200;
#SAMPLELENGTH:10.000;
#SELECTABLE:YES;
#DISPLAYBPM:200.000;
#BPMS:0.000=200.000,95.000=181.000,96.000=132.000;
#STOPS:;
#BGCHANGES:31.000=video.avi=1.000=1=0=1,
99999=-nosongbg-=1.000=0=0=0 // don't automatically add -songbackground-
;

//---------------dance-single - ----------------
#NOTES:
     dance-single:
     :
     Hard:
     9:
     0.423,0.456,0.216,0.249,0.158: // measure 1
0000
0000
0000
0000
,  // measure 2
0000
0000
0000
0000
,  // measure 3
0000
0000
0000
0000
,  // measure 4
0000
0000
0000
0000
,  // measure 5
2002
0000
0000
0000
,  // measure 6
0000
0000
0000
3003
,  // measure 7
0220
0000
0000
0330
,  // measure 8
2002
0000
0000
3003
,  // measure 9
0001
0010
0001
0000
1000
0100
1000
0000
,  // measure 10
0010
0000
1000
0000
0001
0000
0100
0000
0010
0000
0100
0000
0001
0100
0001
0100
,  // measure 11
0001
1000
0001
0000
1000
0100
1000
0000
,  // measure 12
0001
0010
0100
0010
0001
1000
0010
0100
,  // measure 13
2002
0000
0000
0000
,  // measure 14
0000
0000
0000
3003
,  // measure 15
0220
0000
0000
0330
,  // measure 16
1001
0110
1001
0000
,  // measure 17
1000
0100
0010
0001
0000
0010
0001
0100
,  // measure 18
0010
1000
0010
0100
0000
0001
0100
0010
,  // measure 19
1000
0100
0010
0100
0000
0010
0100
0010
,  // measure 20
0001
1000
0001
0100
0000
0010
0100
0001
,  // measure 21
0010
1000
0010
0001
0000
1000
0010
0001
,  // measure 22
0010
1000
0100
0010
0000
0100
0010
0001
,  // measure 23
1000
0010
0100
0001
1000
0001
1000
0100
,  // measure 24
0220
0000
0000
0330
,  // measure 25
1000
0000
0000
0100
0000
0000
1000
0000
0001
0000
0000
0000
0010
0001
0010
0000
,  // measure 26
0001
0000
0000
0100
0000
0000
0001
0000
1000
0000
0000
0000
0110
0000
0000
0000
,  // measure 27
0001
1000
0100
0120
0000
0031
0100
0010
,  // measure 28
1000
0000
0000
0000
0010
0000
0000
0000
1000
0001
0000
0001
1000
0100
0010
0000
,  // measure 29
0001
0000
0000
0100
0000
0000
0101
0000
0000
0000
0010
0000
0100
0000
0001
0000
,  // measure 30
1001
0000
0000
1000
0000
0000
0100
0000
0010
0000
0100
0000
1000
0000
0001
0100
,  // measure 31
0001
1000
0010
0200
0000
1300
0100
0001
,  // measure 32
1000
0000
0001
0000
1000
0000
0001
0010
0001
0010
0001
0000
1000
0010
0100
0000
,  // measure 33
0010
0100
0001
0010
1000
0010
0001
2000
,  // measure 34
0000
0000
0010
0000
3010
0000
0000
1000
0100
0000
0000
0000
0011
0000
0000
0000
,  // measure 35
0001
0100
0010
1000
0001
0000
1000
0100
,  // measure 36
0001
0000
0000
0000
0001
0000
0100
0000
0000
0000
0100
0000
1000
0000
0001
1000
,  // measure 37
0001
1000
0010
0100
0001
0010
0100
0020
,  // measure 38
0000
0130
1000
0001
0100
0010
1000
0001
,  // measure 39
0010
0001
0100
0010
2002
0000
3003
1000
,  // measure 40
0100
0000
0010
0000
0001
0000
0200
0000
0000
0000
0310
0000
1000
0001
1000
0000
,  // measure 41
1002
0000
0000
0000
0013
0000
0000
0001
0100
0000
1000
0000
0100
0000
0010
0000
,  // measure 42
1000
0000
0100
0000
0010
0000
0001
0000
0011
0000
0000
0000
1100
0000
0000
1000
,  // measure 43
0020
0000
0000
0000
0130
0000
0000
0100
0001
0000
1000
0000
0100
0000
0001
0000
,  // measure 44
0101
0000
0000
0000
1100
0000
0000
0000
1001
0000
0000
0000
0001
0100
0010
0100
,  // measure 45
0002
0000
0000
0010
0000
0000
1003
0000
0100
0000
0010
0000
0100
0010
0100
1000
,  // measure 46
0200
0000
0000
0001
0000
0000
1300
0000
0001
0000
1000
0000
1001
0000
0000
0000
,  // measure 47
0001
0100
0010
1001
0000
1000
0100
0010
,  // measure 48
0200
0000
0000
0000
1300
0000
0000
0000
1000
0001
0000
0100
0010
1000
0100
0010
,  // measure 49
0200
0000
0000
0001
0000
0000
1300
0000
0001
0000
0100
0000
0010
0000
1000
0000
,  // measure 50
2001
0000
0000
0010
0000
0000
3100
0000
1000
0000
0100
0000
0010
0000
0001
1000
,  // measure 51
0001
0100
1000
0101
0000
0001
1000
0100
,  // measure 52
0010
0000
0001
0000
1000
0000
0001
0000
0100
0010
0000
1000
0010
0100
0001
1000
,  // measure 53
0200
0000
0000
0000
,  // measure 54
1000
0000
0000
1000
0000
0000
2000
0000
0000
0000
0000
0000
3300
0000
0000
0000
,  // measure 55
2002
0000
0000
0000
,  // measure 56
3003
0000
0000
0000
;

//---------------dance-single - ----------------
#NOTES:
     dance-single:
     :
     Medium:
     7:
     0.334,0.388,0.332,0.365,0.037: // measure 1
0000
0000
0000
0000
,  // measure 2
0000
0000
0000
0000
,  // measure 3
0000
0000
0000
0000
,  // measure 4
0000
0000
0000
0000
,  // measure 5
2002
0000
0000
0000
,  // measure 6
0000
0000
0000
3003
,  // measure 7
0220
0000
0000
0330
,  // measure 8
2002
0000
0000
3003
,  // measure 9
0220
0000
0000
0000
,  // measure 10
0000
0000
0330
0110
,  // measure 11
2020
0000
0000
0000
,  // measure 12
0000
0000
0000
3030
,  // measure 13
0202
0000
0000
0000
,  // measure 14
0000
0000
0000
0303
,  // measure 15
2002
0000
0000
3003
,  // measure 16
0110
1001
0110
0000
,  // measure 17
0010
0000
1000
0001
0000
0001
1000
0000
,  // measure 18
0001
0000
0010
0001
0000
1000
0100
0010
,  // measure 19
0100
0000
0010
0001
0000
0001
1000
0000
,  // measure 20
0010
0000
0100
0001
0000
0100
0010
1000
,  // measure 21
0100
0000
0010
0100
0000
1000
0100
0000
,  // measure 22
0010
0000
0001
1000
0000
1000
0010
0100
,  // measure 23
0001
0100
0001
0000
1000
0010
1000
0000
,  // measure 24
2002
0000
0000
3003
,  // measure 25
2001
0000
0000
0001
0000
0000
0002
0000
3003
0000
0000
0000
0001
0000
0200
0000
,  // measure 26
0010
0000
0000
0010
0000
0000
0020
0000
0330
0000
0000
0000
1010
0000
0000
0000
,  // measure 27
1000
0100
0010
0001
0000
0010
0001
0000
,  // measure 28
0011
0000
1100
0000
1010
0000
0001
0200
,  // measure 29
0001
0000
0000
0001
0000
0000
0002
0000
0303
0000
0000
0000
0001
0000
2000
0000
,  // measure 30
0100
0000
0000
0100
0000
0000
0200
0000
3300
0000
0000
0000
1001
0000
0000
0000
,  // measure 31
0101
0000
0100
0010
0000
0010
1000
0001
,  // measure 32
0010
0000
1100
0000
0010
0001
0100
0000
,  // measure 33
1001
0000
0010
0000
1000
0100
1000
0010
,  // measure 34
0200
1000
0010
0301
,  // measure 35
1000
0100
1000
0000
0011
0000
0010
0001
,  // measure 36
0100
0000
0010
1000
0000
1000
0001
0000
,  // measure 37
1000
0100
0010
0000
0100
1000
0100
0020
,  // measure 38
0000
0001
0000
0100
0000
0002
0033
0000
,  // measure 39
0001
1000
0010
0000
0110
0000
0100
0001
,  // measure 40
1000
0000
0100
0010
0000
0010
0100
0000
,  // measure 41
2001
0000
0010
0000
0001
0000
3001
0100
,  // measure 42
0010
0100
0010
0000
1000
0000
0001
1000
,  // measure 43
2100
0000
0010
0000
3001
1000
0001
0000
,  // measure 44
1001
0110
0101
1010
,  // measure 45
2001
0000
0000
0001
0000
0000
0002
0000
3003
0000
0000
0000
1000
0000
0200
0000
,  // measure 46
0010
0000
0000
0010
0000
0000
0020
0000
0330
0000
0000
0000
1001
0000
0000
0000
,  // measure 47
0001
0100
0010
2000
0000
0010
3010
0000
,  // measure 48
1010
0101
0011
1100
,  // measure 49
1002
0000
0000
1000
0000
0000
2000
0000
3003
0000
0000
0000
1000
0000
0200
0000
,  // measure 50
0010
0000
0000
0010
0000
0000
0020
0000
0330
0000
0000
0000
1001
0000
0000
0000
,  // measure 51
0001
0100
1000
0200
0000
0310
1000
0100
,  // measure 52
0010
0000
0110
0000
0100
1000
0001
0000
,  // measure 53
2002
0000
0000
0003
,  // measure 54
0001
0000
0000
0001
0000
0000
0002
0000
0000
0000
0000
0000
3003
0000
0000
0000
,  // measure 55
0220
0000
0000
0000
,  // measure 56
0330
0000
0000
0000
;

//---------------dance-single - ----------------
#NOTES:
     dance-single:
     :
     Easy:
     4:
     0.210,0.274,0.191,0.183,0.000:
0000
0000
0000
0000
,
0000
0000
0000
0000
,
0000
0000
0000
0000
,
0000
0000
0000
0000
,
2002
0000
0000
0000
,
0000
0000
0000
3003
,
0220
0000
0000
0000
,
0000
0000
0000
0330
,
2002
0000
0000
0000
,
0000
0000
3003
1000
,
2002
0000
0000
0000
,
0000
0000
0000
3003
,
0220
0000
0000
0000
,
0000
0000
0000
0330
,
2002
0000
0000
3003
,
1001
1001
1001
0000
,
0001
0010
0001
0100
,
0010
1000
0100
0000
,
0010
0100
0001
0100
,
1000
0010
0100
0000
,
0001
0100
0001
0100
,
1000
0100
1000
0100
,
0010
0100
0010
0100
,
2002
0000
0000
3003
,
0001
1000
0100
0000
,
0010
0100
1000
0000
,
0001
0100
1000
0100
,
0110
1001
0001
1000
,
1001
0001
0010
0000
,
0100
0010
0001
0000
,
1000
0010
0100
0010
,
0110
1001
0110
0000
,
1001
0000
1000
0100
,
0010
0100
1000
0001
,
0100
0000
0010
0100
,
1000
0100
0001
0000
,
1001
0000
0001
0010
,
0100
0010
0001
1000
,
1001
0000
0001
0100
,
0010
1000
0001
0000
,
2002
0003
0001
0001
,
0010
0010
0100
3100
,
2002
3003
0001
0100
,
0010
0100
0001
0000
,
1000
0001
0100
0000
,
0001
1000
0100
0000
,
1000
0100
0001
0100
,
1000
0001
0100
0000
,
0010
0100
0001
0000
,
0010
0100
1000
0000
,
0010
1000
0100
0001
,
0100
1000
0001
0100
,
0220
0000
0000
0000
,
0330
0000
0000
0000
,
2002
0000
0000
0000
,
3003
0000
0000
0000
;

//---------------dance-single - ----------------
#NOTES:
     dance-single:
     :
     Beginner:
     2:
     0.100,0.134,0.158,0.000,0.000:
0000
0000
0000
0000
,
0000
0000
0000
0000
,
0000
0000
0000
0000
,
0000
0000
0000
0000
,
1001
0000
0000
0000
,
0000
0000
0000
0000
,
1001
0000
0000
0000
,
0000
0000
0000
0000
,
1001
0000
0000
0000
,
0000
0000
0000
0000
,
1001
0000
0000
0000
,
0000
0000
0000
0000
,
0110
0000
0000
0000
,
0000
0000
0000
0000
,
1001
0000
0000
0000
,
1001
0000
0000
0000
,
1001
0000
0000
0000
,
0001
0000
1000
0000
,
0100
0000
0000
0000
,
0010
0000
0100
0000
,
1000
0000
0000
0000
,
0001
0000
1000
0000
,
0001
0000
0100
0000
,
0110
0000
0000
0000
,
1001
0000
0000
0000
,
0001
0000
0000
0000
,
1000
0000
0100
0000
,
1000
0000
0001
0000
,
0100
0000
0000
0000
,
0010
0000
0000
0000
,
0100
0000
0010
0000
,
1000
0000
0001
0000
,
1001
0000
0000
0000
,
1000
0000
0100
0000
,
0001
0000
0100
0000
,
1000
0000
0001
0000
,
1001
0000
0000
0000
,
1000
0000
0010
0000
,
0100
0000
1000
0000
,
0100
0000
0001
0000
,
1001
0000
0000
0000
,
1000
0000
1000
0000
,
0001
0000
0000
0000
,
0001
0000
1000
0000
,
1001
0000
0000
0000
,
0110
0000
0000
0000
,
0010
0000
1000
0000
,
0001
0000
1000
0000
,
1001
0000
0000
0000
,
0110
0000
0000
0000
,
1000
0000
0100
0000
,
0010
0000
0001
0000
,
1001
0000
0000
0000
,
0000
0000
0000
0000
,
0110
0000
0000
0000
;
