#TITLE:Je Veux Te Voir;
#SUBTITLE:;
#ARTIST:Yelle;
#TITLETRANSLIT:;
#SUBTITLETRANSLIT:;
#ARTISTTRANSLIT:;
#GENRE:;
#CREDIT:;
#BANNER:jvtv-banner.png;
#BACKGROUND:jvtv-bg.png;
#LYRICSPATH:;
#CDTITLE:;
#MUSIC:Je Veux Te Voir.mp3;
#OFFSET:-0.032;
#SAMPLESTART:26.411;
#SAMPLELENGTH:15.245;
#SELECTABLE:YES;
#BPMS:0.000=126.919
;
#STOPS:
;
#BGCHANGES:;
#KEYSOUNDS:;
#ATTACKS:;

//---------------dance-single - Blank----------------
#NOTES:
     dance-single:
     :
     Hard:
     9:
     0.625,0.835,0.393,0.280,0.200,555.000,59.000,42.000,0.000,0.000,0.000,0.625,0.835,0.393,0.280,0.200,555.000,59.000,42.000,0.000,0.000,0.000:
0000
0000
0000
0000
,
0000
0000
0000
0000
,
0001
0010
0100
1000
0010
0010
0100
0100
,
0001
0010
0001
0100
0010
0000
1001
0000
,
0010
1000
0100
1000
0010
0100
0001
0010
,
0001
0100
0010
1000
0010
0000
0010
1000
,
0100
1000
0010
0100
0010
0000
0010
1000
,
0100
1000
0010
0100
0001
0000
1001
0000
,
0001
0010
0001
0100
0010
0000
0010
1000
,
0000
1000
0100
0010
0001
0000
0100
0000
,
0002
0000
0000
0000
0023
0000
0000
0000
0200
0030
0000
0000
2300
0000
0000
0000
,
3010
0100
0001
0010
0001
0000
0100
0000
,
0010
0000
0000
0000
1000
0000
0000
0100
1000
0000
0010
0000
0100
0000
0000
0000
,
0010
0100
0010
0100
0010
0100
0010
0100
0010
0100
0010
0100
0010
0000
0000
0000
,
2001
3001
0210
0310
,
1000
0100
0010
0001
0100
0001
1000
0000
,
0010
1000
0100
1000
0010
0100
0001
0000
,
0001
0100
0010
0001
0010
0100
0001
0000
,
1001
1100
0010
0110
,
0001
0010
0001
0100
0010
0100
0010
0000
,
0010
1000
0100
1000
0010
0010
0000
1000
,
0100
0000
1000
0000
0010
0000
0100
0000
0001
0000
0001
0000
0010
0000
0001
1000
,
0001
0000
0000
0001
1000
0000
0000
1000
0010
0000
0100
0000
1000
0000
0000
0000
,
0100
0010
1000
0001
0010
1000
0010
0000
,
0100
0010
0001
0010
0001
1000
0010
0000
,
0001
0001
0010
0010
1000
1000
0001
0000
,
2100
3010
0201
0301
,
0010
0001
0100
0010
1000
0000
0100
0000
,
0110
0110
1001
1001
0110
0000
0001
0100
,
0001
0000
0010
0000
0001
0000
0100
0000
0010
0000
0100
0000
0010
0000
0100
0010
,
0100
0000
0001
0000
0010
0000
0001
0010
0001
0010
0001
0010
0000
0001
0000
0100
,
1000
0100
1000
0100
1000
0000
0100
0000
0010
0000
0100
0010
0100
0010
0100
0010
,
0100
0000
0000
0100
0001
0000
0000
0001
0010
0100
0010
0100
0010
0000
0100
0000
,
1000
0000
0001
0000
1000
0001
1000
0001
1000
0000
0001
1000
0001
0000
1001
0000
,
1000
0000
0000
0010
2000
0000
3200
0000
,
0320
0000
0030
0001
0020
0000
0031
0000
,
0100
0000
0100
0000
0010
0000
0000
1000
0100
1000
0100
1000
0100
0000
1000
0000
,
0001
1000
0001
0010
0100
0010
0001
1000
0001
1000
0010
1000
0100
0010
0100
0010
,
0100
0000
0000
0000
0001
0000
0000
0010
0000
0010
0001
0000
0100
0000
0000
0000
,
0010
0000
0000
0000
1000
0000
0000
0100
0000
0100
1000
0000
0010
0000
0000
0000
,
0100
0000
0000
0000
0010
0000
0000
0100
0000
0100
0001
0000
0100
0000
0000
0000
,
0010
0000
0000
0000
1000
0000
0000
0001
0000
0001
1000
0000
0010
0000
0000
0000
,
0001
0010
0001
0010
0200
0000
0302
0000
,
0023
0000
0000
0000
0200
0030
0000
0000
1300
0000
0010
0000
0100
0000
0000
0000
,
0020
0000
0000
0000
2000
0030
0000
0000
3200
0000
0000
0000
0320
0000
0000
0000
,
0032
0000
0203
0000
0310
0100
0010
0000
,
1000
0000
0000
0000
0001
0000
0000
0100
0000
0100
0010
0000
1000
0000
0000
0000
,
0100
0000
0000
0000
1000
0000
0000
0010
0000
0010
0100
0000
0001
0000
0000
0000
,
0010
0000
0001
0000
0100
0000
0010
0100
0010
0000
0100
0000
0001
0000
0010
0000
,
0001
0000
0100
0000
0010
0000
1000
0001
1000
0001
1000
0002
2000
0000
3003
0000
,
0001
1000
0010
1000
0100
1000
0010
0000
,
1001
0100
0010
0100
0001
0010
0001
0000
,
0101
0010
1000
0100
1000
0010
1000
0000
,
1100
0010
0100
1000
0010
0100
0001
0010
,
0001
0000
0001
0100
0010
0000
0001
0000
,
0010
1000
0100
0010
0100
0010
0001
0000
,
0100
0010
0100
0001
0010
0100
1000
0010
,
1000
0000
0001
0000
0100
0000
0010
0000
0100
0000
0100
0001
0000
0001
0010
0000
,
0002
0010
0010
0010
0010
0010
0010
0013
,
0120
0100
0100
0100
0100
0100
0100
0130
,
1020
1000
1000
1000
1000
1000
1000
1030
,
1002
1000
1000
1000
1000
1000
1000
1003
,
0120
0100
0100
0100
0100
0100
0100
0130
,
0012
0010
0010
0010
0010
0010
0010
0013
,
0120
0100
0100
0130
1020
1000
1000
1030
,
1002
0000
1000
0000
1000
0000
1003
0000
1000
0001
1000
0001
1000
0001
1000
0000
,
0001
0001
0100
0100
0010
0010
0010
0010
,
0001
0001
0010
0010
0100
0100
0100
0100
,
1000
1000
0100
0100
0010
0010
0010
0010
,
1000
1000
0100
0100
0010
0010
0010
0010
,
0100
0001
0100
1000
0200
0000
0320
0000
,
0230
0000
1300
0100
0020
0000
1030
0000
,
0010
0100
0001
0100
0020
0000
0032
0000
,
0203
0000
0310
0100
1000
0000
0100
0000
,
0110
0110
0110
0110
0110
0110
0110
0110
,
1100
1100
1100
1100
1100
1100
1100
1100
,
0011
0011
0011
0011
0011
0011
0011
0011
,
1001
1001
1001
1001
1001
1001
1001
1001
,
2002
3003
0000
0000
;

//---------------dance-single - Blank----------------
#NOTES:
     dance-single:
     :
     Medium:
     7:
     0.384,0.364,0.067,0.000,0.000,393.000,10.000,0.000,0.000,0.000,0.000,0.384,0.364,0.067,0.000,0.000,393.000,10.000,0.000,0.000,0.000,0.000:
0000
0000
0000
0000
,
0000
0000
0000
0000
,
0010
0000
1000
0000
0100
1000
0100
0000
,
1000
0000
0010
0000
0100
0000
0010
0100
,
0010
0100
0001
0010
,
0001
0000
0100
0010
0100
0000
0010
0000
,
1000
0000
0100
0010
0100
0000
0010
0000
,
0001
0000
0100
0001
0100
0000
0010
0000
,
1010
0010
0010
0100
,
0001
0000
0001
0010
0001
0000
0100
0000
,
0001
1000
0001
1000
,
0010
0100
0010
0100
,
0001
0000
1000
0000
0001
0010
0001
0000
,
0100
0010
0100
0010
0100
0010
0100
0000
,
0010
1000
0100
1000
,
0010
0000
0100
0000
0001
0100
0001
0000
,
0010
0000
0001
0000
0100
0001
0100
0000
,
0010
0000
1000
0000
0100
1000
0100
0000
,
1010
0010
0101
0100
,
0001
0010
0001
0000
0100
0000
0010
0000
,
1000
0100
1000
0000
0010
0000
0100
0000
,
0010
0100
0010
0000
0100
0000
0001
1000
,
0001
0100
0001
0010
,
0001
0001
1000
1000
,
0010
0010
0100
0100
,
0001
0000
1000
0000
0010
0100
0010
0000
,
1000
0010
0100
0001
,
0010
0001
0100
0000
,
0010
0100
0010
0100
0010
0000
0000
0000
,
1000
0001
1000
0001
1000
0000
0000
0000
,
0001
0000
0100
0000
0010
1000
0010
0000
,
1000
0000
0100
0000
0010
0001
0010
0001
,
0010
0000
0001
0000
0100
0010
0100
0000
,
0010
0000
1000
0000
0100
1000
0100
0000
,
1000
0000
0010
0000
0100
0010
0100
0000
,
0001
0000
0010
0000
0001
0100
0001
0000
,
0100
0000
0010
0000
1000
0010
1000
0000
,
0100
1000
0010
0100
0010
1000
0010
0100
,
0010
0000
0100
0000
0001
0010
0001
0000
,
0100
0000
0010
0000
1000
0001
1000
0000
,
0001
0000
0100
0000
0001
0010
0001
0000
,
0100
0000
0010
0000
0100
1000
0100
0000
,
0010
0000
0100
0000
0001
0010
0001
0000
,
0100
0000
0001
0000
0010
0100
0010
0000
,
0100
0000
1000
0000
0010
1000
0010
0000
,
0100
0000
0001
0000
0100
0010
0100
0000
,
0010
0000
1000
0000
0001
1000
0001
0000
,
0010
0000
0001
0000
0100
0001
0100
0000
,
0010
0000
1000
0000
0100
1000
0010
0000
,
0100
0000
0001
0000
0010
0001
0100
0000
,
0010
0100
0010
0100
,
1001
0000
0001
1000
0001
1000
0001
0000
,
0110
0000
0010
0100
0010
0100
0010
0000
,
1010
0000
0010
1000
0010
1000
0010
0000
,
0101
0000
0100
0001
0100
0001
0100
0000
,
0110
0000
0100
0010
0100
0010
0100
0000
,
1001
0000
0001
1000
0001
1000
0001
0000
,
0011
0000
0010
0001
0010
0000
0001
0000
,
0100
0010
0100
0010
0100
0010
0100
0000
,
0001
1000
0001
1000
0001
1000
0001
0000
,
0010
0100
0010
0100
0010
0100
0010
0000
,
0010
1000
0010
1000
0010
1000
0010
0000
,
0001
1000
0001
1000
0001
1000
0001
0000
,
0001
0010
0001
0010
0001
0010
0001
0000
,
0010
0100
0010
0100
0010
0100
0010
0000
,
0100
0010
0100
0010
0100
0010
0100
0000
,
0010
1000
0010
0001
,
0100
0010
0100
0010
0100
0000
0100
0000
,
0001
0000
0010
0000
0001
0100
0001
0000
,
0100
0000
0010
0000
1000
0100
1000
0000
,
0010
0000
0100
0000
0010
1000
0010
0000
,
1000
0000
0100
0000
0010
0001
0010
0000
,
0001
0100
0010
1000
,
0100
0000
1000
0000
0010
0100
0010
0000
,
0100
0001
0010
0001
,
0100
0010
0100
0010
,
1000
0010
1000
0000
0100
0000
1000
0000
,
0010
0100
0001
1000
,
0001
0000
0000
0000
;

//---------------dance-single - Blank----------------
#NOTES:
     dance-single:
     :
     Easy:
     4:
     0.269,0.416,0.127,0.000,0.000,263.000,19.000,0.000,0.000,0.000,0.000,0.269,0.416,0.127,0.000,0.000,263.000,19.000,0.000,0.000,0.000,0.000:
0000
0000
0000
0000
,
0000
0000
0000
0000
,
0001
0000
1000
0000
,
0010
0100
0010
0100
,
0001
0000
0010
0000
,
0001
0100
0010
0000
,
1000
0100
1000
0000
,
0010
0100
0010
0000
,
0100
0000
0000
0000
,
0001
0010
0001
0100
,
0010
0010
0100
0100
,
0001
1000
0001
1000
,
0110
0110
0110
0110
,
1001
1001
1001
1001
,
0010
0100
0010
0100
,
0001
0010
0001
0010
,
0100
1000
0100
1000
,
0010
0100
0010
0100
,
0001
1001
0010
0110
,
0100
0001
0010
0000
,
0001
0100
0010
0000
,
1000
0100
1000
0010
,
0100
0100
0010
0010
,
0100
0001
1000
1000
,
0001
0100
0010
0010
,
0001
0010
0100
0100
,
0001
1000
0001
1000
,
0010
0100
0010
0000
,
0100
0001
0100
0000
,
0010
1000
0100
1000
,
0010
0010
0100
0100
,
0001
0010
0001
0100
,
0010
0010
1000
1000
,
0100
1000
0010
0010
,
0100
0001
0010
0010
,
0001
1000
0001
1000
,
0010
0001
0010
0100
,
0001
0010
1000
0010
,
0100
0100
1000
1000
,
0010
0010
0100
0100
,
0001
0001
1000
1000
,
0010
0100
0010
0000
,
0100
0001
0010
0010
,
0001
0100
0010
0010
,
1000
0100
1000
1000
,
0010
0100
1000
1000
,
0100
0001
0100
0100
,
0001
0010
0100
0100
,
0010
0001
0100
0001
,
0100
0001
1000
0001
,
1001
0000
0000
0000
,
0110
0000
0000
0000
,
1010
0000
0000
0000
,
0101
0000
0000
0000
,
0110
0000
0000
0000
,
1010
0000
0000
0000
,
0101
0000
0000
0000
,
0011
0000
1001
0000
,
0010
0100
0010
0100
,
0001
1000
0001
1000
,
0100
1000
0100
1000
,
0010
0100
0010
0100
,
0001
0100
0001
0100
,
0010
0100
0010
0100
,
0010
1000
0010
1000
,
0100
1000
0001
1000
,
0001
0100
0010
0100
,
0001
0010
0100
1000
,
0010
0100
0010
0100
,
0001
0010
0001
0010
,
0001
0100
0010
0000
,
1000
0100
1000
0000
,
0010
0100
0001
0000
,
0010
0001
0100
0000
,
0010
0100
0010
0100
,
0001
1000
0001
1000
,
0010
0100
0010
0100
,
0010
1000
0010
0100
,
0010
0000
0000
0000
;

//---------------dance-single - Blank----------------
#NOTES:
     dance-single:
     :
     Beginner:
     1:
     0.100,0.130,0.000,0.000,0.000,105.000,0.000,0.000,0.000,0.000,0.000,0.100,0.130,0.000,0.000,0.000,105.000,0.000,0.000,0.000,0.000,0.000: // measure 0
0000
0000
0000
0000
,  // measure 1
0000
0000
0000
0000
,  // measure 2
0010
0000
0000
0000
,  // measure 3
0100
0000
0000
0000
,  // measure 4
0001
0000
0000
0000
,  // measure 5
0100
0000
0000
0000
,  // measure 6
0010
0000
0000
0000
,  // measure 7
0100
0000
0000
0000
,  // measure 8
0001
0000
0000
0000
,  // measure 9
1000
0000
0000
0000
,  // measure 10
0010
0000
0100
0000
,  // measure 11
0010
0000
0100
0000
,  // measure 12
0010
0000
0000
0000
,  // measure 13
0100
0000
0000
0000
,  // measure 14
0001
0000
1000
0000
,  // measure 15
0001
0000
1000
0000
,  // measure 16
0010
0000
0100
0000
,  // measure 17
0010
0000
0100
0000
,  // measure 18
0001
0000
1000
0000
,  // measure 19
0010
0000
0000
0000
,  // measure 20
0100
0000
0000
0000
,  // measure 21
0001
0000
0000
0000
,  // measure 22
1000
0000
0010
0000
,  // measure 23
0100
0000
0000
0000
,  // measure 24
0100
0000
0000
0000
,  // measure 25
0001
0000
0000
0000
,  // measure 26
0010
0000
0010
0000
,  // measure 27
0001
0000
0000
0000
,  // measure 28
0100
0000
0000
0000
,  // measure 29
0010
0000
0000
0000
,  // measure 30
1000
0000
0010
0000
,  // measure 31
1000
1000
1000
0000
,  // measure 32
0001
0000
0010
0000
,  // measure 33
0100
0100
0100
0000
,  // measure 34
0010
0000
0000
0000
,  // measure 35
0001
0000
0000
0000
,  // measure 36
0100
0000
0000
0000
,  // measure 37
0010
0000
0000
0000
,  // measure 38
1000
0000
0000
0000
,  // measure 39
0001
0000
0000
0000
,  // measure 40
0100
0000
0000
0000
,  // measure 41
0001
0000
0000
0000
,  // measure 42
0010
0000
0000
0000
,  // measure 43
0100
0000
0000
0000
,  // measure 44
1000
0000
0000
0000
,  // measure 45
0010
0000
0000
0000
,  // measure 46
0100
0000
0000
0000
,  // measure 47
0001
0000
0000
0000
,  // measure 48
0010
0000
0000
0000
,  // measure 49
0100
0000
0000
0000
,  // measure 50
1000
0000
0000
0000
,  // measure 51
0001
0000
0000
0000
,  // measure 52
0100
0000
0000
0000
,  // measure 53
0010
0000
0000
0000
,  // measure 54
1000
0000
0000
0000
,  // measure 55
0001
0000
0000
0000
,  // measure 56
0100
0000
0000
0000
,  // measure 57
0001
0000
0000
0000
,  // measure 58
0100
0000
0000
0000
,  // measure 59
0010
0000
0000
0000
,  // measure 60
0100
0000
0000
0000
,  // measure 61
0010
0000
0000
0000
,  // measure 62
0100
0000
0000
0000
,  // measure 63
0010
0000
0000
0000
,  // measure 64
0100
0000
0000
0000
,  // measure 65
0001
0000
1000
0000
,  // measure 66
0010
0000
0100
0000
,  // measure 67
0010
0000
0100
0000
,  // measure 68
0001
0000
1000
0000
,  // measure 69
0001
0000
1000
0000
,  // measure 70
0010
0000
1000
0000
,  // measure 71
0010
0000
1000
0000
,  // measure 72
0001
0000
0010
0000
,  // measure 73
0001
0000
0010
0000
,  // measure 74
0100
0000
0010
0000
,  // measure 75
0100
0000
0010
0000
,  // measure 76
0001
0000
1000
0000
,  // measure 77
0001
0000
1000
0000
,  // measure 78
0100
0000
0000
0000
;
