#TITLE:Distorted Floor;
#SUBTITLE:;
#ARTIST:RoughSketch;
#TITLETRANSLIT:;
#SUBTITLETRANSLIT:;
#ARTISTTRANSLIT:;
#GENRE:;
#CREDIT:;
#MENUCOLOR:;
#METERTYPE:DDR;
#BANNER:Distorted Floor.png;
#BACKGROUND:Distorted Floor-bg.png;
#LYRICSPATH:;
#CDTITLE:;
#MUSIC:Distorted Floor.mp3;
#OFFSET:-0.890;
#SAMPLESTART:61.970;
#SAMPLELENGTH:15.000;
#SELECTABLE:YES;
#LISTSORT:;
#BPMS:0.000=138.000,24.000=135.000,25.000=125.000,26.000=115.000,28.000=110.000,30.000=100.000,31.000=95.000,32.000=90.000,34.000=180.000;
#STOPS:34.000=2.000
,160.000=0.333
;
#BGCHANGES:;
#ATTACKS:;

//---------------dance-single - ----------------
#NOTES:
     dance-single:
     :
     Hard:
     9:
     0.735,0.797,0.312,0.362,0.223: // measure 1
0000
0000
0000
0000
,  // measure 2
0000
0000
0000
0000
,  // measure 3
0000
0000
0000
0000
,  // measure 4
0000
0000
0000
0000
,  // measure 5
1001
0000
1000
0010
0100
1000
0100
0001
,  // measure 6
0010
0100
0010
0001
0100
0010
0100
0001
,  // measure 7
1000
0100
0010
0100
0010
1000
0010
0001
,  // measure 8
0100
0010
0100
1000
0100
0001
1000
0010
,  // measure 9
2000
0000
0000
0000
3100
0010
0110
0000
,  // measure 10
0100
1000
0001
0100
1000
0100
0001
0010
,  // measure 11
0100
0010
0001
0100
0010
0100
0010
0000
,  // measure 12
0100
1000
0100
0001
0010
0100
0010
0001
,  // measure 13
0100
0000
0010
0000
1000
0000
0100
0000
2000
0000
0000
0000
3001
0010
0001
0010
,  // measure 14
0100
0010
1000
0010
0001
0100
0010
0001
,  // measure 15
0010
0100
0001
1000
0100
0010
0001
0000
,  // measure 16
0010
0100
0010
1000
0010
0001
0100
0010
,  // measure 17
1000
0100
1000
0100
0010
0001
0010
0001
0100
0000
0010
0000
0110
0000
0000
0000
,  // measure 18
0100
1000
0100
0001
1000
0100
0010
0001
,  // measure 19
0010
1000
0020
0001
0032
0100
0203
0000
,  // measure 20
0310
0100
1000
0100
0001
1000
0100
0010
,  // measure 21
0002
0000
0000
0000
1003
0100
1000
0100
1000
0000
0000
0000
1001
0000
0000
0000
,  // measure 22
1000
0010
0100
1000
,  // measure 23
0100
0001
0010
0100
,  // measure 24
0010
1000
0010
0001
0100
0010
1000
0001
,  // measure 25
1000
0000
0010
0000
1000
0100
0010
0001
0020
0000
0000
0000
0130
0000
0000
0000
,  // measure 26
0010
0100
0010
0001
0010
0000
0001
0000
,  // measure 27
0010
0001
0100
0010
1000
0000
0100
0000
,  // measure 28
1000
0100
0010
0001
0010
0000
0100
0000
,  // measure 29
0010
1000
0010
0001
0100
0000
0010
0100
,  // measure 30
1000
0100
0001
0010
0100
0000
0010
0000
,  // measure 31
0001
0100
0001
1000
0010
0000
1000
0000
,  // measure 32
2001
3010
0210
1300
,  // measure 33
0010
0010
0010
0010
2010
0000
3001
0000
,  // measure 34
0100
0010
0100
1000
,  // measure 35
0100
0001
0010
0100
,  // measure 36
0010
1000
0010
0001
,  // measure 37
1000
0010
1000
0010
0100
0001
0100
0001
1000
0000
0100
0000
0110
0000
0000
0000
,  // measure 38
0010
0000
0000
0000
0000
0000
0001
0000
1000
0000
0000
0000
0000
0000
0010
0100
,  // measure 39
0010
0000
0000
0100
0000
0000
0001
0000
0200
0000
0000
0000
0300
0000
0010
0000
,  // measure 40
1010
1000
0001
0100
,  // measure 41
0220
0330
0000
0000
0000
0000
0000
0000
0000
0000
0000
0000
1000
0000
0000
0000
0001
0000
0010
0000
0100
0000
0010
0000
0002
0000
0000
0000
0000
0000
0000
0000
,  // measure 42
0100
0010
2003
3020
,  // measure 43
0230
0000
0001
0301
0010
0100
0020
0000
,  // measure 44
0100
0000
0001
0030
0001
0200
0010
0000
,  // measure 45
1000
0000
0001
0000
0010
0310
0200
0000
,  // measure 46
0001
0302
0010
0000
1000
1003
0200
0000
,  // measure 47
0010
0320
0001
0000
0032
0000
0023
0000
,  // measure 48
0100
0230
0001
0000
0320
0000
0032
0000
,  // measure 49
0100
0203
0010
0000
0320
0000
0130
0001
,  // measure 50
0010
0100
0010
1000
0010
0001
0100
0010
,  // measure 51
0100
0001
1000
0100
0010
0001
0010
0100
,  // measure 52
0010
0001
0010
0100
0010
0100
1000
0000
,  // measure 53
0100
0000
0000
0000
0010
0000
0000
0000
0100
0000
1000
0000
1010
0000
0000
0101
,  // measure 54
0000
0000
0011
0000
0000
0110
0000
0000
0101
0000
0000
1010
0000
0000
1001
0000
,  // measure 55
0000
1100
0000
0000
0100
0010
0100
0010
0100
0010
0100
0010
0100
0000
0000
0000
,  // measure 56
1000
0000
0000
0000
0100
0000
0000
0000
0010
0000
0000
0000
0100
0010
0001
0010
,  // measure 57
0200
0000
0000
0000
0000
0000
0000
0000
0000
0000
0000
0000
0000
0000
0000
0000
0020
0000
0000
0000
0000
0000
0000
0000
0000
0000
0000
0000
0000
0000
0000
0000
0300
0000
0000
0000
0000
0000
0000
0000
0000
0000
0000
0000
0000
0000
0000
0030
0001
0000
0000
0000
0000
0000
0000
0000
0010
0000
0000
0000
0000
0000
0000
0000
,  // measure 58
0100
0001
0100
1000
0010
0100
1000
0100
,  // measure 59
0010
1000
0100
0010
0100
0001
0100
1000
,  // measure 60
0010
0100
1000
0100
0010
1000
0001
0010
,  // measure 61
0100
0000
1000
0000
0100
0010
0100
0010
0100
0000
0010
0000
0001
0000
1000
0000
,  // measure 62
0010
0001
0010
1000
0100
0010
0100
1000
,  // measure 63
0010
0100
1000
0100
0010
1000
0001
0010
,  // measure 64
0100
1000
0100
0001
0100
1000
0010
0100
,  // measure 65
1000
0100
0010
1000
0001
0010
0001
1000
,  // measure 66
0010
0100
1000
0100
0010
1000
0100
0010
,  // measure 67
1000
0010
0100
1000
0010
0100
1000
0100
,  // measure 68
0010
1000
0001
0010
0100
1000
0100
0001
,  // measure 69
0100
0000
1000
0000
0010
0000
0100
0000
1000
0000
0100
0000
0110
0000
0000
1010
,  // measure 70
0000
0000
1001
0000
0000
0101
0000
0000
0110
0000
0000
1100
0000
0000
0110
0000
,  // measure 71
0000
1010
0000
0000
0100
0010
0000
0100
0001
0000
1000
0000
1001
0000
0000
0000
,  // measure 72
0001
0000
0000
0000
0100
0000
0000
0000
0010
0000
0100
0000
0002
0000
0000
1000
,  // measure 73
0000
0000
0103
0000
0001
0010
0001
0010
0001
0010
0001
0000
0101
0000
0000
0000
,  // measure 74
0100
0010
2010
0000
3100
0000
0110
0000
,  // measure 75
0010
0001
0010
0001
0020
0000
0000
0000
0130
0000
0000
0000
1100
0000
0000
0000
,  // measure 76
1000
0001
1000
0001
0100
0000
0100
0000
0100
0000
0100
0000
0102
0000
0000
0000
,  // measure 77
0103
0001
0100
0001
1000
0010
1000
0010
1000
0010
1000
0000
1001
0000
0000
0000
,  // measure 78
0001
0100
0120
0000
0130
0010
1000
0100
,  // measure 79
0010
0100
2100
0000
3001
0010
0100
0010
,  // measure 80
0001
1000
1002
0000
0013
0100
0220
0000
,  // measure 81
0000
0000
0000
0000
,  // measure 82
0000
0000
0000
0030
0310
0100
0010
0100
1000
0001
1000
0001
2000
0000
0000
0000
,  // measure 83
0002
3003
0000
0000
;

//---------------dance-single - ----------------
#NOTES:
     dance-single:
     :
     Medium:
     7:
     0.532,0.554,0.143,0.404,0.046: // measure 1
0000
0000
0000
0000
,  // measure 2
0000
0000
0000
0000
,  // measure 3
0000
0000
0000
0000
,  // measure 4
0000
0000
0000
0000
,  // measure 5
1001
1000
0010
0100
,  // measure 6
1000
0000
0100
0000
0001
0000
0010
0100
,  // measure 7
0010
0000
0001
0000
0100
0000
0010
0100
,  // measure 8
0001
0000
1000
0100
0010
0100
0010
0001
,  // measure 9
2000
0000
0000
0000
3010
0010
0110
0000
,  // measure 10
0100
1000
0100
0001
,  // measure 11
0010
0000
0100
0000
0010
0000
0001
0100
,  // measure 12
0010
0100
0001
1000
,  // measure 13
0100
0010
0001
0000
2000
0000
3020
0000
,  // measure 14
0130
1000
0100
0001
,  // measure 15
0010
0100
0010
0001
,  // measure 16
1000
0100
1000
0100
0010
0100
0010
0100
,  // measure 17
0020
0000
0032
0000
1003
0100
0010
0000
,  // measure 18
0100
0010
0001
0100
,  // measure 19
0010
0200
0302
2003
,  // measure 20
3100
0010
1000
0010
,  // measure 21
0002
0000
1003
0100
0010
0000
0110
0000
,  // measure 22
0010
0001
0100
1000
,  // measure 23
0100
0001
0010
0100
,  // measure 24
0010
0001
0010
0001
0010
0100
0010
0100
,  // measure 25
1000
1000
0002
0000
2003
0000
3100
0000
,  // measure 26
0010
0000
0001
0100
0010
0000
0100
0000
,  // measure 27
0001
0000
1000
0100
0010
0000
0100
0000
,  // measure 28
0010
0000
0001
0100
0010
0000
0100
0000
,  // measure 29
0001
0000
1000
0100
0010
0000
0100
0000
,  // measure 30
0010
0000
0001
0100
0010
0000
0100
0000
,  // measure 31
0001
0000
1000
0100
1000
0000
0001
0000
,  // measure 32
2001
3010
0210
0301
,  // measure 33
0010
0100
0010
0100
0020
0000
1030
0000
,  // measure 34
0010
0100
0010
0001
,  // measure 35
0010
1000
0100
0010
,  // measure 36
0100
1000
0010
0100
,  // measure 37
0001
0010
0100
1000
0100
0010
0100
0000
,  // measure 38
1000
0000
0000
0010
0100
0000
0000
0010
,  // measure 39
1000
0000
0000
0001
0000
0000
0100
0000
0020
0000
0000
0000
0030
0000
0100
0000
,  // measure 40
0001
1000
0010
1000
,  // measure 41
0002
0003
0000
0000
0000
0000
0000
0000
0000
0000
0000
0000
0001
0000
0000
0000
0010
0000
0000
0000
0100
0000
0000
0000
2000
0000
0000
0000
0000
0000
0000
0000
,  // measure 42
0010
0100
3020
0230
,  // measure 43
0302
0000
0000
1003
0100
1000
0020
0000
,  // measure 44
0100
0000
1000
0000
0130
0002
0010
0000
,  // measure 45
1000
0000
0100
0000
0000
1003
0020
0000
,  // measure 46
0000
0230
0001
0000
0000
0310
2000
0000
,  // measure 47
0000
3200
0010
0000
0320
0000
0032
0000
,  // measure 48
0000
0203
0010
0000
0320
0000
2030
0000
,  // measure 49
0000
3002
0010
0000
0203
0000
0310
0000
,  // measure 50
0100
0001
0010
0100
,  // measure 51
0010
0001
0100
0010
,  // measure 52
1000
0001
0010
0001
,  // measure 53
0000
0000
0000
0000
0000
0000
0000
0000
0000
0000
1000
0000
1001
0000
0000
0001
,  // measure 54
0000
0000
0101
0000
0000
0100
0000
0000
0110
0000
0000
0010
0000
0000
1010
0000
,  // measure 55
0000
1000
0000
0000
1100
0000
1000
0000
0100
0000
0010
0000
0001
0000
0000
0000
,  // measure 56
1000
0000
0010
0000
0100
0000
0010
0100
,  // measure 57
0020
0000
0200
0000
0030
0000
0301
0010
,  // measure 58
0100
0010
0001
0100
,  // measure 59
0010
0100
0001
0000
1000
0000
0100
1000
,  // measure 60
0010
0000
0100
0001
0010
0000
0001
0000
,  // measure 61
0100
0010
0200
0000
0301
0000
1000
0100
,  // measure 62
0010
0001
0010
0100
,  // measure 63
0010
0001
0100
0000
0010
0000
0100
0001
,  // measure 64
0100
0000
0001
1000
0100
0000
1000
0000
,  // measure 65
0001
0100
0010
0100
0001
0000
0010
0100
,  // measure 66
0010
0001
0100
0010
,  // measure 67
0100
0001
1000
0000
0100
0000
1000
0010
,  // measure 68
0100
0000
0001
0010
0100
0000
0010
0000
,  // measure 69
0001
0000
0100
0000
0010
0000
0100
0000
0001
0000
0000
0000
1001
0000
0000
1000
,  // measure 70
0000
0000
1010
0000
0000
0010
0000
0000
0110
0000
0000
0100
0000
0000
0101
0000
,  // measure 71
0000
0001
0000
0000
0011
0000
0000
0010
0000
0000
0100
0000
0110
0000
0000
0000
,  // measure 72
0010
0000
0000
0000
0100
0000
0000
0000
1000
0000
0010
0000
0200
0000
0000
0010
,  // measure 73
0000
0310
0100
0010
1000
0001
0010
0000
,  // measure 74
0001
0100
0020
0000
1030
0000
0100
0000
,  // measure 75
0010
0100
2000
0000
3010
0000
0100
0000
,  // measure 76
0010
1000
0001
1000
0001
1000
0002
0000
,  // measure 77
0013
0100
2000
0000
0000
0000
3010
0000
,  // measure 78
0100
0010
2000
0000
3001
0000
0010
0000
,  // measure 79
0100
0010
0002
0000
0103
0000
0010
0000
,  // measure 80
1000
0100
0020
0000
0130
0000
2002
0000
,  // measure 81
0000
0000
0000
0000
,  // measure 82
0000
3003
1000
0100
0010
0001
0200
0000
,  // measure 83
0020
0330
0000
0000
;

//---------------dance-single - ----------------
#NOTES:
     dance-single:
     :
     Easy:
     4:
     0.403,0.450,0.160,0.446,0.000: // measure 1
0000
0000
0000
0000
,  // measure 2
0000
0000
0000
0000
,  // measure 3
0000
0000
0000
0000
,  // measure 4
0000
0000
0000
0000
,  // measure 5
1001
1000
0010
0100
,  // measure 6
0001
0010
0001
0010
,  // measure 7
0001
0100
0010
1000
,  // measure 8
0100
1000
0010
0100
,  // measure 9
0002
0000
1003
0110
,  // measure 10
0100
0001
0010
0100
,  // measure 11
0010
0001
0100
0001
,  // measure 12
0100
0001
1000
0100
,  // measure 13
0010
0001
0200
0000
,  // measure 14
0310
0100
0001
1000
,  // measure 15
0100
0010
0001
0010
,  // measure 16
0100
0010
0001
0100
,  // measure 17
0020
0230
0301
1001
,  // measure 18
1000
0001
0100
0001
,  // measure 19
0010
0200
0320
0032
,  // measure 20
0103
0010
0100
0001
,  // measure 21
2000
3002
0103
0110
,  // measure 22
0100
0000
0001
0000
,  // measure 23
1000
0000
0001
0000
,  // measure 24
0100
0010
0100
0001
,  // measure 25
0100
0020
0000
0130
,  // measure 26
0001
1000
0100
0010
,  // measure 27
0100
0010
0100
0010
,  // measure 28
0001
0100
0001
0100
,  // measure 29
0001
1000
0010
0100
,  // measure 30
0001
0010
0100
0010
,  // measure 31
0001
0100
0010
1000
,  // measure 32
2100
3010
0012
0103
,  // measure 33
0020
0000
0230
0301
,  // measure 34
1000
0100
0010
0100
,  // measure 35
0010
0001
0100
0001
,  // measure 36
1000
0010
1000
0100
,  // measure 37
0020
0032
0103
0010
,  // measure 38
0100
0000
0001
0000
,  // measure 39
1000
0000
0020
0030
,  // measure 40
0100
0000
0000
0000
,  // measure 41
0020
0030
0000
0000
0000
0000
0000
0000
0000
0000
0000
0000
0000
0000
0000
0000
0100
0000
0000
0000
0000
0000
0000
0000
0002
0000
0000
0000
0000
0000
0000
0000
,  // measure 42
0000
0000
2003
3020
,  // measure 43
0200
0030
0301
0020
,  // measure 44
0000
0000
0200
0000
,  // measure 45
0000
0000
0000
0000
0030
0000
2000
0300
,  // measure 46
0000
0020
3000
0000
0230
0000
0302
0000
,  // measure 47
0000
0020
0003
0000
0230
0000
0320
0000
,  // measure 48
0000
0002
0030
0000
0203
0000
0002
0300
,  // measure 49
0000
2000
0003
0000
3020
0000
0130
0000
,  // measure 50
0001
0010
0100
0010
,  // measure 51
0001
0100
0010
1000
,  // measure 52
0100
1000
0001
0100
,  // measure 53
0000
0000
0000
0110
,  // measure 54
0000
0101
0000
0000
1001
0000
0000
1010
,  // measure 55
0000
0110
0100
0101
,  // measure 56
0001
0010
0100
1000
,  // measure 57
0020
0200
0030
0301
,  // measure 58
0010
0100
0010
0001
,  // measure 59
0100
0010
0100
0001
,  // measure 60
1000
0100
0010
0100
,  // measure 61
0010
0002
0103
0010
,  // measure 62
0100
0001
1000
0001
,  // measure 63
0010
0100
0010
0001
,  // measure 64
0100
0010
0100
0001
,  // measure 65
1000
0100
0010
0100
,  // measure 66
0010
0001
0100
0010
,  // measure 67
0100
0001
1000
0010
,  // measure 68
0100
0001
0010
0100
,  // measure 69
1000
0010
0100
0110
,  // measure 70
0000
0101
0000
0000
1001
0000
0000
1010
,  // measure 71
0000
1001
0000
0110
,  // measure 72
0100
0001
0010
0200
,  // measure 73
0000
2300
0000
3001
,  // measure 74
0100
0020
0000
0130
,  // measure 75
0001
0020
0000
0130
,  // measure 76
0010
0002
0000
0103
,  // measure 77
0010
2000
0000
3001
,  // measure 78
0100
0020
0130
0001
,  // measure 79
0010
0200
0310
0001
,  // measure 80
0100
0020
0130
0220
,  // measure 81
0000
0000
0000
0000
,  // measure 82
0330
0200
0000
0302
,  // measure 83
2000
3003
0000
0000
;
