#TITLE:Diskommunication;
#SUBTITLE:;
#ARTIST:t+pazolite;
#TITLETRANSLIT:;
#SUBTITLETRANSLIT:;
#ARTISTTRANSLIT:;
#GENRE:;
#CREDIT:;
#MENUCOLOR:;
#METERTYPE:DDR;
#BANNER:Diskommunication.png;
#BACKGROUND:Diskommunication-bg.png;
#LYRICSPATH:;
#CDTITLE:;
#MUSIC:Diskommunication.mp3;
#OFFSET:-0.008;
#SAMPLESTART:109.390;
#SAMPLELENGTH:12.000;
#SELECTABLE:YES;
#LISTSORT:;
#BPMS:0.000=180.000;
#STOPS:30.000=0.333
;
#BGCHANGES:;
#ATTACKS:;

//---------------dance-single - ----------------
#NOTES:
     dance-single:
     :
     Hard:
     9:
     0.722,0.818,0.397,0.049,0.056: // measure 1
0000
0000
0000
0000
,  // measure 2
0000
0000
0000
0000
,  // measure 3
0000
0000
0000
0000
,  // measure 4
0000
0000
0000
0000
,  // measure 5
1000
0010
0100
0001
,  // measure 6
0010
0100
0010
0001
,  // measure 7
0100
0001
0010
0001
1000
0010
1000
0100
,  // measure 8
0010
0100
0020
0000
0130
0000
1001
0000
,  // measure 9
1000
0000
0010
1000
0010
0100
0110
0000
,  // measure 10
0100
0000
0001
0010
0100
1000
1100
0000
,  // measure 11
1000
0000
0001
0100
0001
0010
0011
0000
,  // measure 12
0010
0100
1100
0000
1010
0000
0110
0000
,  // measure 13
0100
0000
0001
0010
0001
0100
0110
0000
,  // measure 14
0010
0000
1000
0010
0001
0010
1010
0000
,  // measure 15
1000
0000
0100
0010
0001
0100
0101
0001
,  // measure 16
1000
0010
0100
0010
1000
0100
0110
0010
,  // measure 17
0001
0000
0100
0010
0100
0000
1000
0100
,  // measure 18
0001
0000
0100
0001
0010
0100
0010
0001
,  // measure 19
0100
0000
0010
0100
1000
0000
0100
0001
,  // measure 20
0010
0000
0001
1000
0010
1000
1100
1000
,  // measure 21
0001
0000
0100
0001
0010
0000
0100
0010
,  // measure 22
0001
0000
0100
0001
1000
0010
1000
0100
,  // measure 23
0010
0000
0100
0010
0001
0000
0010
0001
,  // measure 24
0100
0000
0001
0100
0010
0100
0110
0010
,  // measure 25
1000
0000
0001
0100
0001
0010
0011
0001
,  // measure 26
1000
0000
0010
1000
0100
0010
0110
0100
,  // measure 27
1000
0000
0010
1000
0001
0100
0101
0001
,  // measure 28
0010
0000
0001
1000
0010
1000
1100
0100
,  // measure 29
0010
0000
0110
0010
0001
0000
0101
0001
,  // measure 30
1000
0000
1010
0010
0100
0000
0110
0000
,  // measure 31
1010
0000
1001
0000
0101
0000
1001
0001
,  // measure 32
0011
0010
0110
0100
1100
1000
2010
0000
,  // measure 33
3020
0000
0230
0000
0302
0000
1003
0010
,  // measure 34
0100
0000
0010
1000
0100
1000
1001
0001
,  // measure 35
0010
0100
0001
0100
1000
0000
0010
0100
,  // measure 36
0010
1000
0001
0001
0010
0010
0001
1000
,  // measure 37
0010
0001
0010
1000
0100
0000
0010
0100
,  // measure 38
1000
0010
0100
0100
0010
0010
1000
0100
,  // measure 39
0010
0100
0001
0100
1000
0000
0010
0100
,  // measure 40
0001
0010
0001
0001
1000
1000
0010
0100
,  // measure 41
1000
0100
0010
1000
0010
0000
0100
0001
,  // measure 42
0010
0100
0010
0100
1000
0001
0010
0001
,  // measure 43
1000
0010
0001
0010
1000
0100
0010
0100
,  // measure 44
1000
0010
0100
0100
0010
0010
1000
0100
,  // measure 45
0010
0100
0001
0100
1000
0010
0100
0010
,  // measure 46
1000
0100
1000
1000
0001
0001
1000
0010
,  // measure 47
0001
0010
1000
0001
0010
0001
0100
0001
,  // measure 48
1000
0010
1000
1000
0100
0100
0010
0100
,  // measure 49
1000
0010
0100
0001
0010
0001
1000
0010
,  // measure 50
0100
0000
0010
0000
1000
0000
0100
0000
1000
0000
0010
0000
0110
0000
0000
0100
,  // measure 51
0000
0000
0001
0000
0000
0000
0010
0000
0000
0000
0000
0000
0001
0000
0000
0100
,  // measure 52
0000
0010
0000
0100
0000
0000
0001
0010
,  // measure 53
0001
0000
0000
0100
0000
0000
0010
0000
0000
0000
0000
0000
1000
0000
0000
0010
,  // measure 54
0000
0100
0000
0010
0000
0000
1000
0001
,  // measure 55
0010
0000
0000
0001
0000
0000
0100
0000
0000
0000
0000
0000
0010
0000
0000
0100
,  // measure 56
0000
0010
0000
1000
0000
0000
0001
0010
,  // measure 57
0100
0000
0000
0010
0000
0000
0001
0000
0000
0000
0000
0000
0100
0000
0000
0010
,  // measure 58
0000
1000
0000
0010
0000
0000
1000
0100
,  // measure 59
0010
0100
0000
0010
0001
0000
0100
0001
,  // measure 60
1000
0010
0000
1000
0100
0010
0100
0010
,  // measure 61
0001
0100
0000
0010
0100
0000
0001
0100
,  // measure 62
0001
0010
0000
0001
0010
0001
1000
0010
,  // measure 63
1000
0100
0000
1000
0100
0000
1000
0001
,  // measure 64
0100
0010
0000
0100
0001
0010
0100
0010
,  // measure 65
0001
0100
0000
0010
0100
0000
0001
0010
,  // measure 66
0001
1000
0000
0010
1000
0001
0011
0000
,  // measure 67
0010
0100
0000
0010
1000
0010
0001
0000
,  // measure 68
0100
0010
0000
0100
0001
1000
0001
0000
,  // measure 69
0010
0000
0100
0000
0000
0000
0010
0000
0001
0000
0100
0000
0010
0000
0000
0100
,  // measure 70
0000
0000
0001
0000
0000
1000
0000
0000
0100
0000
1000
0000
0010
0000
0000
0000
,  // measure 71
0100
0001
0000
0010
0100
0010
0001
0000
,  // measure 72
0100
0010
0000
0100
1000
0100
0001
0000
,  // measure 73
0010
0000
0100
0000
0000
0000
0010
0000
0001
0000
0100
0000
0010
0000
0000
0100
,  // measure 74
0000
0000
0001
0000
0000
0010
0000
0000
0100
0000
0010
0000
0011
0000
0000
0000
,  // measure 75
0010
0100
0010
0001
,  // measure 76
1000
0000
0010
0000
1000
0001
0101
0000
,  // measure 77
0100
0001
0010
0100
,  // measure 78
0010
0000
0001
0000
0100
0001
0011
0000
,  // measure 79
0010
0000
0100
0000
0010
0001
0101
0000
,  // measure 80
0100
0000
0010
0000
1000
0100
0110
0010
,  // measure 81
0001
0000
0100
0000
0010
0000
0100
0000
1000
0000
0100
0000
0101
0000
0000
0011
,  // measure 82
0000
0000
0110
0000
0000
1100
0000
0000
1001
0000
0000
0000
0001
0000
0010
0000
,  // measure 83
0100
0010
0100
1000
0001
0100
1000
0100
,  // measure 84
0001
0010
0100
0010
1000
0010
0001
0100
,  // measure 85
0010
1000
0001
0010
0100
0010
0001
0010
,  // measure 86
0100
1000
0100
0010
0001
0010
1000
0010
,  // measure 87
0001
0100
0010
0001
0010
0100
0001
0010
,  // measure 88
0100
1000
0100
0010
1000
0010
0001
0100
,  // measure 89
0010
0001
0010
0100
0001
0010
0100
0010
,  // measure 90
0001
0100
0010
1000
0100
0000
0110
0010
,  // measure 91
0001
0010
0100
0010
1000
0010
0001
0100
,  // measure 92
0010
0001
0010
0100
0001
1000
0100
0010
,  // measure 93
0001
0010
0100
0010
0001
0100
0010
0001
,  // measure 94
0010
0100
1000
0100
0001
0010
0001
0010
,  // measure 95
0100
1000
0100
0010
0100
0001
0100
1000
,  // measure 96
0010
1000
0100
0010
0100
0010
0001
0000
,  // measure 97
1000
0000
0000
0000
0010
0000
0000
0000
0100
0000
0000
0000
0110
0000
0000
0011
,  // measure 98
0000
0000
1001
0000
0000
0101
0000
0000
1010
0000
0000
0000
1100
0000
0000
0000
,  // measure 99
0100
0010
0001
0001
0001
0001
0101
0000
,  // measure 100
0001
1000
0010
0010
0010
0010
0110
0000
,  // measure 101
0010
1000
0100
0100
0100
0100
1100
0000
,  // measure 102
0100
0010
0001
0001
0001
0001
1001
0000
,  // measure 103
0001
0100
0010
0010
0010
0010
0110
0000
,  // measure 104
0010
1000
0100
0100
0100
0100
1100
0000
,  // measure 105
0100
0010
0001
0001
0001
0001
1001
0000
,  // measure 106
1000
0010
0100
0010
1000
0100
0220
0000
,  // measure 107
0000
0000
0000
0330
;

//---------------dance-single - ----------------
#NOTES:
     dance-single:
     :
     Medium:
     7:
     0.523,0.632,0.063,0.098,0.028:
0000
0000
0000
0000
,
0000
0000
0000
0000
,
0000
0000
0000
0000
,
0000
0000
0000
0000
,
1000
0100
0010
0100
,
1000
0001
0100
0010
,
1000
0100
0010
0000
0001
0010
0100
0000
,
1000
0010
0200
0000
0310
0000
0100
0000
,
0001
0000
0010
0100
0010
0100
1000
0000
,
0001
0000
0100
0001
0100
0001
0010
0000
,
0100
0000
1000
0010
1000
0010
0100
0000
,
0001
0011
1001
1000
,
0010
0000
0100
0010
0100
0010
1000
0000
,
0001
0000
0010
0001
0010
0001
0100
0000
,
0010
0000
1000
0100
1000
0100
0010
0000
,
0001
0000
0100
0001
1000
0000
0010
0000
,
0100
0000
0001
0010
0001
0000
0010
0000
,
0100
0000
0010
0001
0100
0001
0100
0000
,
0010
0000
1000
0100
1000
0000
0001
0000
,
0010
0000
0001
0010
0001
0100
0010
0000
,
0100
0000
0001
1000
0001
0000
1000
0000
,
0001
0000
0010
0100
0010
0100
0010
0000
,
0001
0000
0100
0001
1000
0000
0010
0000
,
1000
0000
0001
0100
0001
0010
0001
0000
,
0100
0000
0010
0100
0010
0000
0100
0000
,
0001
0000
1000
0100
1000
0000
0001
0000
,
0010
0000
0100
0010
0100
0000
0010
0000
,
0001
0000
0100
0010
0100
0000
0001
0010
,
0001
0000
0010
0100
0010
0000
0100
1000
,
0100
0000
1000
0010
1000
0000
0110
0000
,
1001
0000
0110
0000
1001
0000
1000
0100
,
0010
0001
1000
0010
0100
0001
2000
0000
,
3200
0320
0032
1003
,
0010
0000
0100
0001
0010
0000
0001
0000
,
1000
0000
0010
0100
0010
0000
0100
0000
,
0001
0000
0010
0100
0010
0100
0010
0000
,
0001
0000
0100
0010
0100
0000
0001
0000
,
1000
0000
0001
1000
0001
0010
0001
0000
,
0010
0000
0100
0010
0100
0000
0010
0000
,
0001
0000
0100
0001
1000
0010
1000
0000
,
0100
0000
1000
0001
1000
0000
0001
0000
,
0100
0000
0010
0100
0010
1000
0001
0000
,
1000
0000
0100
0010
0100
0000
0010
0000
,
0001
0000
0100
0001
1000
0010
1000
0000
,
0100
0000
1000
0100
0010
0000
0100
0000
,
0010
0000
0001
0100
0001
1000
0010
0000
,
1000
0000
0100
1000
0100
0000
1000
0000
,
0001
0000
0100
0001
0010
0001
0010
0000
,
0100
0000
0010
0001
0100
0000
0010
0000
,
0100
0000
0010
0100
0001
1000
0002
0000
,
0000
0000
0000
2003
,
0000
0000
0000
3020
,
0000
0000
0000
0230
,
0000
0000
0000
0302
,
0000
0000
0000
0023
,
0000
0000
0000
0230
,
0000
0000
0000
0320
,
0000
0000
0000
0031
,
0100
0000
0010
0100
0001
0000
0010
0000
,
0100
0000
1000
0100
1000
0000
0001
0000
,
0100
0000
0001
0010
0001
0000
0010
0000
,
0100
0000
0010
0100
0010
0000
0001
0000
,
0100
0000
0010
0100
0010
0000
0100
0000
,
0001
0000
1000
0100
1000
0000
0001
0000
,
0100
0000
0001
0010
0001
0000
0010
0000
,
0100
0000
1000
0010
1000
0000
0010
0000
,
0100
0001
0000
0010
0100
0000
0010
0000
,
0001
0100
0000
0010
0100
0000
0010
0000
,
0100
0000
0001
0000
0000
0000
1000
0000
0001
0000
0000
0000
1000
0000
0000
0100
,
0000
0000
1000
0000
0000
0010
0000
0000
0100
0000
0000
0000
0010
0000
0000
0000
,
0100
0001
0000
0010
0001
0000
0010
0000
,
0100
0010
0000
0001
0100
0000
0010
0000
,
0100
0000
0001
0000
0000
0000
1000
0000
0001
0000
0000
0000
1000
0000
0000
0100
,
0000
0000
0010
0000
0000
0100
0000
0000
1000
0000
0000
0000
1001
0000
0000
0000
,
0000
1000
0000
0010
,
0000
0000
0100
0000
0000
0001
0010
0000
,
0000
0100
0000
0010
,
0000
0000
0001
0000
0000
1000
0010
0000
,
0100
0001
0010
0100
,
0010
0000
0001
0000
0100
0000
0010
0100
,
0010
0000
0100
0000
0001
0000
1000
0000
0001
0000
1000
0000
0100
0000
0000
0010
,
0000
0000
0100
0000
0000
0010
0000
0000
0001
0000
0000
0000
1001
0000
0000
0000
,
1000
0010
0100
0000
0010
0000
0100
0000
,
0001
0010
0100
0010
0001
0000
0100
0000
,
0010
0100
0010
0000
0100
0000
0001
0000
,
1000
0100
0010
0100
0010
0000
0100
0000
,
0010
0001
0100
0000
0010
0000
0100
0000
,
0001
0100
0001
0010
0001
0000
0010
0000
,
0100
1000
0010
0000
1000
0000
0001
0000
,
0100
0001
0010
0100
0010
0000
0110
0000
,
0010
0001
0100
0000
0010
0000
0100
0000
,
0001
0100
0001
1000
0100
0000
1000
0000
,
0001
0100
0001
0000
0010
0000
0100
0000
,
0010
0001
0100
0010
0100
0000
0010
0000
,
0100
0001
0010
0000
0001
0000
0010
0000
,
0100
0010
0001
0100
0010
0000
0100
0000
,
0010
0000
0000
0000
0001
0000
0000
0000
0100
0000
0000
0000
0010
0000
0000
0100
,
0000
0000
0001
0000
0000
1000
0000
0000
0100
0000
0000
0000
0010
0000
0000
0000
,
0001
0000
0100
0001
0100
0001
1000
0000
,
0010
0000
1000
0100
1000
0100
0010
0000
,
0001
0000
0100
0010
0100
0010
1000
0000
,
0001
0000
0100
0001
0100
0001
0010
0000
,
0100
0000
1000
0100
1000
0100
0010
0000
,
0001
0000
0100
0010
0100
0010
1000
0000
,
0001
0000
1000
0001
1000
0001
0100
0000
,
0010
0000
0100
0010
1000
0100
0020
0000
,
0000
0000
0000
0030
;

//---------------dance-single - ----------------
#NOTES:
     dance-single:
     :
     Easy:
     4:
     0.336,0.409,0.021,0.139,0.000: // measure 1
0000
0000
0000
0000
,  // measure 2
0000
0000
0000
0000
,  // measure 3
0000
0000
0000
0000
,  // measure 4
0000
0000
0000
0000
,  // measure 5
1000
0100
0010
0100
,  // measure 6
0010
0001
0100
0001
,  // measure 7
0100
0001
1000
0010
,  // measure 8
0200
0320
1030
0010
,  // measure 9
0000
0100
0001
0010
,  // measure 10
0000
0001
0100
0010
,  // measure 11
0000
0100
0010
1000
,  // measure 12
0000
0001
1000
0001
,  // measure 13
0000
0100
0001
0010
,  // measure 14
0000
0100
0010
0001
,  // measure 15
0000
0100
0010
1000
,  // measure 16
0000
0100
1000
0010
,  // measure 17
0000
0100
0000
0001
,  // measure 18
0000
0010
0100
0010
,  // measure 19
0000
0001
0000
1000
,  // measure 20
0000
0010
1000
0010
,  // measure 21
0000
0100
0000
0001
,  // measure 22
0000
0010
0001
0100
,  // measure 23
0000
0010
0000
0100
,  // measure 24
0000
0001
1000
0100
,  // measure 25
0000
1000
0010
0100
,  // measure 26
0000
0001
0010
0100
,  // measure 27
0000
0010
0100
1000
,  // measure 28
0000
0001
0100
0001
,  // measure 29
0010
0100
0010
0001
,  // measure 30
0100
0010
1000
0100
,  // measure 31
1000
0010
0100
0001
,  // measure 32
0010
0002
2003
3010
,  // measure 33
0000
0000
0000
0100
,  // measure 34
0010
1000
0100
1000
,  // measure 35
0001
0100
0001
0100
,  // measure 36
0001
0010
0000
0100
,  // measure 37
0010
0100
0010
0001
,  // measure 38
0100
0010
0000
1000
,  // measure 39
0001
1000
0001
0010
,  // measure 40
0100
0010
0000
0001
,  // measure 41
0100
0010
0100
0001
,  // measure 42
1000
0100
1000
0001
,  // measure 43
0100
0010
0100
0001
,  // measure 44
0010
0100
0000
0010
,  // measure 45
0100
1000
0001
0100
,  // measure 46
0001
0010
0000
0001
,  // measure 47
0100
0010
0100
0001
,  // measure 48
1000
0100
0000
1000
,  // measure 49
0100
0010
0100
0010
,  // measure 50
0001
0100
0010
0200
,  // measure 51
0000
0000
0000
0320
,  // measure 52
0000
0000
0000
2030
,  // measure 53
0000
0000
0000
3002
,  // measure 54
0000
0000
0000
0023
,  // measure 55
0000
0000
0000
0230
,  // measure 56
0000
0000
0000
0320
,  // measure 57
0000
0000
0000
0032
,  // measure 58
0000
0000
0000
1003
,  // measure 59
0010
0000
0100
0001
,  // measure 60
0010
0000
0100
0010
,  // measure 61
0001
0000
0100
0001
,  // measure 62
1000
0000
0010
1000
,  // measure 63
0100
0000
1000
0100
,  // measure 64
0010
0000
0100
0010
,  // measure 65
0001
0000
0100
0010
,  // measure 66
0100
0000
0001
1000
,  // measure 67
0000
0010
0000
0000
0100
0000
0001
0000
,  // measure 68
0000
0100
0000
0000
0001
0000
0010
0000
,  // measure 69
0000
0100
0000
0000
0010
0000
0100
0000
,  // measure 70
0000
1000
0000
0000
0001
0000
0010
0000
,  // measure 71
0000
0100
0000
0000
0010
0000
0100
0000
,  // measure 72
0000
1000
0000
0000
0010
0000
0100
0000
,  // measure 73
0000
0010
0000
0000
1000
0000
0001
0000
,  // measure 74
0000
0010
0000
0000
0001
0000
0101
0000
,  // measure 75
0000
0000
0000
0000
,  // measure 76
0000
0000
0000
0110
,  // measure 77
0000
0000
0000
0000
,  // measure 78
0000
0000
0000
1001
,  // measure 79
0001
1000
0010
1000
,  // measure 80
0100
0010
0100
1000
,  // measure 81
0010
1000
0010
0100
,  // measure 82
0000
0000
0000
0010
,  // measure 83
1000
0100
0010
0100
,  // measure 84
0010
0100
1000
0010
,  // measure 85
1000
0001
0100
0001
,  // measure 86
0010
0100
0010
0100
,  // measure 87
1000
0010
1000
0001
,  // measure 88
0100
0001
0010
0100
,  // measure 89
1000
0100
0010
0100
,  // measure 90
1000
0010
1000
0001
,  // measure 91
0100
0010
0100
0010
,  // measure 92
1000
0001
1000
0100
,  // measure 93
1000
0100
0010
0001
,  // measure 94
0010
0001
0100
0010
,  // measure 95
0100
0010
1000
0001
,  // measure 96
1000
0100
0010
0100
,  // measure 97
1000
0000
0001
0100
,  // measure 98
0000
0000
0000
0010
,  // measure 99
0100
0002
0010
1003
,  // measure 100
0100
0020
0001
0130
,  // measure 101
1000
0020
0100
1030
,  // measure 102
0010
0200
0010
0301
,  // measure 103
0010
0200
1000
0310
,  // measure 104
0100
2000
0001
3010
,  // measure 105
0100
0002
0010
1003
,  // measure 106
0100
0010
0100
2000
,  // measure 107
0000
0000
0000
3000
;
