#TITLE:tartarus -ab remix-;
#SUBTITLE:;
#ARTIST:east breaks in thousand;
#TITLETRANSLIT:;
#SUBTITLETRANSLIT:;
#ARTISTTRANSLIT:;
#GENRE:Persona3;
#CREDIT:GuardianFrozen/AznPunk07/FrozenHeat;
#MENUCOLOR:#0c472c;
#METERTYPE:DDR;
#BANNER:tartarus -ab remix--bn.png;
#BACKGROUND:tartarus -ab remix--bg.png;
#LYRICSPATH:;
#CDTITLE:!cdtitle.png;
#MUSIC:tartarus -ab remix-.mp3;
#OFFSET:-0.057;
#SAMPLESTART:19.220;
#SAMPLELENGTH:19.200;
#SELECTABLE:YES;
#LISTSORT:;
#BPMS:0.000=100.000,56.000=50.000,58.000=100.000,68.000=50.000,70.000=200.000,134.000=50.000,137.000=100.000,152.000=200.000,272.000=50.000;
#STOPS:141.250=0.150
,141.500=0.150
,145.250=0.150
,145.500=0.150
;
#BGCHANGES:;
#ATTACKS:;

//---------------dance-single - Tziah----------------
#NOTES:
     dance-single:
     Tziah:
     Hard:
     10:
     0.650,1.000,0.204,0.109,0.529: // measure 1
0000
0000
0000
0000
,  // measure 2
0000
0000
0000
0000
,  // measure 3
0000
0000
0000
0000
,  // measure 4
0000
0000
0000
0000
,  // measure 5
2000
0000
0000
0000
,  // measure 6
0000
0000
3000
0000
,  // measure 7
0002
0000
0000
0000
,  // measure 8
0000
0000
0000
0000
0000
0000
0000
0000
0003
0000
0000
0000
1000
0000
0000
0010
,  // measure 9
0200
0000
0000
0000
,  // measure 10
0001
0000
0000
0000
0000
0000
0000
0000
0300
0000
0000
0000
0010
0000
0000
1000
,  // measure 11
0001
0011
0100
1100
,  // measure 12
1000
1001
0010
0110
,  // measure 13
1000
1010
0001
0101
,  // measure 14
1000
1001
1000
0001
,  // measure 15
2002
0000
0000
0000
0000
0000
3003
0000
1000
0010
0100
0010
1000
0000
0001
0000
,  // measure 16
0010
0100
0010
0001
1000
0000
0001
0000
0100
1000
0100
0010
0100
0000
0001
0000
,  // measure 17
0010
0100
0010
0001
1000
0000
0001
0000
0100
0001
1000
0001
0100
0000
0010
0000
,  // measure 18
2000
0000
0002
3003
0110
0010
0001
0100
,  // measure 19
0001
0001
1000
0100
0010
0010
0001
1000
,  // measure 20
0001
0010
0001
0100
0001
0001
1000
0010
,  // measure 21
0100
0100
0010
1000
1100
0100
0010
0001
,  // measure 22
0011
0010
0100
1000
1010
0010
0100
0001
,  // measure 23
1000
1000
0001
0100
0101
0001
0010
0100
,  // measure 24
1000
0010
0100
0001
0010
0010
0100
1000
,  // measure 25
0010
0010
0100
0001
0101
0100
0001
0010
,  // measure 26
0011
0001
1000
0010
0110
0100
0010
1000
,  // measure 27
0100
0100
1000
0001
0010
0010
0001
1000
,  // measure 28
0100
0001
0100
0010
0001
0001
0100
1000
,  // measure 29
0100
0100
0010
1000
1001
0001
0010
0100
,  // measure 30
0110
0010
0001
1000
1100
0100
0010
0001
,  // measure 31
1000
1000
0010
0100
0110
0010
1000
0001
,  // measure 32
0010
0000
0100
0000
1000
0000
0001
0000
1001
0000
1000
0000
0001
0000
1000
0001
,  // measure 33
1000
0000
0001
1000
0001
0000
1000
0100
0010
0000
0001
0100
0010
0000
1000
0000
,  // measure 34
0001
0010
0100
1000
0010
0100
0001
0000
2002
0000
0000
0000
0000
0000
0000
0000
,  // measure 35
0003
0000
3000
0000
0001
0001
0100
0010
1000
1000
0010
0100
0001
0010
0001
0010
,  // measure 36
0100
0000
1000
0000
0100
0000
0010
0000
0100
0000
1000
0000
0001
0000
0100
0000
0001
0000
0100
0010
0100
0000
0001
0000
0001
0000
1000
0000
0100
0000
0100
0000
,  // measure 37
1000
0001
1000
0000
0001
0100
0001
0100
0001
0000
1000
0000
0001
0000
0010
0100
0010
0000
0100
1000
0100
1000
0100
0000
0010
0001
0010
0001
0010
0000
0001
0000
,  // measure 38
1000
0000
0001
0000
0100
0000
0100
0000
0010
0000
1000
0010
1000
0000
0001
0000
0010
0000
0010
0000
0001
0000
1000
0000
0001
0000
0100
0010
0100
0000
0001
0000
,  // measure 39
1000
0100
1000
0100
1000
0000
0001
1000
0001
0000
0100
0000
0010
1000
0010
0000
,  // measure 40
0100
0000
0001
1000
0001
0000
0010
0000
0100
1000
0100
0000
1000
0100
1000
0000
,  // measure 41
0001
0100
0001
0100
0001
0000
1000
0001
1000
0000
0100
0000
0010
0001
0010
0000
,  // measure 42
0100
0000
1000
0001
1000
0000
0010
0000
0100
0001
0100
0000
0001
0100
0001
0000
,  // measure 43
1000
0010
1000
0010
1000
0000
0001
1000
0001
0000
0010
0000
0100
1000
0100
0000
,  // measure 44
0010
0000
0001
1000
0001
0000
0100
0000
0010
1000
0010
0000
1000
0010
1000
0000
,  // measure 45
0001
0010
0001
0010
0001
0000
1000
0001
1000
0000
0010
0000
0100
0001
0100
0000
,  // measure 46
0010
0000
1000
0001
1000
0000
0100
0000
0010
0001
0010
0000
0001
0010
0001
0000
,  // measure 47
1000
0001
1000
0001
1000
0000
0100
0000
0110
0000
0000
0000
0001
0000
0000
0000
,  // measure 48
1000
0010
0010
0100
0001
1000
0100
0010
,  // measure 49
0100
1100
0010
0011
,  // measure 50
1002
0103
2001
3100
,  // measure 51
0001
0010
0001
0000
0010
0000
0100
1000
0100
0000
1000
0000
0010
1000
0010
0000
,  // measure 52
0100
0000
0001
0100
0001
0000
0010
0000
0001
1000
0001
0000
0010
0000
0001
0000
,  // measure 53
1000
0100
1000
0001
1000
0000
0010
0100
0010
0000
0100
0000
0001
0000
1000
0000
,  // measure 54
0001
0010
0001
1000
0001
0000
0100
0010
0100
0000
0001
1000
0000
1000
0001
0000
,  // measure 55
1000
0001
1000
0001
1000
0000
0100
0010
0100
0000
1000
0000
0001
0010
0001
0000
,  // measure 56
1000
0000
0010
0100
0000
0100
0010
0000
1000
0001
0010
0001
1000
0000
0001
0000
,  // measure 57
0100
0001
0010
0001
0100
0000
0010
0000
1000
0000
0001
0000
0010
0000
0100
1000
,  // measure 58
0100
0000
0010
0001
0010
0100
0010
0000
0001
0000
1000
0000
0010
0000
0100
0000
,  // measure 59
0001
0000
0001
0100
0010
0000
1000
0100
0010
0000
0001
0100
0010
0000
0100
0000
,  // measure 60
0010
0000
1000
0100
0010
0000
0100
0000
1000
0001
1000
0000
0100
0000
1000
0000
,  // measure 61
0001
0010
0001
0010
0001
0000
0100
0010
0100
0000
0010
0000
1000
0000
0001
0000
,  // measure 62
1000
0001
1000
0100
1000
0000
0001
0100
0001
0000
1000
0010
0100
0010
1000
0000
,  // measure 63
0100
0000
0010
0001
0010
0000
0100
0000
1000
0001
1000
0001
0100
0000
0010
0000
,  // measure 64
1000
0000
1000
0000
0010
0000
0100
0001
0100
0000
0010
0000
1000
0001
1000
0000
,  // measure 65
0001
0000
0100
0010
1000
0000
0010
0100
0001
0000
1000
0000
0001
0000
0010
0100
,  // measure 66
0010
0100
1000
0010
0100
0001
1000
0001
,  // measure 67
0110
0000
0001
0000
0100
0000
0010
1000
0100
0000
0010
0001
0010
0000
0100
0000
,  // measure 68
1000
0000
0010
0100
0001
0000
0010
0100
1000
0001
1000
0010
0100
0001
1000
0001
,  // measure 69
2000
0000
0000
3020
,  // measure 70
0000
0000
0032
0000
,  // measure 71
0000
0203
0000
0000
,  // measure 72
0300
0000
0000
0000
;

//---------------dance-single - Yabbashah----------------
#NOTES:
     dance-single:
     Yabbashah:
     Medium:
     9:
     0.436,0.673,0.051,0.219,0.142:
0000
0000
0000
0000
,
0000
0000
0000
0000
,
0000
0000
0000
0000
,
0000
0000
0000
0000
,
1000
0000
0000
0000
,
0000
0000
0000
0000
,
0001
0000
0000
0000
,
0000
0000
0000
0100
,
0100
0000
0000
0000
,
0000
0000
0000
0010
,
0010
0000
1000
0000
,
0001
0000
0000
0000
,
0100
0000
0000
0000
,
0000
0000
0001
1000
,
0001
0000
0000
0000
,
1000
0100
0010
0000
,
0001
0000
0000
0000
,
0100
0001
2000
3100
,
0010
0001
0100
0010
1000
0000
0001
0000
,
0010
0000
0011
0000
0001
0010
0100
0000
,
0100
0010
0001
0000
2000
0000
3001
0010
,
2000
0000
3010
0100
2000
0000
3010
0000
,
0100
0010
0100
0001
2000
0000
3100
0000
,
1100
0000
1010
0000
0100
0001
0100
0000
,
0010
1000
0001
0000
2000
0000
3100
0000
,
2000
3010
0002
0013
,
0100
0010
0001
1000
0001
0000
0100
0000
,
0101
0000
0001
1000
0100
0010
0100
0000
,
1000
0001
1000
0000
0002
0000
1003
0010
,
0002
0000
0013
0100
0002
0000
1003
0000
,
0100
0010
0001
1000
0002
0000
0103
0000
,
0010
1000
0001
0100
0002
0000
0013
0000
,
0110
0000
0010
0100
1000
0001
0010
0100
,
1000
0001
0100
0010
0002
0000
0003
0000
,
0010
0000
0100
0000
0010
1000
0100
0000
0010
0001
0100
0001
1000
0000
1000
0000
,
0001
0010
0100
0010
0001
0001
0000
1000
0001
0000
0100
0010
0100
0001
0100
0010
,
0100
0000
0001
0010
0100
1000
0000
1000
0001
0000
1001
0000
1000
0100
0010
0000
,
0100
0000
1000
0100
0000
0010
0100
1000
0001
0000
0100
0000
0010
1000
0001
0000
,
0010
0000
0000
0100
0000
0000
0010
0000
0001
0000
0100
0000
0010
1000
0000
0000
,
0100
0000
1000
0010
0000
0000
0100
0000
0010
0000
0100
0000
0001
0010
0000
0000
,
0100
0000
0000
1000
0000
0000
0100
0000
0010
0000
0001
0000
0100
0010
0000
0000
,
1000
0000
0001
1000
0000
1000
0001
0000
0100
0000
0010
0000
1000
0000
0001
0000
,
1000
0000
0000
0010
0000
0000
1000
0000
0001
0000
0010
0000
0001
0100
0000
0000
,
0010
0000
1000
0100
0000
1000
0100
0000
0010
0000
0001
0000
1000
0001
1000
0000
,
0001
0000
0100
0001
0000
0100
0001
0000
0010
0000
0100
0000
1000
0001
0000
0000
,
1000
0000
0010
0100
0000
0010
0100
0000
0001
0000
0010
0100
0000
0010
0100
0000
,
1000
0001
1000
0000
0010
0000
0100
0000
0001
0000
0000
0000
1001
0000
0000
0000
,
1000
0100
0010
0001
0100
0010
1000
0001
,
1000
1000
0001
0001
,
0200
0300
0020
0030
,
1000
0100
0010
0100
1000
0001
0100
0010
,
1000
0001
0010
0100
0010
0001
1000
0010
,
0100
0001
0010
0100
1000
0010
0100
0001
,
0200
0000
0310
1000
0002
0000
0103
0010
,
1000
0001
0010
0100
1000
0001
1000
0010
,
0200
0000
0301
0010
0001
1000
0001
0000
,
0100
0010
0100
0010
1000
0001
0010
0100
,
2000
0000
3100
0010
0002
0000
1003
0100
,
0001
0100
1000
0100
0001
0100
1000
0100
,
0010
0001
0100
0010
1000
0001
0010
1000
,
0010
0001
0100
0010
1000
0001
0100
0010
,
0200
0000
1300
0100
0002
0000
0013
0100
,
0010
0001
1000
0001
0100
0010
1000
0100
,
0020
0000
0130
1000
0001
0100
0010
1000
,
0002
0000
0013
1000
0010
0001
0010
0100
,
1000
0100
0010
0001
1000
0001
0100
0010
,
0200
0000
0301
0010
0001
1000
0100
1000
,
0001
0100
0001
1000
0010
1000
0001
0010
,
2000
0000
0000
3200
,
0000
0000
0302
0000
,
0000
0023
0000
0000
,
0030
0000
0000
0000
;

//---------------dance-single - Arqa----------------
#NOTES:
     dance-single:
     Arqa:
     Easy:
     8:
     0.391,0.570,0.015,0.496,0.000:
0000
0000
0000
0000
,
0000
0000
0000
0000
,
0000
0000
0000
0000
,
0000
0000
0000
0000
,
2000
0000
0000
0000
,
0000
0000
3000
0000
,
0002
0000
0000
0000
,
0000
0000
0003
2000
,
3200
0000
0000
0000
,
0000
0000
0300
0020
,
0032
0000
0203
0000
,
0320
0000
0000
0000
,
2030
0000
0000
0000
,
3000
0000
0002
2003
,
3002
0000
0000
0000
,
0023
0230
0320
0000
,
0032
0000
0003
0000
,
2000
3002
2003
3010
,
0100
0001
0100
0000
0010
0000
0010
0000
,
1000
0000
1000
0000
0001
0010
0001
0000
,
0001
0100
0001
0000
0020
0000
0130
0000
,
0020
0031
0020
0130
,
1000
0001
1000
0000
0020
0000
0130
0000
,
0001
1000
0001
0000
0010
0001
0010
0000
,
0010
1000
0010
0000
0002
0000
0103
0000
,
2000
3100
0002
0103
,
0010
1000
0010
0000
0100
0000
0100
0000
,
0001
0000
0001
0000
1000
0100
1000
0000
,
1000
0010
1000
0000
0200
0000
0310
0000
,
0200
1300
0200
0310
,
0001
1000
0001
0000
0200
0000
0310
0000
,
1000
0001
1000
0000
0200
0000
0310
0000
,
0001
1000
0001
0000
1000
0001
1000
0000
,
0001
1000
0001
1000
0002
0000
0000
0000
,
0203
0320
0230
0301
1000
0100
1000
0010
,
0100
0001
0010
0100
1000
0020
0130
0002
,
1003
0200
0310
0001
2000
3010
0100
0001
,
1000
0100
0010
0100
2000
3010
0200
0301
,
0020
0030
0001
0000
1000
0000
0010
0100
,
0010
0000
1000
0000
0001
0000
0010
0100
,
1000
0100
0010
0000
0001
0000
1000
0001
,
0200
0300
0010
1000
0200
0300
0010
0001
,
0200
0300
0010
0000
1000
0001
0100
0001
,
0020
0030
0100
1000
0010
1000
0001
0000
,
0020
0030
0100
0000
1000
0100
0010
0000
,
0001
0100
0010
1000
0100
0010
0001
0000
,
0200
0300
0010
0000
1000
0000
0001
1000
,
0001
0100
0001
0000
1000
0100
1000
0000
,
0001
0010
0100
1000
,
0002
1003
2000
3001
,
0002
0000
0103
0000
0100
0010
0100
0000
,
0010
1000
0010
0000
1000
0001
1000
0000
,
0001
0010
0001
0000
0100
0010
0100
0000
,
0020
0130
0200
0310
,
0020
0000
1030
0000
0001
1000
0001
0000
,
2000
0000
3001
0000
0001
1000
0001
0000
,
0010
0001
0010
0100
0010
0001
0010
0000
,
0200
1300
0020
0130
,
0002
0000
1003
0010
1000
0100
1000
0010
,
1000
0100
0010
0001
1000
0000
0001
0100
,
0001
0000
1000
0001
1000
0000
0010
1000
,
0020
1030
0200
0310
,
2000
0000
3100
0010
0001
0010
0100
1000
,
0002
0000
1003
0010
0100
0010
1000
0100
,
0020
0000
0031
1000
0001
0000
0101
0000
,
0010
1000
0010
1000
0100
0000
1100
0000
,
0020
0000
0130
1000
0100
0000
0010
0001
,
1000
0001
0100
0010
1000
0001
1000
0001
,
0020
0000
0000
0032
,
0000
0000
0203
0000
,
0000
2300
0000
0000
,
3000
0000
0000
0000
;

//---------------dance-single - Thebel----------------
#NOTES:
     dance-single:
     Thebel:
     Beginner:
     5:
     0.189,0.233,0.000,0.190,0.000:
0000
0000
0000
0000
,
0000
0000
0000
0000
,
0000
0000
0000
0000
,
0000
0000
0000
0000
,
1000
0000
0000
0000
,
0000
0000
0000
0000
,
0001
0000
0000
0000
,
0000
0000
0000
0000
,
0100
0000
0000
0000
,
0000
0000
0000
0000
,
0010
0000
0010
0000
,
1000
0000
0000
0000
,
0001
0000
0000
0000
,
0000
0000
0010
0010
,
0010
0000
0000
0000
,
0100
0100
0100
0000
,
1000
0000
0000
0000
,
0001
0001
0002
0000
,
0103
0010
0100
0000
,
0010
1000
0010
0000
,
1000
0001
0020
0000
,
0230
0000
2300
0000
,
3001
0001
2000
0000
,
3010
0010
0100
0000
,
0001
0001
0020
0000
,
0032
0000
0203
0000
,
0310
1000
0010
0000
,
0100
0001
0100
0000
,
0001
0010
0002
0000
,
2003
0000
3200
0000
,
1300
0001
0020
0000
,
0031
1000
0020
0000
,
0130
0001
0100
0010
,
1000
0100
2000
0000
,
0001
0001
3002
0000
0000
0000
0000
0000
,
0000
0000
0000
0000
0000
1003
0000
1000
,
0000
2000
0000
0000
3020
0000
0000
0000
,
0000
0000
0130
0100
,
0200
0000
0000
0000
,
0000
0000
0000
0000
,
0000
0000
0000
0000
,
0301
0000
0001
0000
,
0002
0000
0000
0000
,
2003
0000
0000
0000
,
3020
0000
0000
0000
,
0000
0000
0000
0000
,
0230
0000
0000
0000
,
0000
0000
0000
0000
,
0300
0000
0000
0000
,
0000
0000
0000
0000
,
0001
0010
0100
1000
,
0010
0100
0001
1000
,
0100
0100
0010
0010
,
0001
1000
0010
0100
,
0001
0001
1000
1000
,
0100
0100
0010
0100
,
1000
0001
0100
0010
,
1000
1000
0001
0001
,
1000
0100
0010
0001
,
1000
0010
0100
0001
,
0010
1000
0100
0001
,
0010
0010
0100
0100
,
1000
1000
0001
0100
,
0010
0010
1000
0100
,
0010
0010
0001
1000
,
0010
0001
0100
1000
,
0001
0001
1000
0010
,
0100
0001
1000
0001
,
0200
0000
0000
0302
,
0000
0000
0023
0000
,
0000
2030
0000
0000
,
3000
0000
0000
0000
;
