#TITLE:Nordic Wind;
#SUBTITLE:;
#ARTIST:Another Infinity;
#TITLETRANSLIT:;
#SUBTITLETRANSLIT:;
#ARTISTTRANSLIT:;
#CREDIT:;
#BANNER:;
#BACKGROUND:;
#LYRICSPATH:;
#CDTITLE:;
#MUSIC:[Collaboration] - Nordic Wind.mp3;
#OFFSET:-0.284;
#SAMPLESTART:100.343;
#SAMPLELENGTH:12.000;
#SELECTABLE:YES;
#BPMS:0.000=58.395,1.000=62.910,2.000=58.125,3.000=59.307,4.000=61.116,5.000=60.319,6.000=58.537,7.000=59.912,8.000=59.876,9.000=60.747,10.000=59.893,11.000=59.745,12.000=60.227,13.000=60.093,14.000=60.033,15.000=60.278,16.000=58.953,17.000=61.571,18.000=58.687,19.000=60.658,20.000=59.616,21.000=61.258,22.000=60.216,23.000=59.414,24.000=59.677,25.000=60.093,26.000=58.702,27.000=61.040,28.000=59.241,29.000=60.891,30.000=60.269,31.000=59.833,32.000=59.772,34.000=59.780,35.000=60.874,36.000=59.643,37.000=59.123,38.000=60.312,39.000=59.841,40.000=59.840,41.000=58.594,42.000=59.840,43.000=61.753,44.000=59.954,45.000=62.500,46.000=58.702,47.000=59.840,48.000=59.728,49.000=61.141,50.000=57.832,51.000=59.840,52.000=61.141,53.000=59.841,54.000=59.155,55.000=61.141,56.000=60.428,57.000=59.840,58.000=59.608,59.000=59.840,61.000=61.142,62.000=59.840,63.000=59.728,64.000=60.773,65.000=59.155,66.000=60.312,67.000=59.266,68.000=60.250,69.000=60.426,70.000=59.954,71.000=61.024,72.000=58.811,73.000=60.312,74.000=61.378,75.000=58.378,76.000=59.952,77.000=59.156,78.000=59.840,79.000=62.623,80.000=59.156,81.000=60.541,82.000=59.841,83.000=59.155,84.000=59.840,85.000=59.954,86.000=61.141,87.000=60.426,88.000=58.594,89.000=61.141,90.000=59.326,91.000=59.840,92.000=59.728,93.000=59.954,94.000=71.752,95.000=52.274,96.000=57.398,97.000=60.426,98.000=59.266,99.000=59.840,100.000=61.142,101.000=59.840,103.000=58.594,104.000=61.258,105.000=61.024,106.000=58.594,107.000=59.954,108.000=59.840,109.000=60.426,110.000=59.728,111.000=59.841,112.000=61.141,113.000=60.067,114.000=60.541,115.000=58.272,116.000=60.250,117.000=59.954,118.000=59.266,119.000=60.426,120.000=59.840,121.000=59.377,122.000=61.634,123.000=58.593,124.000=59.841,125.000=59.840,126.000=60.773,127.000=58.378,128.000=59.335,129.000=53.526,130.000=46.386;
#STOPS:;
#BGCHANGES:;

//---------------dance-single - ----------------
#NOTES:
     dance-single:
     :
     Hard:
     9:
     0.478,0.474,0.217,0.166,0.847: // measure 1
0000
0000
0000
0000
0000
0000
0000
0000
0000
0010
1000
0010
,  // measure 2
1000
0000
0000
0101
0000
0000
1010
0000
0000
1000
0100
0010
,  // measure 3
0001
0000
1000
0010
1000
0010
1000
0000
0001
0100
0001
0100
0001
0000
1000
0001
0100
0010
1000
0000
0001
0000
0100
0000
,  // measure 4
0110
0000
0010
1000
0001
0100
0001
0000
0010
0100
1000
0100
0010
0000
0010
0100
1000
0100
0010
0000
0001
0000
0100
0000
,  // measure 5
0002
0000
0000
0000
1003
0010
2000
0000
0000
0000
3001
0100
0001
0000
0010
0000
1000
0000
0001
0000
0100
0000
1000
0000
,  // measure 6
0020
0000
0000
0000
1030
0010
2000
0000
0000
0000
3001
0100
0001
0000
0100
0000
0100
0000
0010
0000
1000
0000
1000
0000
,  // measure 7
0001
0000
0100
0000
0100
0000
0020
0000
0000
0000
0000
0000
1030
0000
0100
0000
0001
0000
0100
0000
0000
1000
0100
0000
,  // measure 8
0010
0000
0001
0100
0010
1000
0100
0010
0001
0100
0010
1000
,  // measure 9
0020
0000
0000
0000
1030
0100
1000
0000
0000
0000
0001
0100
0001
0000
0100
0000
0010
0000
1000
0000
0010
0100
0010
0000
,  // measure 10
1000
0000
0001
0000
1000
0010
1000
0000
0001
0000
1000
0010
1000
0000
0100
0000
0001
0000
0100
0000
0010
0000
0001
0000
,  // measure 11
1000
0000
0010
0000
0100
0000
0002
0000
0000
0000
1003
0010
0100
0000
0100
0000
0001
0000
0001
0000
0000
1000
0010
0000
,  // measure 12
0200
0000
0000
0300
0001
0000
0100
0000
0010
0000
1000
0000
0100
0000
0010
0000
0001
0000
0100
0000
0010
1000
0010
0000
,  // measure 13
2000
0000
0000
3002
0000
0000
0103
0010
1000
0100
0010
0001
,  // measure 14
0100
0000
0000
0000
0010
1000
0010
0000
0000
0000
0100
0001
0100
0000
0010
0000
1000
0000
0001
0000
1000
0000
0010
0000
,  // measure 15
1000
0000
0001
0000
0100
0000
0010
0000
1000
0100
1000
0100
1000
0000
0001
0000
0100
0000
1000
0000
0000
0000
0100
0000
,  // measure 16
0100
0000
0001
0001
0100
0010
1000
0100
0010
0001
0100
0010
,  // measure 17
1010
0000
1000
1001
0000
0001
0101
0000
0100
0110
0010
1000
,  // measure 18
1100
0000
0001
1001
0000
1000
1100
0000
0001
1001
1000
0010
,  // measure 19
0110
0000
1000
1100
0000
0001
0011
0000
1000
1001
0010
0100
,  // measure 20
0010
0000
0000
0000
1000
0000
0100
0000
0000
0000
0010
0000
0002
0000
0000
0000
0000
0000
2003
0000
3010
0100
0010
0100
,  // measure 21
0010
0000
1000
0100
1000
0000
0001
0000
0100
0010
0100
0000
0001
0000
1000
0010
1000
0000
1001
0000
0001
0010
0100
0000
,  // measure 22
2000
0000
3010
0100
0001
0000
0020
0000
0031
0010
0001
0000
0020
0000
0130
1000
0100
0000
1100
0000
1000
0001
1000
0000
,  // measure 23
0001
0002
0100
0203
0000
0010
0320
0000
1030
1010
0010
1000
,  // measure 24
0001
0000
0000
0000
0100
0000
0000
0000
1000
0000
0000
0000
0100
0000
0000
0000
0000
0000
0000
0000
0010
0000
0000
0000
1001
0000
0000
0000
0000
0000
0000
0000
0000
0000
0000
0000
1000
0001
1000
0000
0000
0000
0000
0000
0000
0000
0000
0000
,  // measure 25
1001
0000
1000
0000
0001
0010
0001
0000
0000
0000
0001
0100
0001
0000
0001
0010
0001
0000
1001
0000
1000
0010
1000
0000
,  // measure 26
0001
0000
1000
0010
0100
0001
0100
0000
0000
0000
0010
1000
0010
0000
0100
0001
0100
0000
0101
0000
0001
1000
0001
0000
,  // measure 27
1000
0000
0010
0100
0010
0000
2000
0000
3001
0100
0001
0100
0001
0000
1000
0010
1000
0000
1001
0000
0000
0001
0001
0000
,  // measure 28
2010
0000
0000
0000
3010
0000
0001
0000
1000
0100
1000
0000
0002
0000
1003
0010
1000
0000
1001
0000
0100
0010
0100
0000
,  // measure 29
0010
0000
0001
1000
0001
1000
0010
0000
0100
0001
0100
0001
0100
0000
0010
1000
0010
0000
1010
0000
0100
0001
0100
0000
,  // measure 30
0101
0000
0001
0100
0010
1000
0001
0000
1000
0100
0010
0100
1000
0000
0001
0100
0001
0000
0101
0000
0010
0100
0010
0000
,  // measure 31
0100
0000
0001
0000
1000
0000
0010
0000
0000
0000
0000
0000
1000
0000
0010
0000
0100
0000
0201
0000
0000
0001
0301
0000
,  // measure 32
1000
0000
0010
1000
0010
0000
1000
0000
0001
0100
0010
0000
1000
0000
0001
1000
0001
0000
1001
0000
1000
0010
1000
0000
,  // measure 33
0002
0000
0000
0000
0000
0000
0000
0000
0000
0000
0000
0000
0000
0000
0000
0000
0003
0000
0000
0000
0000
0000
0000
0000
0000
0000
0000
0000
0000
0000
0000
0000
1000
0000
0000
0000
0000
0000
0000
0000
0000
0000
0000
0000
0000
0000
0000
0000
0010
0000
0000
0000
0000
0000
0000
0000
0000
0000
0000
0000
0000
0000
0000
0000
0100
0000
0000
0000
0000
0000
0000
0000
0000
0000
0000
0000
0000
0000
0000
0000
0001
0000
0000
0000
0000
0000
0000
0000
0000
0000
0000
0000
0000
0000
0000
0000
1000
0000
0000
0001
0000
0000
1000
0000
0000
0000
0000
0000
0000
0000
0000
0000
0001
0000
0000
0000
0000
0000
0000
0000
0100
0000
0000
0000
0000
0000
0000
0000
0001
0000
0000
0000
0000
0000
0000
0000
1000
0000
0000
0000
0000
0000
0000
0000
0001
0000
0000
0000
0000
0000
0000
0000
0000
0000
0000
0000
0000
0000
0000
0000
0000
0000
0000
0000
0000
0000
0000
0000
0000
0000
0000
0000
0000
0000
0000
0000
0000
0000
0000
0000
0000
0000
0000
0000
0000
0000
0000
0000
0000
0000
0000
0000
;

//---------------dance-single - ----------------
#NOTES:
     dance-single:
     :
     Medium:
     7:
     0.328,0.308,0.065,0.174,0.568:
0000
0000
0000
0000
0000
0000
0000
0000
0000
1000
0001
1000
,
0002
0000
0000
0203
0000
0000
0320
0000
0000
1030
0001
1000
,
0002
0000
0000
0203
0000
0000
0310
1000
0010
1000
0000
0000
,
0001
1000
0001
1000
0000
0000
0010
1000
0010
1000
0000
0000
,
0002
0000
0000
2003
0000
0000
3010
0100
0010
0100
0001
0010
,
0200
0000
0000
2300
0000
0000
3001
0100
0010
1000
0100
0010
,
0001
0100
0010
2000
0000
0000
3001
0100
0010
1000
0000
0100
,
0020
0000
0031
0100
0010
1000
0001
1000
0100
2000
0000
0000
,
3002
0000
0000
0203
0000
0000
0310
0010
0010
1000
1000
1000
,
0002
0000
0000
2003
0000
0000
3010
0100
0001
0010
0100
1000
,
0001
0100
0001
2000
0000
0000
3010
0100
0001
1000
0000
0100
,
1000
0000
0001
0100
0010
1000
0100
0100
0100
0010
0001
1000
,
0002
0000
0000
2003
0000
0000
3001
0000
0100
0010
0000
0010
,
1000
0000
0001
1000
0000
0001
1000
0000
0010
1000
0000
0000
,
0001
1000
0001
2000
0000
0000
3010
0100
0010
0200
0000
0000
,
0301
0000
1000
0001
1000
0010
1000
0001
1000
0010
1000
0001
,
1000
0000
0001
0001
0000
0100
0100
0000
0010
1010
1000
0001
,
0100
0000
0010
0010
0000
1000
1000
0000
0001
0101
0100
0100
,
0001
0000
1000
1000
0000
0001
0001
0000
1000
1001
0010
0010
,
0010
0000
1000
1000
0000
0001
0001
0000
1000
1001
0000
0000
,
1000
0000
0001
1000
0000
0010
1000
0000
0001
1001
1000
0010
,
0200
0000
0301
1000
0000
0010
1000
0000
0001
1001
1000
0010
,
1000
0000
0001
1000
0000
0001
1000
0000
0001
1001
1000
0001
,
1000
0010
0100
0001
0000
0010
0100
0000
0000
0000
0000
0000
,
1000
0000
0000
0000
0001
1000
0001
0000
0000
0000
1000
0001
1000
0000
1000
0000
1000
0000
0010
0000
0010
0000
0010
0000
,
1000
0000
0000
0000
0001
0100
0001
0000
0000
0000
1000
0010
1000
0000
0001
0000
0100
0000
0001
0000
1000
0000
0001
0000
,
1000
1000
1000
0010
0000
0000
1000
1000
0001
0100
0000
0010
,
1000
0000
0001
0010
0100
1000
0001
0100
0010
1000
0000
0000
,
1001
0000
0000
0000
0010
1000
0010
0000
0000
0000
0100
0001
0100
0000
0001
0000
0010
0000
0100
0000
1000
0000
0010
0000
,
0100
0000
0000
0000
0001
0010
0001
0000
0000
0000
1000
0100
1000
0000
0001
0000
0100
0000
1000
0000
0100
0000
0001
0000
,
0100
0010
1000
0100
0000
0000
0010
0001
0100
0010
0000
1000
,
0010
0000
0100
0001
0010
0100
1000
0010
0100
0001
0010
0100
,
1000
0000
0001
1000
0001
0100
2002
0000
0000
3003
0000
0000
;

//---------------dance-single - ----------------
#NOTES:
     dance-single:
     :
     Easy:
     2:
     0.153,0.190,0.087,0.253,0.000:
0000
0000
0000
1000
,
1000
0010
0010
0100
,
0100
0001
1000
0001
,
1000
0010
1000
0001
,
2000
0000
3002
0000
,
0203
0000
0320
0000
,
2030
3000
0002
0003
,
2000
0000
0000
3000
,
2001
3000
0002
0000
,
0203
0000
0320
0000
,
2030
3000
0002
0003
,
1000
0001
0200
0000
,
0310
1000
0001
1000
,
0010
1000
0001
1000
,
0001
1000
0010
0010
,
0100
0100
0001
0001
,
1001
1000
0001
1001
,
0010
1000
0001
1001
,
0010
1000
0001
1001
,
0010
1000
0001
1001
,
2000
0000
3010
0101
,
0002
0000
1003
1010
,
0200
0001
0301
1001
,
0002
0100
0103
1001
,
2000
0000
0200
3000
,
0002
0000
0300
0000
,
0203
0000
2300
0000
,
3002
0000
0203
0000
,
0320
2030
3200
0320
,
0032
2003
3010
1010
,
2000
3001
0200
0310
,
1000
0001
1000
0001
,
1000
0001
2002
3003
;

//---------------dance-single - Copied from----------------
#NOTES:
     dance-single:
     Copied from:
     Beginner:
     1:
     0.066,0.082,0.036,0.000,0.000:
0000
0000
0000
0000
,
1000
0000
0000
0000
,
0001
0000
0000
0000
,
1000
0000
0000
0000
,
0010
0000
0100
0000
,
0001
0000
1000
0000
,
0010
0000
1000
0000
,
0001
0000
1000
0000
,
0001
0000
1000
0000
,
0010
0000
0100
0000
,
0001
0001
0000
0000
,
0100
0000
0010
0000
,
1000
0000
0000
0000
,
0001
0000
0000
0000
,
0100
0000
0010
0000
,
1000
0000
0001
0000
,
1000
0000
1000
1000
,
0000
0001
0000
1001
,
0000
0010
0000
1001
,
0000
1000
0000
1001
,
0000
1000
1000
0000
,
0001
0000
0001
0000
,
0010
0010
0010
0000
,
0100
0000
1001
0000
,
1000
0000
0001
0000
,
0010
0000
0100
0000
,
1000
1000
0000
0001
,
0000
0100
0000
1001
,
0000
1000
0000
0001
,
0000
0000
0000
0100
,
0000
0000
0000
0010
,
0000
0000
1000
0000
,
0001
0000
0001
0000
;
