#TITLE:Why not;
#SUBTITLE:;
#ARTIST:Darwin;
#TITLETRANSLIT:;
#SUBTITLETRANSLIT:;
#ARTISTTRANSLIT:;
#GENRE:;
#CREDIT:;
#BANNER:Why not.png;
#BACKGROUND:Why not-bg.png;
#LYRICSPATH:;
#CDTITLE:./CDTITLES/DanceDanceRevolution SuperNOVA2.png;
#MUSIC:Why not.mp3;
#OFFSET:-0.056;
#SAMPLESTART:45.300;
#SAMPLELENGTH:15.000;
#SELECTABLE:YES;
#BPMS:0.000=175.000
;
#STOPS:
;
#BGCHANGES:;
#KEYSOUNDS:;
#ATTACKS:;

//---------------dance-single - ----------------
#NOTES:
     dance-single:
     :
     Hard:
     9:
     0.697,0.622,0.178,0.680,0.173,384.000,17.000,65.000,0.000,0.000,0.000,0.697,0.622,0.178,0.680,0.173,384.000,17.000,65.000,0.000,0.000,0.000: // measure 0
1001
0000
0110
0110
,  // measure 1
2001
0000
0010
0000
0010
0010
3020
0000
,  // measure 2
0230
0000
0001
0000
0001
0001
0302
0000
,  // measure 3
2003
0000
0010
0000
0010
0010
3020
0000
,  // measure 4
0230
0000
0001
0000
0001
0001
0302
0000
,  // measure 5
2003
0000
0100
0000
0100
0100
3200
0000
,  // measure 6
0320
0000
0001
0000
0001
0001
0032
0000
,  // measure 7
0023
0000
0100
0000
0100
0100
0230
0000
,  // measure 8
2300
0000
0000
0000
0001
0000
0000
0000
0001
0000
0000
0001
3100
0000
0010
0000
,  // measure 9
0100
0001
0010
1000
0001
1000
0010
0001
,  // measure 10
0200
0000
0010
0000
0010
0010
0320
0000
,  // measure 11
2030
0000
0001
0000
0001
0001
3002
0000
,  // measure 12
0203
0000
0010
0000
0010
0010
0320
0000
,  // measure 13
2030
3200
0320
0032
,  // measure 14
2003
3200
0302
0203
,  // measure 15
2300
3020
0032
0023
,  // measure 16
2030
3000
1001
0110
,  // measure 17
0010
1000
0100
0001
1000
0010
0001
0100
,  // measure 18
0000
0000
0001
0010
1000
0001
0100
1000
,  // measure 19
0000
0000
0001
0100
1000
0100
0001
0000
,  // measure 20
0002
0023
0230
2300
,  // measure 21
3010
0000
0100
0001
1000
0001
0100
0010
,  // measure 22
0000
0000
1000
0100
0010
1000
0001
0100
,  // measure 23
2000
0000
3001
0100
1000
0100
0001
0010
,  // measure 24
1000
0001
0100
0010
0002
0000
0103
0020
,  // measure 25
0000
0230
0302
0000
,  // measure 26
0000
2003
3020
0000
,  // measure 27
1030
0100
0010
1000
0001
0010
1000
0000
,  // measure 28
1001
0000
0110
0000
1001
0000
0100
0020
,  // measure 29
0000
1030
2000
0000
,  // measure 30
0000
3010
0020
0000
,  // measure 31
0130
0001
1000
0001
0100
0000
0010
0220
,  // measure 32
0000
0000
0000
0330
,  // measure 33
1000
0001
0000
1000
0001
0000
0000
0000
0001
0000
0100
0000
1000
0000
0100
0000
,  // measure 34
0001
0000
1000
0100
0000
1000
0100
0000
0001
0000
0100
0000
1000
0000
0100
0000
,  // measure 35
0001
0000
0010
0100
0000
0010
0100
0000
1000
0000
0100
0000
0001
0000
0100
0000
,  // measure 36
1000
0100
0000
0010
0001
0000
0000
0000
0010
0000
0001
0000
1000
0000
0001
0000
,  // measure 37
0100
0000
0010
1000
0000
0010
1000
0000
0100
0000
0001
0000
0100
0000
1000
0000
,  // measure 38
0010
0100
0000
0001
0100
0000
0010
0000
1000
0000
0001
0000
1000
0000
0010
0000
,  // measure 39
0100
0000
0010
1000
0000
0010
0100
0000
0001
0000
0010
0000
0100
0000
1000
0000
,  // measure 40
0010
0000
0100
0001
0000
1000
0010
0000
0100
0000
0001
0000
1000
0000
0001
0000
,  // measure 41
0100
0000
0010
1000
0000
0010
0100
0000
0010
0000
1000
0000
0100
0000
0010
0000
,  // measure 42
0001
0000
1000
0010
0000
0100
0010
0000
1000
0000
0100
0000
0001
0000
0100
0000
,  // measure 43
1000
0000
0010
0100
0000
0001
0100
0000
0010
0000
1000
0000
0001
0000
1000
0000
,  // measure 44
0010
0000
0100
0001
0000
1000
0001
0000
1000
0000
0100
0000
0001
0000
0100
0000
,  // measure 45
1000
0000
0010
0100
0010
0000
0001
0000
0100
0000
1000
0000
0100
0000
0001
0000
,  // measure 46
1000
0010
0000
0100
0010
0000
0100
0000
0001
0000
1000
0000
0001
0000
0100
0000
,  // measure 47
0010
0000
1000
0100
0000
0010
0001
0000
0010
0000
0100
0000
1000
0000
0010
0000
,  // measure 48
0100
0001
0000
1000
0010
0000
0000
0000
0110
0000
0000
0000
1001
0000
0000
0000
,  // measure 49
0001
0100
0010
0001
1000
0100
0010
2000
,  // measure 50
0000
3000
0001
0010
1000
0001
0100
2000
,  // measure 51
0000
3000
0100
0010
1000
0010
0100
0001
,  // measure 52
1001
1100
0110
0011
,  // measure 53
1001
0000
0001
0100
0010
0100
0001
1000
,  // measure 54
0000
0000
1000
0100
0001
1000
0010
0001
,  // measure 55
0000
0000
1000
0100
0001
0010
1000
0010
,  // measure 56
0001
0000
0100
0000
1000
0000
0010
0000
0100
0000
0000
0000
0000
0100
0001
0000
,  // measure 57
0000
2000
3020
0000
,  // measure 58
0000
0230
0302
0000
,  // measure 59
1003
0100
0001
1000
0010
0001
0010
0000
,  // measure 60
2000
0000
3200
0000
0320
0000
1030
0002
,  // measure 61
0000
0203
0320
0000
,  // measure 62
0000
2030
3002
0000
,  // measure 63
0103
0010
1000
0010
0100
0000
0001
0100
,  // measure 64
0010
1000
0010
0100
0001
0010
0100
1000
,  // measure 65
0020
0000
0000
0000
,  // measure 66
0030
0000
0000
0000
;

//---------------dance-double - ----------------
#NOTES:
     dance-double:
     :
     Hard:
     8:
     0.543,0.476,0.293,0.084,0.042,327.000,28.000,8.000,0.000,0.000,0.000,0.543,0.476,0.293,0.084,0.042,327.000,28.000,8.000,0.000,0.000,0.000:
00000000
00000000
00000000
00000000
,
10100000
00000000
00010000
00000000
01000000
00100000
01000000
00000000
,
00010000
00000000
00100000
00000000
01000000
10000000
01000000
00000000
,
10010000
00000000
00100000
00000000
01000000
00010000
01000000
00000000
,
00100000
00000000
00010000
00000000
00001000
00010000
00001000
00000000
,
00000011
00000000
00001000
00000000
00000100
00000010
00000100
00000000
,
00001000
00000000
00000010
00000000
00000100
00000001
00000100
00000000
,
00001001
00000000
00000010
00000000
00000100
00001000
00000100
00000000
,
00000010
00000000
00001000
00000000
00010000
00001000
00010000
00000000
,
01001000
00000000
00010000
00000000
00100000
00001000
00010000
00000000
,
01000000
00000000
10000000
00000000
00100000
01000000
00010000
00000000
,
10010000
00000000
00100000
00000000
00001000
00010000
00000010
00000000
,
00001000
00000000
00000100
00000000
00010000
00001000
01000000
00000000
,
00010100
00000000
00001000
00000000
00000010
00010000
00001000
00000000
,
00000100
00000000
00000001
00000000
00000010
00000100
00001000
00000000
,
00001001
00000000
00000010
00000000
00010000
00001000
00100000
00000000
,
00010000
01000000
01100000
10100000
,
00010000
00000000
00100000
01000000
00100000
00000000
00010000
00000000
,
01000000
00000000
10000000
01000000
10000000
00000000
01000000
00000000
,
00100000
00000000
10000000
00010000
01000000
00000000
00100000
10000000
,
01000000
00000000
01010000
00000000
00001000
00000000
00000100
00000100
,
00000100
00000000
00000010
00000100
00000010
00000000
00001000
00000000
,
00000100
00000000
00000001
00000100
00000001
00000000
00000100
00000000
,
00000010
00000000
00000001
00001000
00000100
00000000
00000010
00000001
,
00000100
00000000
00001100
00000000
00010000
00000000
01000000
01000000
,
20000000
00100000
02000000
30000000
,
00100000
00010000
10000000
03000000
,
00100000
10000000
01000000
00000000
01000000
00010000
00001000
00000000
,
00000100
00000000
00000101
00000000
00000010
00000000
00001000
00001000
,
00020000
00100000
00002000
00030000
,
00010000
00000010
00010000
00003000
,
00010000
00001000
00000100
00000000
00001000
00010000
01000000
00000000
,
10000000
10100000
01000000
01010000
,
00100000
00000000
01100000
00000000
10000000
00100000
00010000
00000000
,
00100000
00000000
01100000
00000000
10000000
01000000
00010000
00000000
,
00001000
00000000
00000110
00000000
00001000
00000100
00000001
00000000
,
00000100
00000000
00000110
00000000
00000001
00000010
00001000
00000000
,
00010000
00100000
10000000
00000000
01000000
00000000
01100000
00000000
,
00010000
01000000
10000000
00000000
01000000
00000000
01100000
00000000
,
10000000
01000000
00010000
00000000
00001000
00000100
00000001
00000000
,
00000010
00000000
00000110
00000000
00000001
00000100
00001000
00000000
,
00010000
00000000
00000000
00010000
00000000
00000000
00010000
00000000
01000000
00000000
00010000
00000000
01000000
00000000
00010000
00000000
,
00001000
00000000
00000000
00001000
00000000
00000000
00001000
00000000
00000010
00000000
00001000
00000000
00000010
00000000
00001000
00000000
,
00010000
00000000
00000000
00010000
00000000
00000000
00010000
00000000
00100000
00000000
10000000
00000000
00100000
00000000
00010000
00000000
,
00001000
00000000
00000000
00001000
00000000
00000000
00001000
00000000
00000100
00000000
00000001
00000000
00000100
00000000
00001000
00000000
,
00010000
00000000
00000000
01000000
00000000
00000000
10000000
00000000
00100000
00000000
01000000
00000000
00010000
00000000
00100000
00000000
,
01000000
00000000
00000000
00010000
00000000
00000000
00001000
00000000
00000010
00000000
00000001
00000000
00000100
00000000
00000010
00000000
,
00001000
00000000
00000000
00000100
00000000
00000000
00000010
00000000
00000001
00000000
00000100
00000000
00001000
00000000
00010000
00000000
,
00100000
00000000
00000000
10000000
00000000
00000000
01000000
00000000
00010000
00000000
00001000
00000000
00010000
00000000
01000000
00000000
,
10000000
00000000
00100000
01000000
00100000
00000000
00010000
00000000
,
01000000
00000000
10000000
01000000
10000000
00000000
01000000
00000000
,
00100000
00000000
10000000
00010000
01000000
00000000
00100000
10000000
,
01000000
00000000
01010000
00000000
00001000
00000000
00000100
00000100
,
00000100
00000000
00000010
00000100
00000010
00000000
00001000
00000000
,
00000100
00000000
00000001
00000100
00000001
00000000
00000100
00000000
,
00000010
00000000
00000001
00001000
00000100
00000000
00000010
00000001
,
00000100
00000000
00001100
00000000
00010000
00000000
01000000
01000000
,
20000000
00100000
02000000
30000000
,
00100000
00010000
10000000
03000000
,
00100000
10000000
01000000
00000000
01000000
00010000
00001000
00000000
,
00000100
00000000
00000101
00000000
00000010
00000000
00001000
00001000
,
00020000
00100000
00002000
00030000
,
00010000
00000010
00010000
00003000
,
00010000
00001000
00000100
00000000
00001000
00010000
01000000
00000000
,
10000000
10100000
01000000
01010000
,
00110000
00000000
00000000
00000000
;

//---------------dance-single - ----------------
#NOTES:
     dance-single:
     :
     Medium:
     6:
     0.423,0.374,0.010,0.000,0.000,282.000,1.000,0.000,0.000,0.000,0.000,0.423,0.374,0.010,0.000,0.000,282.000,1.000,0.000,0.000,0.000,0.000: // measure 0
1000
0001
0000
0000
,  // measure 1
1000
0000
0100
0000
1000
0100
1000
0000
,  // measure 2
0001
0000
0100
0000
0010
0100
0010
0000
,  // measure 3
1000
0000
0001
0000
1000
0001
1000
0000
,  // measure 4
0001
0000
0100
0000
0010
0100
0010
0000
,  // measure 5
0100
0000
0001
0000
1000
0001
1000
0000
,  // measure 6
0010
0000
0100
0000
0010
0100
0010
0000
,  // measure 7
1000
0001
0100
0001
,  // measure 8
1000
0010
0100
0010
,  // measure 9
1000
0001
0100
0010
,  // measure 10
0100
0001
1000
0001
,  // measure 11
0100
0001
1000
0010
,  // measure 12
0100
0010
1000
0001
,  // measure 13
0100
0000
0010
0000
0100
0001
0100
0000
,  // measure 14
1000
0000
0010
0000
0100
0010
0100
0000
,  // measure 15
0001
1000
0001
0010
,  // measure 16
0100
0010
0001
1000
,  // measure 17
0100
1000
0100
0000
0001
0000
0100
0000
,  // measure 18
0010
0100
0001
1000
,  // measure 19
0010
0000
0000
0100
0000
0010
0000
0000
,  // measure 20
1000
0000
0000
0001
1000
0000
0000
0010
,  // measure 21
0000
0100
1000
0001
,  // measure 22
0000
0010
1000
0100
,  // measure 23
0001
0100
1000
0010
,  // measure 24
0001
0010
1000
0100
,  // measure 25
0001
0100
1000
0000
,  // measure 26
0001
1000
0010
0000
,  // measure 27
0100
0001
0100
0000
0010
0000
1000
0000
,  // measure 28
0010
1000
0010
0000
0100
0001
0000
0100
,  // measure 29
0000
0010
1000
0000
,  // measure 30
0000
0001
1000
0000
0001
0000
0000
1000
,  // measure 31
0000
0100
1000
0010
,  // measure 32
0100
0010
1000
0001
,  // measure 33
0100
0001
0100
0000
1000
0010
1000
0000
,  // measure 34
0010
0000
0100
0000
0010
0100
0010
0000
,  // measure 35
0100
0000
1000
0000
0001
1000
0001
0000
,  // measure 36
0100
0000
0001
0000
0100
0001
0100
0000
,  // measure 37
0010
0000
1000
0000
0010
1000
0010
0000
,  // measure 38
0100
0000
0001
0000
0100
0001
0100
0000
,  // measure 39
0010
0000
1000
0000
0001
1000
0001
0000
,  // measure 40
0100
0000
0010
0000
0100
0010
0100
0000
,  // measure 41
1000
0000
0001
0000
1000
0001
1000
0000
,  // measure 42
0010
0000
0100
0000
0010
0100
0010
0000
,  // measure 43
1000
0000
0100
0000
1000
0100
1000
0000
,  // measure 44
0001
0000
0100
0000
0001
0100
0001
0000
,  // measure 45
1000
0000
0010
0000
1000
0010
1000
0000
,  // measure 46
0001
0000
0100
0000
0010
0100
0010
0000
,  // measure 47
0000
1000
0001
0000
1000
0001
1000
0000
,  // measure 48
0001
0010
0100
1000
,  // measure 49
0001
0100
0001
0000
1000
0010
0000
1000
,  // measure 50
0000
0100
0000
0000
0000
0010
0000
0000
,  // measure 51
0000
0000
0000
1000
1000
0000
1000
0000
,  // measure 52
0001
0001
1000
1000
,  // measure 53
0010
0010
0100
0100
,  // measure 54
0001
0001
1000
1000
,  // measure 55
0100
0100
1000
1000
,  // measure 56
0010
0010
0100
0100
,  // measure 57
0001
0001
1000
0000
,  // measure 58
1000
0100
1000
0000
,  // measure 59
0001
0100
0001
0100
0001
0100
0001
0000
,  // measure 60
0000
0000
0000
0000
1000
0000
0100
1000
,  // measure 61
0000
0100
0001
0000
,  // measure 62
1000
0010
0100
0000
,  // measure 63
0010
1000
0010
1000
0010
1000
0010
1000
,  // measure 64
0010
1000
0100
0001
0100
1000
0001
0000
,  // measure 65
0110
0000
0000
0000
;

//---------------dance-single - ----------------
#NOTES:
     dance-single:
     :
     Beginner:
     2:
     0.182,0.170,0.000,0.063,0.000,116.000,0.000,6.000,0.000,0.000,0.000,0.182,0.170,0.000,0.063,0.000,116.000,0.000,6.000,0.000,0.000,0.000: // measure 0
1000
0000
1000
0000
,  // measure 1
0001
0000
0001
0000
,  // measure 2
0100
0000
0100
0000
,  // measure 3
0010
0000
0000
0000
,  // measure 4
0010
0000
0010
0000
,  // measure 5
1000
0000
1000
0000
,  // measure 6
0001
0000
0001
0000
,  // measure 7
0100
0000
0100
0000
,  // measure 8
0010
0000
0000
0000
,  // measure 9
0010
0000
1000
0000
,  // measure 10
1000
0000
0000
0000
,  // measure 11
0002
0000
0003
0000
,  // measure 12
2000
0000
3000
0000
,  // measure 13
0200
0000
0300
0000
,  // measure 14
0020
0000
0030
0000
,  // measure 15
0002
0000
0003
0000
,  // measure 16
2000
0000
3000
0000
,  // measure 17
0100
0000
0100
0000
,  // measure 18
0010
0000
0010
0000
,  // measure 19
1000
0000
0000
0000
,  // measure 20
0001
0000
0001
0000
,  // measure 21
1000
0000
0100
0000
,  // measure 22
0010
0000
0001
0000
,  // measure 23
0010
0000
0100
0000
,  // measure 24
1000
0000
1000
0000
,  // measure 25
0001
0000
0100
0000
,  // measure 26
0000
0000
0010
0000
,  // measure 27
0100
0000
0001
0000
,  // measure 28
0100
0000
0010
0000
,  // measure 29
0100
0000
0001
0000
,  // measure 30
1000
0000
0100
0000
,  // measure 31
1000
0000
0001
0000
,  // measure 32
0100
0000
0000
0000
,  // measure 33
0010
0000
0010
0000
,  // measure 34
0100
0000
0100
0000
,  // measure 35
0001
0000
0001
0000
,  // measure 36
1000
0000
1000
0000
,  // measure 37
0001
0001
0000
0000
,  // measure 38
1000
1000
0000
0000
,  // measure 39
0010
0010
0000
0000
,  // measure 40
0100
0100
0000
0000
,  // measure 41
0001
0001
0000
0000
,  // measure 42
1000
1000
0000
0000
,  // measure 43
0010
0010
0000
0000
,  // measure 44
0100
0100
0000
0000
,  // measure 45
0001
0001
0000
0000
,  // measure 46
1000
1000
0000
0000
,  // measure 47
0010
0010
0000
0000
,  // measure 48
0100
0000
0000
0000
,  // measure 49
0100
0000
0001
0000
,  // measure 50
1000
0000
0001
0000
,  // measure 51
0100
0000
0000
0000
,  // measure 52
0010
0000
0010
0000
,  // measure 53
0100
0000
0100
0100
,  // measure 54
0000
0000
0001
0000
,  // measure 55
1000
0000
0001
0000
,  // measure 56
0100
0100
0000
0000
,  // measure 57
0001
0000
0000
0000
,  // measure 58
1000
0000
0001
0000
,  // measure 59
1000
0000
0100
0000
,  // measure 60
0010
0000
0001
0000
,  // measure 61
1000
0000
0100
0000
,  // measure 62
0010
0000
0100
0000
,  // measure 63
1000
0000
0001
0000
,  // measure 64
0100
0000
0001
0000
,  // measure 65
1000
0000
0000
0000
;

//---------------dance-single - ----------------
#NOTES:
     dance-single:
     :
     Easy:
     4:
     0.320,0.272,0.000,0.000,0.000,214.000,0.000,0.000,0.000,0.000,0.000,0.320,0.272,0.000,0.000,0.000,214.000,0.000,0.000,0.000,0.000,0.000: // measure 0
1000
0000
1000
1000
,  // measure 1
0001
0001
0000
0000
,  // measure 2
0100
0010
0100
0000
,  // measure 3
0001
1000
0001
0000
,  // measure 4
1000
0100
0001
0000
,  // measure 5
0001
0100
1000
0000
,  // measure 6
1000
0001
1000
0000
,  // measure 7
0001
0100
0001
0000
,  // measure 8
1000
0010
1000
0000
,  // measure 9
0100
0010
0100
0010
,  // measure 10
1000
0001
1000
0001
,  // measure 11
1000
0000
0000
0000
,  // measure 12
1000
0100
0010
0001
,  // measure 13
1000
0000
0000
0000
,  // measure 14
0001
0000
0000
0000
,  // measure 15
1000
0000
0000
0000
,  // measure 16
0010
0000
0000
0000
,  // measure 17
1000
0100
0001
0100
,  // measure 18
1000
0000
0001
0000
,  // measure 19
0001
0000
1000
0000
,  // measure 20
1000
0100
0001
0100
,  // measure 21
1000
0010
0001
0010
,  // measure 22
1000
0000
0001
0000
,  // measure 23
0001
0000
0001
0100
,  // measure 24
1000
0100
0001
0001
,  // measure 25
0001
1000
1000
0000
,  // measure 26
1000
0010
0001
0000
,  // measure 27
0001
0010
1000
0100
,  // measure 28
0001
0100
1000
0010
,  // measure 29
0001
1000
1000
0000
,  // measure 30
0001
0000
0001
0000
,  // measure 31
1000
1000
0010
0010
,  // measure 32
0100
0100
0001
0001
,  // measure 33
1000
1000
0010
0010
,  // measure 34
0100
0100
0001
0001
,  // measure 35
1000
1000
0010
0010
,  // measure 36
0100
0100
0001
0001
,  // measure 37
1000
1000
0010
0010
,  // measure 38
0100
0100
0001
0001
,  // measure 39
1000
1000
0100
0100
,  // measure 40
0010
0010
0001
0001
,  // measure 41
1000
1000
0100
0100
,  // measure 42
0010
0010
0001
0001
,  // measure 43
1000
1000
0100
0100
,  // measure 44
1000
1000
0010
0010
,  // measure 45
0100
0100
0001
0001
,  // measure 46
1000
1000
0100
0100
,  // measure 47
1000
1000
0010
0010
,  // measure 48
0100
0100
0010
0010
,  // measure 49
1000
0001
1000
0001
,  // measure 50
1000
0000
0010
0100
,  // measure 51
0010
0000
0000
0000
,  // measure 52
1000
1000
0001
0001
,  // measure 53
0100
0010
1000
0010
,  // measure 54
0100
0000
0001
0100
,  // measure 55
0010
0100
0001
1000
,  // measure 56
0010
0100
0010
1000
,  // measure 57
0001
0100
0010
0000
,  // measure 58
1000
0001
0100
0000
,  // measure 59
0001
1000
0010
1000
,  // measure 60
0001
0001
0100
0100
,  // measure 61
0010
1000
0001
0000
,  // measure 62
1000
0000
0100
0000
,  // measure 63
1000
0010
0100
0010
,  // measure 64
1000
0001
0100
0010
,  // measure 65
0100
0000
0000
0000
;

//---------------dance-double - ----------------
#NOTES:
     dance-double:
     :
     Easy:
     3:
     0.375,0.340,0.042,0.084,0.000,239.000,4.000,8.000,0.000,0.000,0.000,0.375,0.340,0.042,0.084,0.000,239.000,4.000,8.000,0.000,0.000,0.000:
00000000
00000000
00000000
00000000
,
00100000
10000000
00100000
10000000
,
01000000
10000000
01000000
10000000
,
01000000
00010000
01000000
00010000
,
00001000
00010000
00001000
00000000
,
00000010
00000001
00000010
00000001
,
00000100
00000001
00000100
00000001
,
00000100
00001000
00000100
00001000
,
00010000
00001000
00010000
00000000
,
00001000
00010000
00100000
00010000
,
00001000
00010000
00100000
00010000
,
00001000
00010000
01000000
00010000
,
00001000
00010000
01000000
00000000
,
00010000
00001000
00000010
00001000
,
00010000
00001000
00000010
00001000
,
00010000
00001000
00000100
00001000
,
00010000
00001000
00000100
00000000
,
00000001
00000001
00001000
00001000
,
00000010
00000000
00000100
00000001
,
00000010
00000010
00001000
00001000
,
00010000
01000000
10000000
00000000
,
10000000
10000000
00010000
00010000
,
00100000
00000000
01000000
10000000
,
00100000
00100000
00010000
00010000
,
00001000
00000100
00000001
00000010
,
00000200
00001000
00001000
00000300
,
00000020
00000100
00000100
00000030
,
00000001
00000010
00001000
00010000
,
00100000
00010000
00001000
00010000
,
02000000
00100000
10000000
03000000
,
00020000
00100000
01000000
00030000
,
00100000
00100000
10000000
10000000
,
01000000
00010000
00001000
00011000
,
00001000
00001000
00010000
00010000
,
00001000
00001000
00100000
00100000
,
00001000
00001000
00010000
00010000
,
00001000
00001000
00000010
00000010
,
00001000
00010000
01000000
01000000
,
00010000
00001000
00000100
00000100
,
00001000
00010000
00100000
00100000
,
00010000
00001000
00000010
00000010
,
00000001
00000100
00001000
00000100
,
00001000
00010000
00100000
00010000
,
00001000
00010000
01000000
00010000
,
01000000
10000000
00100000
10000000
,
01000000
00010000
00001000
00010000
,
01000000
00010000
00001000
00010000
,
00001000
00000010
00000001
00000100
,
00001000
00010000
00011000
10010000
,
10000000
10000000
00010000
00010000
,
00100000
00000000
01000000
10000000
,
00100000
00100000
00010000
00010000
,
00001000
00000100
00000001
00000000
,
00000001
00000001
00001000
00001000
,
00000010
00000000
00000100
00000001
,
00000010
00000010
00001000
00001000
,
00010000
01000000
10000000
00100000
,
02000000
00010000
00010000
03000000
,
00200000
01000000
01000000
00300000
,
10000000
00100000
00010000
00001000
,
00000010
00001000
00010000
00001000
,
00000200
00000010
00000001
00000300
,
00002000
00000010
00000100
00003000
,
00000010
00000010
00000001
00000001
,
00000100
00001000
00010000
01000000
,
01100000
00000000
00000000
00000000
;

//---------------dance-double - ----------------
#NOTES:
     dance-double:
     :
     Medium:
     5:
     0.455,0.408,0.345,0.084,0.000,263.000,33.000,8.000,0.000,0.000,0.000,0.455,0.408,0.345,0.084,0.000,263.000,33.000,8.000,0.000,0.000,0.000:
00000000
00000000
00000000
00000000
,
10100000
00010000
00100000
01000000
,
10000000
01000000
00100000
01000000
,
00110000
10000000
01000000
00010000
,
01000000
10000000
01000000
00010000
,
00011000
00000010
00000001
00000010
,
00001000
00000010
00000001
00000010
,
00000101
00001000
00010000
00001000
,
00000100
00001000
00010000
00001000
,
00000011
00001000
00000010
00000100
,
00000001
00000100
00000010
00000100
,
00001010
00000001
00000100
00001000
,
00000100
00000001
00000100
00001000
,
00011000
00100000
10000000
00100000
,
00010000
00100000
10000000
00100000
,
11000000
00010000
00001000
00010000
,
01000000
00010000
00001000
00000100
,
00000010
00000000
00000010
00000000
00000100
00000010
00000100
00000000
,
00000001
00000000
00001000
00001010
,
00000100
00000000
00000001
00000010
00000001
00000000
00000100
00000000
,
00001000
00011000
01000000
01100000
,
10000000
00000000
10000000
00000000
00100000
10000000
00100000
00000000
,
01000000
00000000
00010000
01100000
,
01000000
10000000
00100000
00010000
,
00001000
00000010
00000001
00000100
,
00002000
00010000
01000000
00003000
,
00020000
00001000
00000100
00030000
,
00001000
00001100
00000001
00000011
,
00001000
00000001
00000100
00001000
,
00020000
00100000
00001000
00030000
,
00002000
00000010
00010000
00003000
,
00100000
00010000
00100000
00000000
10000000
00100000
10000000
00000000
,
01000000
01100000
00010000
10010000
,
00100000
00000000
00010000
00000000
10000000
01000000
10000000
00000000
,
00100000
00000000
01000000
00000000
00010000
10000000
00010000
00000000
,
00100000
00000000
01000000
00000000
10000000
00100000
10000000
00000000
,
00100000
00000000
00010000
00000000
00001000
00010000
00001000
00000000
,
00000010
00000000
00000001
00000000
00000100
00000010
00000100
00000000
,
00001000
00000000
00010000
00000000
00001000
00000010
00001000
00000000
,
00010000
00000000
01000000
00000000
00010000
00001000
00010000
00000000
,
00100000
00000000
10000000
00000000
01000000
00100000
01000000
00000000
,
11000000
00100000
00010000
00001000
,
00000100
00000001
00000010
00001000
,
00011000
00100000
10000000
01000000
,
00010000
00001000
00000010
00000001
,
00000110
00001000
00010000
00100000
,
01100000
10000000
01000000
00010000
,
00011000
00000100
00000001
00000010
,
00001010
00010000
00110000
10100000
,
00100000
00000000
00100000
00000000
01000000
00100000
01000000
00000000
,
10000000
00000000
00010000
00110000
,
01000000
00000000
10000000
00100000
10000000
00000000
01000000
00000000
,
00010000
00011000
00000100
00000110
,
00000001
00000000
00000001
00000000
00000010
00000001
00000010
00000000
,
00000100
00000000
00001000
00000110
,
00000100
00000001
00000010
00001000
,
00010000
00100000
10000000
01000000
,
00020000
00001000
00000100
00030000
,
00002000
00010000
01000000
00003000
,
00010000
01010000
10000000
10100000
,
00010000
10000000
01000000
00010000
,
00002000
00000010
00010000
00003000
,
00020000
00100000
00001000
00030000
,
00000010
00001000
00000001
00000000
00000010
00000001
00000100
00000000
,
00001000
00011000
01000000
01100000
,
10010000
00000000
00000000
00000000
;
