#TITLE:Nothing's Gonna Stop Us;
#SUBTITLE:;
#ARTIST:The Darkness;
#TITLETRANSLIT:;
#SUBTITLETRANSLIT:;
#ARTISTTRANSLIT:;
#CREDIT:;
#BANNER:Nothing's Gonna Stop Us.png;
#BACKGROUND:Nothing's Gonna Stop Us-bg.png;
#LYRICSPATH:;
#CDTITLE:;
#MUSIC:Nothing's Gonna Stop Us.mp3;
#OFFSET:-0.040;
#SAMPLESTART:27.960;
#SAMPLELENGTH:10.280;
#SELECTABLE:YES;
#DISPLAYBPM:163.000;
#BPMS:0.000=163.290,52.000=163.270,76.000=163.290,166.000=163.270,190.000=163.290;
#STOPS:;
#BGCHANGES:-0.265=Nothing's Gonna Stop Us-vid.avi=1.000=1=1=0,
302.000=Nothing's Gonna Stop Us-bg.png=1.000=1=0=1,
99999=-nosongbg-=1.000=0=0=0 // don't automatically add -songbackground-
;

//---------------dance-single - ----------------
#NOTES:
     dance-single:
     :
     Hard:
     8:
     0.578,0.592,0.262,0.157,0.017: // measure 1
0000
0000
0000
0000
,  // measure 2
0000
0000
0000
0000
,  // measure 3
0000
0000
0000
0000
,  // measure 4
0000
0000
0000
0000
,  // measure 5
1000
0100
0010
0001
0100
0010
1001
0000
,  // measure 6
0001
0000
0100
0000
0001
1000
0100
0110
,  // measure 7
0000
0010
0100
1000
0001
0000
1001
0000
,  // measure 8
0001
0000
0100
0001
0000
0001
0100
0000
,  // measure 9
0010
0000
1000
0001
0000
0001
1000
0000
,  // measure 10
0011
0000
0100
0000
1000
0100
0010
0011
,  // measure 11
0000
0001
0100
0010
1000
0000
0001
0000
,  // measure 12
1000
0100
0010
0001
0000
1000
0001
0000
,  // measure 13
0001
0100
0010
1000
0001
1000
0100
0010
,  // measure 14
0100
0000
1000
0001
0000
0001
1000
0000
,  // measure 15
0001
0010
0100
2000
0000
0000
3001
1000
,  // measure 16
0001
0100
0010
2000
0000
3001
1000
0100
,  // measure 17
0010
0001
1000
0002
0000
0000
0103
0000
,  // measure 18
0001
0000
0100
0001
1000
0000
0100
0000
,  // measure 19
0010
0100
1000
0200
0000
0010
0310
0000
,  // measure 20
0010
0001
0010
0001
0010
0000
0100
1000
,  // measure 21
0000
1000
0001
0100
0010
1000
0010
0000
,  // measure 22
0100
0000
0001
0000
0010
0001
0100
0110
,  // measure 23
0000
0010
1000
0000
0001
1000
0001
1000
,  // measure 24
0001
0000
1000
0100
0000
0010
0100
1000
,  // measure 25
0100
0010
0001
0000
1010
0000
0101
0000
,  // measure 26
0001
0100
0010
1010
0000
1000
0100
0000
,  // measure 27
0010
0001
0100
1000
0100
0001
1000
0000
,  // measure 28
0001
0010
1000
0010
0001
1000
0001
0000
,  // measure 29
1000
0010
0100
0001
0100
0010
0000
1001
,  // measure 30
0000
1000
0100
0000
1001
0000
1001
0000
,  // measure 31
0001
0100
0010
2000
0000
3100
0010
0002
,  // measure 32
0000
1000
1003
0000
0110
0000
1001
0000
,  // measure 33
1000
0010
0100
0010
0000
0100
0001
0010
,  // measure 34
0100
0010
0001
1000
1002
0000
0100
0000
,  // measure 35
1003
0000
0001
0010
0000
0100
1000
0100
,  // measure 36
0010
0000
0100
1000
0001
0000
1000
0010
,  // measure 37
0000
0010
1000
0000
0001
0000
0010
0001
,  // measure 38
0000
0001
0010
0000
0120
0000
0001
0000
,  // measure 39
0130
0000
0010
0001
0000
0001
1000
0010
,  // measure 40
0100
0000
0010
1000
0001
0000
1000
0001
,  // measure 41
0000
0001
1000
0000
0001
0010
0100
0010
,  // measure 42
0001
1000
1000
0010
0110
0000
0001
1000
,  // measure 43
0000
1000
0001
0000
1000
0010
0100
0001
,  // measure 44
0000
0001
0010
0000
0100
1000
0001
1000
,  // measure 45
0000
0001
0100
1000
0100
0001
1000
0100
,  // measure 46
0010
0001
1000
0010
0110
0000
1010
0000
,  // measure 47
1000
0000
0000
0100
0000
0000
0010
0000
0000
0000
0000
0000
0100
0000
0000
0000
0010
0000
0000
0000
0100
0000
0000
0000
,  // measure 48
0220
0000
0330
0000
0010
0001
1000
0001
,  // measure 49
0100
0010
1000
0010
0000
0100
0001
0010
,  // measure 50
0100
1000
0100
0000
1000
0001
0010
1000
,  // measure 51
0001
0100
1000
1001
0000
0001
0100
0000
,  // measure 52
0010
1000
0100
1000
0001
0010
0100
1000
,  // measure 53
0000
1000
0100
0001
1000
0010
0001
0000
,  // measure 54
1000
0000
0001
0000
0100
0010
1000
1001
,  // measure 55
0000
0001
0010
0000
0100
0001
0100
1000
,  // measure 56
0100
0010
0100
0000
0010
0001
0010
1000
,  // measure 57
0010
0100
0010
0001
0000
1000
0100
1000
,  // measure 58
0001
0010
0100
1001
0000
0001
1000
0000
,  // measure 59
1010
0000
0101
0000
0001
0010
0100
2000
,  // measure 60
0000
3001
0100
0010
1000
0100
0010
0000
,  // measure 61
0001
0000
1000
0001
0000
1000
0001
0000
,  // measure 62
1000
0100
0010
0100
0010
0001
0100
0010
,  // measure 63
1010
0000
0101
0000
0001
0010
0001
0200
,  // measure 64
0000
0310
1000
0100
0010
0100
1000
0000
,  // measure 65
0001
0000
0010
0001
0000
1000
0100
0000
,  // measure 66
0010
0000
0100
0000
0010
0000
2002
0000
0000
3003
0000
0000
,  // measure 67
1000
0100
0100
0010
0010
0001
0001
0100
,  // measure 68
0100
0010
1000
0100
0020
0000
0130
1000
,  // measure 69
0100
0010
0001
0100
1000
0100
0010
1000
,  // measure 70
0100
0010
0100
0010
0002
0000
0003
0000
,  // measure 71
1000
0100
0001
0100
1000
0100
0001
0100
,  // measure 72
1000
0100
0001
0100
1000
0100
0110
0000
,  // measure 73
2002
0000
0000
0000
,  // measure 74
0000
0000
0000
0000
,  // measure 75
0000
0000
0000
0000
,  // measure 76
0000
0000
3003
0000
;

//---------------dance-single - ----------------
#NOTES:
     dance-single:
     :
     Medium:
     5:
     0.430,0.395,0.113,0.096,0.000:
0000
0000
0000
0000
,
0000
0000
0000
0000
,
0000
0000
0000
0000
,
0000
0000
0000
0000
,
0000
0000
0000
0000
,
1001
0000
0001
0000
0100
0000
0001
1000
,
0000
1000
0001
0000
1000
0000
0100
0000
,
0010
0000
0001
1000
0000
0001
1000
0000
,
0010
0000
1000
0001
0000
1000
0001
0000
,
1000
0000
0100
0000
0010
0000
0001
1000
,
0000
1000
0001
0000
0100
0000
0010
0000
,
1000
0000
0001
0010
0000
0001
0010
0000
,
0100
0000
1000
0100
1000
0000
0001
0000
,
1002
0000
0000
0100
0100
0000
0000
1000
,
1000
0000
0000
0100
0103
0000
0110
0000
,
2001
0000
0000
0100
0100
0000
0000
0001
,
0001
0000
0000
0100
3100
0000
1001
0000
,
0001
0100
1000
0100
,
0001
0000
2000
0002
0000
0000
3003
0000
,
1000
0000
0100
0000
0010
0001
0000
0010
,
0000
0001
1000
0000
0001
0100
0001
0000
,
1000
0000
0010
0000
0100
0010
0100
0010
,
0000
0100
0010
0000
1000
0000
0001
0000
,
1000
0100
0000
0010
0000
0001
0010
0000
,
0100
1000
0100
0000
1000
0000
0001
0000
,
1000
0010
1000
0010
0000
0100
0001
0000
,
1000
0100
1000
0000
0001
0000
1000
0000
,
0010
0100
0010
0000
0100
0000
0001
0000
,
1000
0000
0100
0000
0010
0001
0010
0001
,
0000
1000
0100
0000
0010
0000
0100
0000
,
0010
0000
0001
1000
0000
0001
1000
0001
,
0000
1000
0001
0000
1000
0000
0010
0000
,
0100
0000
0001
0100
0000
0010
1000
0000
,
0001
1000
0001
0000
1000
0000
0100
0000
,
0010
0000
0001
0010
0000
0100
1000
0000
,
0001
1000
0001
0000
1000
0000
0001
0100
,
0000
0001
0100
0000
0010
0000
1000
0001
,
0000
1000
0001
0000
1000
0000
0100
0000
,
0010
0000
0001
0010
0000
0100
1000
0000
,
0001
1000
0001
0000
1000
0000
0001
1000
,
0000
0001
1000
0000
0100
0000
0010
0100
,
0010
0000
0100
0000
1002
0000
0000
0010
,
0010
0000
0000
1000
1000
0000
0000
0100
,
0103
0000
0110
0000
2001
0000
0000
0010
,
0010
0000
0000
0001
0001
0000
0000
0100
,
3100
1100
1000
0100
,
0010
0001
0100
0010
,
2000
0000
3000
0000
0001
0010
0001
0000
,
1000
0001
0000
1000
0000
0001
1000
0000
,
0010
0100
0010
0000
1000
0000
0100
0000
,
0010
0000
0100
1000
0000
0001
0010
0000
,
0001
0100
0001
0000
1000
0010
0000
1000
,
0000
0010
1000
0000
0001
0100
0001
0000
,
1000
0000
0100
0000
0010
0000
0100
1000
,
0000
1000
0001
0000
1000
0010
1000
0000
,
0001
0000
0100
0010
0000
0010
0100
0000
,
0001
1000
0001
0000
1000
0000
0100
0000
,
0010
0000
0001
1000
0000
1000
0001
0000
,
0110
0000
0010
0000
1000
0000
0001
1000
,
0000
0001
0100
0000
0010
0000
1000
0000
,
0100
0000
0010
0100
0000
0100
1000
0000
,
0001
0100
0001
0000
1000
0010
1000
0000
,
0001
0000
0010
0000
0100
0000
1000
0100
,
0000
1000
0001
0000
0010
0001
0010
0000
,
0001
0000
1000
0001
0000
0001
1000
0000
,
0001
1000
0220
0330
,
0010
0000
1000
0010
1000
0000
0001
0100
,
0001
0000
1000
0100
1000
0000
0001
0000
,
1000
0000
0001
0010
0001
0000
1000
0010
,
1000
0000
0010
0100
0010
0000
0100
0000
,
0001
0010
1000
0100
,
1000
0010
0001
0101
,
2002
0000
0000
0000
,
0000
0000
0000
0000
,
0000
0000
0000
0000
,
0000
0000
3003
0000
;

//---------------dance-single - ----------------
#NOTES:
     dance-single:
     :
     Easy:
     4:
     0.275,0.592,0.122,0.017,0.000:
0000
0000
0000
0000
,
0000
0000
0000
0000
,
0000
0000
0000
0000
,
0000
0000
0000
0000
,
0000
0000
0000
0000
,
1001
0000
0001
1000
,
0001
1000
0001
0000
,
0100
0000
0010
0000
,
0100
0000
0001
0000
,
1001
0000
1000
0100
,
1000
0001
0010
0000
,
0100
0000
0010
0000
,
0100
0010
0100
0000
,
1001
0000
0001
0000
,
0100
0000
0010
0000
,
1000
0000
0100
0000
,
0010
0000
0001
0000
,
1000
0010
1000
0001
,
0100
0001
1000
0000
,
0001
0010
0100
0000
,
1000
0010
0100
0000
,
0001
1000
0001
1000
,
0100
0010
0100
1000
,
0001
0000
0100
0001
,
1000
0000
0001
0100
,
0010
1000
0010
0100
,
0001
0010
0100
0000
,
0010
0001
0100
0000
,
0010
1000
0001
1000
,
0100
0010
0110
0000
,
0100
0000
0010
0100
,
0010
0000
0001
1000
,
0001
0000
1000
0010
,
0100
0001
1000
0000
,
0001
1000
0100
0010
,
0100
1000
0001
0000
,
1000
0000
0010
0000
,
0100
0000
0010
0100
,
0010
0100
0001
1000
,
0100
0000
0010
0000
,
0100
0000
0010
0000
,
0001
1000
0001
0000
,
1000
0000
0100
0000
,
0010
0000
0100
0000
,
1000
0000
0001
0000
,
0100
0000
0010
0100
,
0010
0100
0001
1000
,
1001
0000
1000
0100
,
1000
0000
0001
0010
,
0001
0000
1000
0010
,
0100
0001
0010
0100
,
0010
0100
1000
0000
,
0010
0100
0001
0000
,
1000
0001
0100
0010
,
1000
0001
0010
0001
,
0010
0000
0100
1000
,
0100
0000
1000
0100
,
0001
0100
1000
0010
,
0100
0000
0010
0100
,
0010
0000
1000
0000
,
0001
1000
0100
0000
,
0010
0001
0100
0000
,
0010
0000
0100
0001
,
1000
0000
0001
0000
,
1000
0100
0010
0001
,
0100
0010
1000
0000
,
0001
0100
0001
0100
,
1000
0100
1000
0100
,
0010
1000
0001
0100
,
0001
0010
0100
0000
,
0110
0110
1001
1001
,
0110
0110
1001
1001
,
0220
0000
0000
0000
,
0000
0000
0000
0000
,
0000
0000
0000
0000
,
0000
0000
0330
0000
;

//---------------dance-single - ----------------
#NOTES:
     dance-single:
     :
     Beginner:
     2:
     0.135,0.188,0.044,0.000,0.000:
0000
0000
0000
0000
,
0000
0000
0000
0000
,
0000
0000
0000
0000
,
0000
0000
0000
0000
,
0000
0000
0000
0000
,
1001
0000
0000
0000
,
0001
0000
0100
0000
,
0001
0000
0000
0000
,
1000
0000
0000
0000
,
0001
0000
0000
0000
,
1000
0000
0100
0000
,
1000
0000
0000
0000
,
0001
0000
1000
0000
,
1001
0000
0000
0000
,
0001
0000
0100
0000
,
0010
0000
0000
0000
,
0100
0000
0010
0000
,
1000
0000
0001
0000
,
1000
0000
0000
0000
,
0001
0000
0000
0000
,
1000
0000
0000
0000
,
0010
0000
0100
0000
,
0010
0000
0100
0000
,
0010
0000
0000
0000
,
0100
0000
0000
0000
,
0001
0000
1000
0000
,
0001
0000
0000
0000
,
1000
0000
0000
0000
,
0001
0000
1000
0000
,
0100
0000
0010
0000
,
0000
0000
0100
0000
,
0000
0000
0010
0000
,
0001
0000
1000
0000
,
0001
0000
0100
0000
,
0000
0000
0010
0000
,
0100
0000
0001
0000
,
0000
0000
1000
0000
,
0000
0000
0001
0000
,
0000
0000
1000
0000
,
0001
0000
1000
0000
,
0000
0000
0001
0000
,
1000
0000
1001
0000
,
0000
0000
0001
0000
,
1000
0000
0001
0000
,
0000
0000
1000
0000
,
0100
0000
1000
0000
,
1000
0000
0001
0000
,
0001
0000
1001
0000
,
0000
0000
0010
0000
,
0100
0000
0001
0000
,
1000
0000
0001
0000
,
1000
0000
0000
0000
,
0001
0000
0000
0000
,
1000
0000
0100
0000
,
0010
0000
0001
0000
,
0000
0000
1000
0000
,
0000
0000
0001
0000
,
1000
0000
0010
0000
,
0100
0000
0010
0000
,
1000
0000
0010
0000
,
0100
0000
0000
0000
,
0001
0000
0000
0000
,
1000
0000
0100
0000
,
0010
0000
0001
0000
,
1000
0000
0000
0000
,
0001
0000
0000
0000
,
1000
0000
1000
0000
,
0001
0000
0001
0000
,
0100
0000
0100
0000
,
0010
0000
0010
0000
,
1000
0000
0001
0000
,
1000
0000
0001
0000
,
1001
0000
0000
0000
;
