#TITLE:SILVER☆DREAM;
#SUBTITLE:;
#ARTIST:jun;
#TITLETRANSLIT:SILVER DREAM;
#SUBTITLETRANSLIT:;
#ARTISTTRANSLIT:;
#CREDIT:dominatorstrangeman8;
#BANNER:SILVER DREAM.png;
#BACKGROUND:SILVER DREAM-bg.png;
#LYRICSPATH:;
#CDTITLE:./CDTITLES/DanceDanceRevolution HOTTEST PARTY 2.png;
#MUSIC:SILVER DREAM.mp3;
#OFFSET:0.398;
#SAMPLESTART:32.570;
#SAMPLELENGTH:15.000;
#SELECTABLE:YES;
#BPMS:0.000=192.010,172.000=96.000,180.000=192.000;
#STOPS:196.000=1.247
;
#BGCHANGES:;

//---------------dance-single - ----------------
#NOTES:
     dance-single:
     :
     Easy:
     3:
     0.253,0.387,0.137,0.039,0.000:
0000
0000
0000
0000
,
0000
0000
0000
0000
,
1001
0000
0010
0000
,
0010
0000
0100
0000
,
1000
0000
0010
0000
,
0010
0000
0100
0000
,
0001
0000
0010
0000
,
0100
0000
1000
0000
,
0001
0000
0100
0000
,
0010
0000
0010
0000
,
1000
0000
0000
0000
,
0100
0000
0000
0000
,
0100
0000
0010
0000
,
0010
0000
0001
0001
,
0000
0000
0000
0000
0110
0000
0000
1000
,
0000
0100
0000
0000
0010
0000
0000
0000
,
0001
0000
0001
0000
,
0100
0000
0020
0000
,
1030
0000
0100
0000
,
0010
0000
0001
0001
,
0000
0000
0100
0000
,
0010
0000
1000
1000
,
0000
0000
0001
0000
,
0010
0000
0100
0000
,
1100
0000
1001
0000
,
0101
0000
1001
0000
,
0000
0110
0000
0000
,
0010
0000
0001
0000
,
0100
0000
0000
0000
,
0010
0000
1000
0000
,
0100
0000
0010
0010
,
0001
0000
1000
1000
,
0010
0000
0100
0100
,
0001
0000
1000
0000
,
0100
0000
0010
0000
,
0011
0000
1001
0000
,
0101
0000
1001
0000
,
0100
0000
0010
0000
,
0001
0000
0100
0000
,
0010
0010
0010
0000
,
1000
1000
1000
0000
,
0100
0000
0010
0000
,
0001
0000
0100
0000
,
0010
0010
0010
0000
,
1000
1000
1000
0000
,
0100
0000
0100
0000
,
0100
0000
0000
0000
,
0010
0000
0010
0000
,
0010
0000
0000
0000
,
1001
0210
0000
0310
0000
0000
0000
0000
,
0010
0000
0010
0000
,
1000
0100
0100
0000
,
0010
0010
0001
0000
,
0100
0100
0010
0000
,
1000
0000
0100
0010
,
0010
0000
0001
0000
,
0100
0010
0010
1000
,
0100
0010
0010
0000
,
0001
0001
0100
0000
,
0010
0000
1000
0000
,
0100
0100
0010
0000
,
0001
0001
0100
0000
,
0010
0000
0010
0000
,
1000
0100
0010
0001
,
1000
0000
0010
0000
,
0100
0000
0001
0000
,
1000
0000
0100
0000
,
0010
0000
0001
0000
,
0100
0100
0010
0010
,
1000
1000
0100
0100
,
0010
0200
1300
0002
,
0013
0100
1000
1001
;

//---------------dance-single - ----------------
#NOTES:
     dance-single:
     :
     Medium:
     6:
     0.420,0.492,0.225,0.059,0.000:
0000
0000
0000
0000
,
0000
0000
0000
0000
,
1001
0000
0010
0000
0010
0100
0000
0001
,
0000
0001
0000
0010
0000
0100
1000
0100
,
0000
0000
0010
0000
0010
0001
0000
0100
,
0000
0100
0000
0010
0000
1000
0001
1000
,
0000
0000
0100
0000
0100
0010
0000
0001
,
0000
0001
0000
0100
0000
0010
1000
0001
,
0000
0000
0010
0000
0010
0100
0000
1000
,
0000
1000
0000
0010
0100
0010
0000
0000
,
1001
0000
0000
0100
0000
0000
0000
0000
,
0110
0000
1000
0001
1000
0000
0010
0000
,
0000
0000
0010
0000
0100
0000
0000
0100
,
0000
0001
0000
0000
0010
0000
0010
0000
,
0000
0000
0100
0000
1100
0000
0000
0010
,
0000
0001
0000
0000
0100
0000
0000
0000
,
0010
0000
0000
0010
0000
0000
1000
0000
,
0100
0000
0000
0100
0000
2002
0000
3003
,
0010
0000
0100
0010
0100
0000
0001
0010
,
0000
0100
1000
0000
0101
0000
1100
0000
,
0000
1000
0100
0000
0010
0000
0001
0010
,
0000
0100
0000
0000
1010
0000
0011
0000
,
0100
0000
1000
0000
1000
0000
0000
0010
,
0000
0100
0000
0001
0100
0000
0010
0000
,
0020
0000
1000
1030
0000
0000
0100
0000
,
0020
0000
0000
0001
0031
0000
0000
0000
,
0100
0000
0010
0100
0000
0000
0010
0000
,
0100
0000
0000
0001
0000
1000
0000
0100
,
0000
0000
0000
0010
,
0010
0000
0001
0100
0000
0010
0000
0010
,
0000
0010
1000
0010
0100
0000
0100
0000
,
0002
0000
0000
1000
0000
1003
0000
0000
,
2000
0000
0000
0001
0000
3001
0000
0000
,
0001
0000
0000
0010
0000
0000
0100
0000
,
1001
0000
0010
0010
,
0100
0100
0001
0000
,
1000
1000
0100
0000
,
0010
0001
0010
1000
,
0010
0001
0100
0000
,
0010
0010
1000
0000
,
0001
0001
0100
0000
,
0010
1000
0010
0001
,
0010
1000
0100
0010
,
0001
0000
0010
0000
0100
0100
1000
0000
,
0001
0000
0100
0000
0010
0010
1000
0000
,
0100
0010
0010
0001
,
0001
0100
0010
1000
,
0100
0001
0100
1000
,
1100
0000
0000
0000
,
1010
1001
0000
1100
0000
0000
0010
0000
,
0010
0000
0001
1000
0000
0010
0000
0010
,
0000
0100
0001
1000
,
0100
0000
0000
0100
0000
0010
0000
0000
,
0001
0000
0000
0001
0000
1000
0000
0000
,
0100
0100
0010
0010
,
0001
0000
0001
0000
0100
0010
0100
0010
,
1000
0100
0100
0010
,
0010
0001
0100
0000
,
0010
0001
0010
1000
,
0100
0001
0100
1000
,
0010
0010
0100
0000
,
0001
0001
1000
0000
,
0001
1100
1000
0101
,
0010
0100
0010
0100
0010
0000
1000
0000
,
0100
0000
0100
0000
1000
0100
0000
1000
,
0000
1000
0000
0001
0000
0100
0010
0100
,
0000
0000
0001
0000
0001
0100
0000
0010
,
0000
0010
0000
1000
0000
0100
0010
0100
,
0010
0010
0011
0011
,
1000
0000
1000
0000
1001
0000
1001
1000
,
0001
0101
1000
1100
,
0010
0001
0010
0001
0100
0000
1001
0000
;

//---------------dance-single - ----------------
#NOTES:
     dance-single:
     :
     Hard:
     9:
     0.665,0.703,0.118,0.069,0.073: // measure 1
0000
0000
0000
0000
,  // measure 2
0000
0000
0000
0000
,  // measure 3
1001
0100
0010
0100
1000
0002
0000
0100
,  // measure 4
0000
0103
0000
0010
1000
0100
1000
0001
,  // measure 5
0100
0010
0100
0001
1000
0200
0000
0010
,  // measure 6
0000
0010
0000
0310
0001
0100
0010
0100
,  // measure 7
0001
1000
0100
1000
0001
0200
0000
0010
,  // measure 8
0000
0310
0000
1000
0001
0010
0100
1000
,  // measure 9
0001
0100
0001
1000
0100
0020
0000
0001
,  // measure 10
0000
0130
0000
1000
0100
0010
0001
0100
,  // measure 11
0000
0010
0100
0010
1000
0000
0100
0010
,  // measure 12
0000
0001
0100
0010
0010
0000
1000
0000
,  // measure 13
0000
0001
0100
1000
0100
0000
0001
0010
,  // measure 14
0000
0100
1000
0001
0100
0010
1000
0000
,  // measure 15
0000
0100
0010
0001
0011
0000
1000
0010
,  // measure 16
0000
0100
0000
0001
1000
0000
0010
0100
,  // measure 17
0002
0000
0013
0100
0000
0000
0100
1000
,  // measure 18
0100
0000
0010
0100
1000
0002
0000
0000
,  // measure 19
0103
0010
1000
0010
1000
0000
0100
0001
,  // measure 20
0000
1000
0010
0001
0100
0000
0100
0000
,  // measure 21
0100
0001
1000
0100
0001
0000
0100
1000
,  // measure 22
0000
0001
0000
0100
0010
1000
0010
0100
,  // measure 23
0000
0100
0001
1000
0100
0000
0100
0010
,  // measure 24
0000
0010
0000
0001
1000
0000
0010
0100
,  // measure 25
0001
0100
1000
0100
0000
0100
0001
1000
,  // measure 26
0100
0000
0100
1000
0010
0000
0101
0000
,  // measure 27
0010
1000
0100
0010
0000
0010
0100
1000
,  // measure 28
0001
0100
1000
0100
0000
0001
0000
1001
,  // measure 29
0000
0100
1000
0100
0010
0100
0001
1000
,  // measure 30
0100
0000
0010
0001
0000
1000
0000
1000
,  // measure 31
0000
0010
0100
0001
1000
0100
0001
0000
,  // measure 32
0100
1000
0001
0100
0000
1000
0000
0100
,  // measure 33
0001
1000
0100
0001
0000
0100
1000
0001
,  // measure 34
0100
0000
0010
1000
0000
0000
1010
0000
,  // measure 35
0011
0000
0000
0010
0000
0010
0001
1000
,  // measure 36
0010
1000
0010
1000
0001
0010
0001
0010
,  // measure 37
0100
1000
0100
1000
0001
0100
0001
0100
,  // measure 38
0010
1000
0001
0000
0010
0001
1000
0000
,  // measure 39
0010
1000
0001
0010
0000
0100
1000
0001
,  // measure 40
0100
0010
0100
0010
1000
0001
1000
0001
,  // measure 41
0010
0100
0010
0100
1000
0001
1000
0001
,  // measure 42
0010
0001
1000
0000
0010
1000
0001
0000
,  // measure 43
0100
0001
1000
0001
1000
0000
0110
0000
,  // measure 44
0011
0000
1000
0000
0010
1000
0000
0001
0000
0001
0000
0010
0000
0100
1000
0100
,  // measure 45
0010
0000
0001
0000
0001
0100
0000
0010
0000
0010
0000
1000
0000
0010
0100
0001
,  // measure 46
0010
0000
0010
0000
0100
1000
0001
0000
,  // measure 47
0010
0000
0010
0000
0001
0100
0010
0000
,  // measure 48
1000
0100
0010
0000
0001
0100
0010
0000
,  // measure 49
1000
0010
0001
1000
0100
0002
0000
0000
,  // measure 50
1003
1001
0000
0101
0000
0010
1000
0010
,  // measure 51
0100
0001
1000
0100
0000
0010
0000
0010
,  // measure 52
0000
0001
1000
0001
0100
0010
0100
0000
,  // measure 53
0001
0100
1000
0100
0000
0010
0000
1000
,  // measure 54
0100
0001
0100
0010
0000
0001
1000
0001
,  // measure 55
0010
0100
1000
0100
1000
0001
0100
0001
,  // measure 56
0100
0000
0010
0000
1000
0000
0010
0000
1000
0000
0001
1000
0001
1000
0001
1000
,  // measure 57
0001
0010
0001
0010
0100
0010
0100
1000
,  // measure 58
0001
0100
0001
1000
0100
0000
0000
0001
,  // measure 59
0100
1000
0001
0100
0010
1000
0100
0001
,  // measure 60
1000
0010
0001
1000
0000
0100
0010
0100
,  // measure 61
1000
0001
0100
0000
0010
1000
0010
0100
,  // measure 62
0000
0001
1000
0100
0010
0000
0000
0000
,  // measure 63
0100
1000
0001
0000
0100
0001
1000
0000
,  // measure 64
0100
1000
0001
1000
0100
0000
1001
0000
,  // measure 65
0100
0001
0100
0010
1000
0100
1000
0001
,  // measure 66
0100
0010
1000
0100
0001
1000
0010
0001
,  // measure 67
0000
1000
0100
1000
0001
0100
0010
0100
,  // measure 68
0001
1000
0100
0001
1000
0010
0001
0100
,  // measure 69
0000
0010
1000
0010
1000
0001
0100
0001
,  // measure 70
0100
0001
1000
0001
1000
0010
0100
0010
,  // measure 71
0100
0001
1000
0000
0100
1000
0001
0000
,  // measure 72
1000
0001
0100
0001
1000
0000
1001
0000
;
