#TITLE:Now That We Found Love;
#SUBTITLE:;
#ARTIST:Heavy D & The Boys ft. Aaron Hall;
#TITLETRANSLIT:;
#SUBTITLETRANSLIT:;
#ARTISTTRANSLIT:;
#CREDIT:;
#BANNER:;
#BACKGROUND:;
#LYRICSPATH:;
#CDTITLE:;
#MUSIC:Now That We Found Love.mp3;
#OFFSET:-8.160;
#SAMPLESTART:8.040;
#SAMPLELENGTH:12.000;
#SELECTABLE:YES;
#BPMS:0.000=120.000;
#STOPS:;
#BGCHANGES:;

//---------------dance-single - ----------------
#NOTES:
     dance-single:
     :
     Beginner:
     1:
     0.084,0.106,0.000,0.038,0.000:
1000
0000
0000
0000
,
0010
0000
0000
0000
,
0100
0000
0000
0000
,
0001
0000
0000
0000
,
0010
0000
0000
0000
,
0001
0000
0000
0000
,
0100
0000
0000
0000
,
1000
0000
0000
0000
,
0100
0000
0100
0000
,
0100
0000
0000
0000
,
0010
0000
0010
0000
,
0010
0000
0000
0000
,
1000
0000
1000
0000
,
1000
0000
0000
0000
,
0001
0000
0001
0000
,
0002
0000
0003
0000
,
0001
0000
0100
0000
,
0001
0000
0000
0000
,
1000
0000
0010
0000
,
1000
0000
0000
0000
,
0001
0000
0010
0000
,
0001
0000
0000
0000
,
1000
0000
0100
0000
,
2000
0000
3000
0000
,
1000
0000
0000
0000
,
0001
0000
0000
0000
,
0100
0000
0000
0000
,
0010
0000
0000
0000
,
0100
0000
0000
0000
,
0001
0000
0000
0000
,
0010
0000
0000
0000
,
1000
0000
0000
0000
,
1000
0000
0010
0000
,
1000
0000
0000
0000
,
0001
0000
0010
0000
,
0001
0000
0000
0000
,
1000
0000
0100
0000
,
1000
0000
0000
0000
,
0001
0000
0100
0000
,
0002
0000
0003
0000
,
0010
0000
0001
0000
,
0100
0000
0000
0000
,
0010
0000
1000
0000
,
0100
0000
0000
0000
,
0010
0000
0001
0000
,
1000
0000
0000
0000
,
0010
0000
0100
0000
,
0002
0000
0003
0000
,
0001
0000
0000
0000
,
0010
0000
0000
0000
,
0100
0000
0000
0000
,
1000
0000
0000
0000
,
0010
0000
0000
0000
,
0100
0000
0000
0000
,
0001
0000
0000
0000
,
2000
0000
0000
0000
,
3000
0000
0000
0000
;

//---------------dance-single - ----------------
#NOTES:
     dance-single:
     :
     Easy:
     3:
     0.186,0.170,0.000,0.061,0.000:
1000
0010
1000
0010
,
1000
0000
0001
0000
,
0100
0001
0100
0001
,
0100
0000
0001
0000
,
0010
0001
0010
0001
,
0010
0000
0100
0000
,
1000
0100
1000
0100
,
2000
0000
3000
0000
,
0010
1000
0100
0000
,
0100
1000
0010
0000
,
0010
0100
0001
0000
,
0001
0100
0010
0000
,
0010
1000
0001
0000
,
0001
1000
0010
0000
,
0100
0001
0010
0000
,
0020
0000
0030
0000
,
0010
0001
0100
0010
,
0100
0000
0001
0000
,
0010
0100
1000
0100
,
0010
0000
0001
0000
,
0100
0010
1000
0001
,
1000
0010
0100
0000
,
0001
0010
0001
0100
,
0020
0000
0030
0000
,
1000
0010
1000
0010
,
1000
0000
0010
0000
,
0100
0001
0100
0001
,
0100
0000
1000
0000
,
0100
1000
0100
1000
,
0100
0000
0010
0000
,
0001
0010
0001
0010
,
0002
0000
0003
0000
,
0001
0100
0010
1000
,
0100
1000
0010
0000
,
0010
0100
0001
0010
,
0100
0010
0001
0000
,
0100
0010
1000
0100
,
0010
0001
1000
0000
,
1000
0001
0010
0100
,
2000
0000
3000
0000
,
0010
1000
0100
0000
,
0100
1000
0010
0000
,
0010
0100
0001
0000
,
0200
0000
0000
0300
,
0010
1000
0100
0010
,
0001
0000
0010
0000
,
0001
0010
0100
1000
,
0002
0000
0000
0003
,
0010
0001
0100
1000
,
0010
0000
1000
0000
,
0100
0001
0010
1000
,
0010
0000
0001
0000
,
0100
0010
1000
0001
,
0010
0000
0100
0000
,
0010
0001
1000
0010
,
0200
0000
0000
0000
,
0310
0000
0000
0000
;

//---------------dance-single - ----------------
#NOTES:
     dance-single:
     :
     Medium:
     5:
     0.275,0.234,0.030,0.091,0.000: // measure 1
0010
0000
1000
0000
0100
1000
0001
0000
,  // measure 2
0100
0000
0010
0100
0001
0000
1000
0000
,  // measure 3
0100
1000
0001
0100
,  // measure 4
0010
0100
0001
0000
,  // measure 5
0010
0000
0001
0000
0100
0010
0100
0000
,  // measure 6
0001
0000
0010
0100
0010
0000
0100
0000
,  // measure 7
1000
0001
0100
0010
,  // measure 8
2000
0000
0000
3000
,  // measure 9
0010
0000
0100
0000
0001
0001
0001
0000
,  // measure 10
0010
0000
0100
0000
1000
1000
1000
0000
,  // measure 11
0010
0000
0100
0000
0001
0001
0001
0000
,  // measure 12
0010
0000
0001
0000
0100
0100
0100
0000
,  // measure 13
0010
0000
1000
0000
0100
0100
0100
0000
,  // measure 14
0100
0000
1000
0000
0010
0010
0010
0000
,  // measure 15
0100
0000
0001
0000
0010
0010
0010
0000
,  // measure 16
0200
0000
0000
0300
,  // measure 17
1000
0000
0010
0000
0100
0100
0001
0000
,  // measure 18
0010
0000
0100
0000
1000
1000
0010
0000
,  // measure 19
0100
0000
0001
0000
0010
0010
0001
0000
,  // measure 20
0100
0000
0010
0000
1000
1000
0100
0000
,  // measure 21
1000
0000
0010
0000
0100
0001
0100
0000
,  // measure 22
0010
0000
1000
0000
0100
1000
0100
0000
,  // measure 23
0010
0000
0001
0000
0100
0010
0100
0000
,  // measure 24
2002
0000
3003
0000
,  // measure 25
0010
0000
1000
0000
0100
0000
1000
0001
,  // measure 26
0100
0000
0010
1000
0001
0000
0010
0000
,  // measure 27
0100
1000
0100
1000
,  // measure 28
0001
0010
0001
0010
,  // measure 29
0001
0000
0100
0000
0010
1000
0100
0000
,  // measure 30
0010
0000
0001
0100
0010
0000
1000
0000
,  // measure 31
0100
1000
0010
0100
,  // measure 32
0002
0000
0000
0003
,  // measure 33
0010
0000
0001
0000
0100
1000
0100
0000
,  // measure 34
0010
0000
0001
0000
0100
0010
0100
0000
,  // measure 35
0001
0000
1000
0000
0100
0010
0100
0000
,  // measure 36
1000
0000
0000
0000
,  // measure 37
0010
0000
0100
0000
0001
0100
0010
0000
,  // measure 38
1000
0000
0001
0000
0010
0100
0010
0000
,  // measure 39
0001
0000
1000
0000
0010
0100
0001
0000
,  // measure 40
2002
0000
0000
3003
,  // measure 41
0001
0000
0010
0000
0100
1000
0001
0000
,  // measure 42
0100
0000
0010
0000
1000
0010
0100
0000
,  // measure 43
0001
0000
0010
0000
0100
1000
0001
0000
,  // measure 44
0200
0000
0000
0000
,  // measure 45
0310
0000
1000
0000
0100
1000
0001
0000
,  // measure 46
0100
0000
0010
0000
1000
0100
0010
0000
,  // measure 47
0100
0000
1000
0000
0001
0100
0010
0000
,  // measure 48
2002
0000
0000
3003
,  // measure 49
0010
0000
1000
0000
0100
0000
0010
0001
,  // measure 50
0010
0000
0100
1000
0100
0000
0010
0000
,  // measure 51
0001
0000
0100
0000
0010
0000
1000
0100
,  // measure 52
0000
0100
1000
0000
0010
0000
0100
0000
,  // measure 53
0001
0000
0010
0000
0001
0000
0100
0010
,  // measure 54
0100
0000
0001
1000
0001
0000
0010
0000
,  // measure 55
0100
0000
1000
0001
0100
0000
0010
0000
,  // measure 56
2002
0000
0000
0003
,  // measure 57
0001
3000
0000
0000
0000
0000
0000
0000
0000
0000
0000
0000
0000
0000
0000
0000
0000
0000
0000
0000
0000
0000
0000
0000
0000
0000
0000
0000
0000
0000
0000
0000
0000
0000
0000
0000
0000
0000
0000
0000
0000
0000
0000
0000
0000
0000
0000
0000
0000
0000
0000
0000
0000
0000
0000
0000
0000
0000
0000
0000
0000
0000
0000
0000
0000
0000
0000
0000
0000
0000
0000
0000
0000
0000
0000
0000
0000
0000
0000
0000
0000
0000
0000
0000
0000
0000
0000
0000
0000
0000
0000
0000
0000
0000
0000
0000
0000
0000
0000
0000
0000
0000
0000
0000
0000
0000
0000
0000
0000
0000
0000
0000
0000
0000
0000
0000
0000
0000
0000
0000
0000
0000
0000
0000
0000
0000
0000
0000
0000
0000
0000
0000
0000
0000
0000
0000
0000
0000
0000
0000
0000
0000
0000
0000
0000
0000
0000
0000
0000
0000
0000
0000
0000
0000
0000
0000
0000
0000
0000
0000
0000
0000
0000
0000
0000
0000
0000
0000
0000
0000
0000
0000
0000
0000
0000
0000
0000
0000
0000
0000
0000
0000
0000
0000
0000
0000
0000
0000
0000
0000
0000
0000
;

//---------------dance-single - ----------------
#NOTES:
     dance-single:
     :
     Hard:
     6:
     0.343,0.319,0.281,0.091,0.000: // measure 1
0010
1000
0001
0000
0101
0000
1010
0000
,  // measure 2
1001
0000
0001
0100
0010
1000
0001
0010
,  // measure 3
0000
0010
0001
0000
0100
0000
0010
1000
,  // measure 4
0000
1000
0100
0010
0000
0010
0001
0000
,  // measure 5
0100
0010
1000
0000
1100
0000
0011
0000
,  // measure 6
0101
0000
0001
0010
0001
1000
0100
1000
,  // measure 7
0000
1000
0100
0000
0010
0001
0100
1000
,  // measure 8
0020
0000
0000
0030
,  // measure 9
0010
0000
1100
0000
0010
0100
0001
0000
,  // measure 10
0010
0000
0101
0000
0010
1000
0001
0000
,  // measure 11
0010
0000
1100
0000
0010
1000
0100
0000
,  // measure 12
0010
0000
0011
0000
0001
0100
0010
0000
,  // measure 13
1000
0000
1010
0000
1000
0100
0001
0000
,  // measure 14
0100
0000
0101
0000
0100
0010
1000
0000
,  // measure 15
0100
0000
1100
0000
0100
0010
0001
0000
,  // measure 16
2002
0000
0000
3003
,  // measure 17
0001
0000
0011
0000
0010
1000
0100
0000
,  // measure 18
0010
0000
0101
0000
0001
0010
0100
0000
,  // measure 19
1000
0000
1010
0000
0010
0100
0001
0000
,  // measure 20
0100
0000
0101
0000
0100
0010
1000
0000
,  // measure 21
0100
0000
1100
0000
1000
0010
0100
0000
,  // measure 22
0001
0000
1001
0000
1000
0010
0100
0001
,  // measure 23
0010
0000
0110
0000
0100
1000
0001
0100
,  // measure 24
0020
0000
0000
0030
,  // measure 25
1000
0010
0100
0000
0101
0000
0011
0000
,  // measure 26
0110
0000
0100
1000
0010
0100
0001
0010
,  // measure 27
0000
0010
0001
0000
0100
0000
0010
1000
,  // measure 28
0000
0100
0010
0000
0001
0000
0100
0000
,  // measure 29
0010
1000
0001
0000
0011
0000
1100
0000
,  // measure 30
1001
0000
1000
0010
0100
0001
0100
1000
,  // measure 31
0000
1000
0100
0000
0100
0000
1000
0010
,  // measure 32
0200
0000
0000
0300
,  // measure 33
0001
0000
0010
0000
0001
1000
0100
0000
,  // measure 34
1000
0000
0010
0000
0100
0001
0010
0000
,  // measure 35
0001
0000
0100
0000
0010
1000
0001
0000
,  // measure 36
0021
0000
0000
0000
,  // measure 37
0130
0000
1000
0000
0010
0100
0001
0000
,  // measure 38
0100
0000
0010
0000
1000
0001
0010
0000
,  // measure 39
0100
0000
1000
0000
0010
0100
0001
0000
,  // measure 40
0020
0000
0000
0000
,  // measure 41
0031
0100
0010
1000
0010
0100
0001
0000
,  // measure 42
0010
0001
0100
1000
0100
0001
0010
0000
,  // measure 43
0100
1000
0010
0100
0001
0010
0100
0000
,  // measure 44
2002
0000
0000
3003
,  // measure 45
0010
1000
0100
0000
0010
0001
0100
0000
,  // measure 46
0100
0001
0010
0000
0100
1000
0010
0000
,  // measure 47
0100
0001
1000
0000
1000
0001
0010
0000
,  // measure 48
2002
0000
0000
3003
,  // measure 49
0010
1000
0001
0000
0101
0000
1010
0000
,  // measure 50
1100
0000
0100
1000
0010
0100
0001
0010
,  // measure 51
0000
0010
0001
0000
0100
0000
0010
1000
,  // measure 52
0000
1000
0010
0000
0100
0000
0001
0000
,  // measure 53
0010
0001
1000
0000
1010
0000
0101
0000
,  // measure 54
1001
0000
0001
0010
0100
1000
0010
0100
,  // measure 55
0000
0100
0010
0000
1000
0000
0100
1000
,  // measure 56
0002
0000
0000
0003
,  // measure 57
1001
0000
0000
0000
;
