#TITLE:Baby Cakes;
#SUBTITLE:;
#ARTIST:3 of a Kind;
#TITLETRANSLIT:;
#SUBTITLETRANSLIT:;
#ARTISTTRANSLIT:;
#GENRE:;
#CREDIT:;
#BANNER:Baby Cakes-bn.png;
#BACKGROUND:Baby Cakes-bg.png;
#LYRICSPATH:;
#CDTITLE:;
#MUSIC:Baby Cakes.ogg;
#OFFSET:-1.931;
#SAMPLESTART:15.850;
#SAMPLELENGTH:12.000;
#SELECTABLE:YES;
#BPMS:0.000=138.000;
#STOPS:;
#BGCHANGES:;
#KEYSOUNDS:;

//---------------dance-single - Nixot----------------
#NOTES:
     dance-single:
     Nixot:
     Challenge:
     11:
     0.745,0.704,0.360,0.106,0.777:
0000
0000
0000
0000
,
0000
0000
0000
0000
,
0000
0000
0000
0000
,
0000
0000
0000
0000
,
0001
0000
0000
0001
0010
0000
0000
0000
0100
0000
0000
0100
1000
0000
0001
0100
,
0001
0010
0100
1000
0010
0000
0100
0010
,
1000
0100
0010
0001
1000
0010
0100
0001
,
1000
0000
0000
0000
0010
0000
0010
0000
0100
0001
1000
0001
0010
0000
0110
0000
,
1000
0000
0001
0000
0011
0000
0000
0000
0000
0000
0010
0100
0000
0100
1000
0010
,
0100
0000
0001
0000
1001
0000
0000
0000
0000
0000
0001
0010
0000
0010
0100
1000
,
0010
0000
0100
0000
0101
0000
0000
0000
0000
0000
0001
0100
0010
1000
0001
0010
,
0100
0000
1000
0000
1100
0000
0000
0000
0000
0100
1000
0001
0100
0000
0010
0000
,
0100
0000
0000
0100
0001
0000
0000
0001
0010
0000
0000
0010
1000
0000
0010
0001
,
1000
0000
0010
0000
0100
0000
0001
0000
1001
0000
1000
0100
0000
0100
1000
0010
,
0100
0100
0010
0010
1000
0100
0001
0100
,
1000
0000
0010
0000
0001
0000
0010
0000
1000
0100
1000
0001
0100
0001
0020
0000
,
0130
1000
0001
1000
0010
0100
0010
0000
1000
0100
0010
0001
0000
1000
0100
0010
,
0001
0000
0001
0000
0010
0000
0010
0100
0000
0100
1000
0000
1000
0000
0010
0000
,
0110
0000
0000
0000
0000
0000
0000
0000
0000
0000
0000
0000
0000
0000
0000
0000
0100
0000
0000
0000
0000
0001
0000
0000
0000
0000
0010
0000
0000
0000
0000
0100
0000
0000
0000
0000
0000
1000
0000
0000
0000
0010
0000
0000
0000
0000
0000
0100
0000
0000
0000
0001
0000
0000
0000
0000
1000
0000
0000
0000
0000
0000
0000
0000
,
0100
0000
0100
0001
0000
0001
0100
0000
1000
0000
0001
0100
0000
0100
0010
0000
,
0110
0000
0000
0000
0010
1000
0010
0000
0100
0000
0100
0002
0000
0000
0000
0000
,
1003
0100
1000
0000
1001
0000
0001
0000
0100
0000
0100
0020
0000
0000
0000
0000
,
1030
0000
0100
0000
0001
0000
1000
0010
0000
0010
0001
0100
0010
0000
1010
0000
,
0100
0000
0100
0000
0010
0000
0100
0000
0001
0000
0100
0010
1000
0010
0100
0001
,
1000
0000
1000
0100
0010
0000
0011
0000
0000
0000
0011
0000
0000
0001
0100
0010
,
1000
0100
0010
0100
1000
0000
1010
0000
0000
0000
1010
0000
0000
0000
0010
0100
,
0001
0000
0001
0010
0100
0000
1100
0000
0000
0000
1100
0000
0000
1000
0010
0100
,
0001
0010
0100
0010
0001
0000
0101
0000
0000
0000
0101
0000
0000
0000
0010
0000
,
1000
0000
0000
1000
0010
0000
0000
0000
0000
0000
0100
0001
0000
1000
0100
0010
,
0001
0000
0010
0000
1100
0000
0000
0000
0000
0000
0100
1000
0000
1000
0020
0000
,
0130
0000
0001
0000
1001
0000
0000
0000
0000
0000
0001
0010
0100
0010
1000
0010
,
0100
0000
1000
0000
1010
0000
0000
0000
0000
0010
0100
0010
1000
0100
0010
0000
,
0100
0000
0000
0100
1000
0000
0000
1000
0010
0000
0000
0010
0001
0000
1000
0100
,
0010
0000
1000
0000
0100
0000
0010
0000
1001
0000
0000
2000
0000
3100
0020
0000
,
1030
0001
0100
1000
0001
0100
1000
0001
,
0010
0000
1000
0000
0100
0000
0010
0000
0001
0000
0000
0100
0000
0000
0000
0100
,
0010
0000
1000
0000
0010
0000
0000
0100
0000
0100
0000
0001
0000
0000
0000
0001
,
1000
0000
0010
0000
1002
0000
0103
0000
0000
0000
0010
1000
0000
0100
0000
0010
,
0001
0000
0100
0000
0101
0000
0000
0010
0000
0010
0000
0010
0100
0001
0100
1000
,
0100
0000
0001
0000
1002
0000
0013
0000
0100
0000
0100
1000
0010
0100
0001
0010
,
0100
0000
1000
0000
0010
0000
0000
0010
0000
0010
0000
0010
0000
0100
0000
0010
,
0100
0000
0001
0000
0011
0000
0010
0100
1000
0010
0100
0010
0000
0001
0010
1000
,
0100
0000
1000
0000
1020
0000
0000
0100
0000
0100
0030
0100
0010
0100
0010
1000
,
0100
0000
0010
0000
0110
0000
0010
0000
0001
0100
1000
0100
0001
0000
0010
0000
,
0100
0000
1000
0000
1010
0000
0010
0000
0100
0001
0100
1000
0100
0000
0010
0000
,
1010
0000
0100
0000
0001
0000
0010
0000
0100
0001
0100
1000
0010
0000
0110
0000
,
0101
0000
1000
0000
0011
0000
0010
0100
0000
0100
1000
0010
0100
0010
1000
0100
,
0010
0000
0001
0000
0101
0000
0000
0000
0100
0001
0010
0001
0100
0010
0100
0000
,
0001
0000
0000
1000
0100
0000
0000
0001
0010
0000
0000
1000
0010
0000
0000
0001
,
0100
0000
0010
0000
0001
0000
1000
0000
0100
0000
0001
0000
1000
0010
0100
0010
,
1000
0100
1000
0100
0001
0100
0001
0100
1000
0010
0100
0010
0001
0010
0100
0010
,
1000
0000
0100
0000
0010
0000
0001
0000
0000
0100
0001
0000
1000
0000
0010
0000
,
0100
0000
0000
0100
0010
0000
0000
0000
0000
0000
1000
0000
0001
0000
0100
0000
,
0020
0030
0000
0000
;

//---------------dance-single - Nixot----------------
#NOTES:
     dance-single:
     Nixot:
     Easy:
     3:
     0.237,0.252,0.053,0.000,0.000:
0000
0000
0000
0000
,
0000
0000
0000
0000
,
0000
0000
0000
0000
,
0000
0000
0000
0000
,
1000
0000
0100
0000
,
0001
0000
0100
0000
,
1000
1000
0001
0001
,
0010
0000
1001
0000
,
0010
0010
0000
0000
,
0100
0100
0000
0000
,
1000
1000
0000
0000
,
0001
0001
0000
0000
,
1000
0100
0010
0001
,
0010
0100
1000
0000
,
0001
0010
0100
1000
,
0100
0010
0001
0000
,
1000
1000
0010
0010
,
0100
0100
0001
0001
,
0010
0000
0010
0001
,
1000
0010
0100
0001
,
0000
1000
0001
1000
,
0010
0010
0100
0010
,
1000
0100
0001
1000
,
0010
0001
0100
1001
,
0010
0010
0000
0000
,
0100
0100
0000
0000
,
0001
0001
0000
0000
,
1000
1000
0000
0110
,
1000
0100
0100
0000
,
0001
0100
0100
0000
,
1000
0010
0010
0000
,
0001
0010
0010
0000
,
1000
0100
0001
0100
,
1000
0010
0001
0000
,
1000
0100
0001
0010
,
1000
0001
0100
0000
,
0001
0001
0000
0000
,
0010
0100
0010
1000
,
0100
0100
0000
0000
,
0001
1000
0001
0010
,
1000
1000
0000
0000
,
0100
0010
0100
0001
,
0010
0010
0000
0000
,
1000
0010
0100
1001
,
0001
0100
0010
0000
,
1000
0100
0010
0000
,
0001
0010
0100
0000
,
1000
0010
0100
0000
,
0001
0001
0010
1000
,
0100
0100
0001
0010
,
1000
1000
0100
0001
,
0010
0010
1000
0100
,
0010
0010
0000
0000
,
1001
0000
0000
0000
;

//---------------dance-single - Nixot----------------
#NOTES:
     dance-single:
     Nixot:
     Hard:
     9:
     0.562,0.563,0.095,0.074,0.386:
0000
0000
0000
0000
,
0000
0000
0000
0000
,
0000
0000
0000
0000
,
0000
0000
0000
0000
,
1000
1000
0001
0001
,
1000
1000
0001
0001
,
1000
0100
0010
0001
0100
0001
1000
0010
,
0100
0000
0000
0000
0001
0000
0001
0000
1000
0010
1000
0010
2000
0000
3100
0000
,
0010
0000
0000
0010
0001
0000
0000
0000
0000
0000
0100
0010
0000
0010
0100
0000
,
0001
0000
1000
0000
1100
0000
0000
0000
0000
0000
0100
0010
0000
0010
0001
0000
,
0100
0000
1000
0000
0100
0000
0000
0000
0000
0000
0010
0000
1000
0100
1000
0000
,
0010
0100
0101
0000
0100
0001
0010
0100
,
1000
0000
0000
1000
0010
0000
0000
0010
0100
0000
0000
0100
0001
0000
0000
0001
,
0010
0000
1000
0000
0010
0000
0001
0000
0100
0000
0000
0001
0000
0001
0100
0000
,
0010
1000
0010
0100
0001
0010
0001
0100
,
0010
1000
0100
0001
0200
0000
0000
0300
,
1000
0010
1000
0010
1000
0000
0001
0000
0010
0000
0100
0000
1000
0000
0001
0100
,
0001
0000
1000
0000
0010
0000
0010
0100
0000
0100
0001
0000
0001
0000
0010
0000
,
0010
0000
0100
1000
0010
0001
0010
1000
,
0100
0000
0010
0001
0010
0000
0001
0000
0100
0000
0010
1000
0010
0000
0100
0000
,
0001
0000
0000
0000
1000
0000
1000
0000
0100
0000
0100
0020
0000
0000
0000
0000
,
0031
0000
0100
0000
1000
0000
0100
0000
0001
0000
0010
0200
0000
0000
0000
0000
,
1300
0000
1000
0000
0010
0000
0010
0100
0000
0001
1000
0001
1000
0000
0010
0000
,
1000
0000
0010
0000
0100
0000
0001
0000
0010
0000
0100
1000
0100
0000
0010
0000
,
0001
0000
1000
0100
1000
0000
0010
0000
0000
0000
0010
0000
0000
0000
0100
0000
,
0001
0000
1000
0010
1000
0000
0100
0000
0000
0000
0100
0000
0000
0000
1000
0000
,
0010
0000
0100
0001
0100
0000
0010
0000
0000
0000
0010
0000
0000
0000
1000
0000
,
0100
0000
0010
0001
0010
0000
0100
0000
0000
0000
0100
0000
0000
0000
1002
0000
,
0010
0003
0000
0001
0010
0000
0000
0000
0000
0000
0010
0100
0000
0100
1000
0000
,
0010
0000
0100
0000
0101
0000
0000
0000
0000
0000
0001
0100
0000
0100
1000
0000
,
0100
0000
0001
0000
0010
0000
0000
0000
0000
0000
0100
0000
1000
0010
1000
0000
,
0100
0010
0011
0000
0010
0100
1000
0010
,
0100
0000
0000
0100
0001
0000
0000
0001
1000
0000
0000
1000
0010
0000
0000
0010
,
0001
1000
0100
0001
0020
0000
0030
0100
,
0100
1000
1000
0010
0010
0100
0001
0010
,
0100
0000
1000
0000
0010
0000
0001
0000
0010
0000
0000
1000
0000
0000
0000
1000
,
0100
0000
0000
0000
0100
0000
0000
0000
0000
0000
0000
0100
0000
0000
0000
0100
,
0010
0000
0001
0000
1000
0000
0010
0000
0100
0000
0001
1000
0000
0100
0000
0010
,
0001
0000
0000
0000
0001
0000
0000
0000
0000
0000
0000
1000
0000
0000
0000
1000
,
0010
0000
0100
0000
0001
0000
0010
0000
1000
0000
0010
0001
0000
0100
0000
0010
,
1000
0000
0000
0000
1000
0000
0000
0000
0000
0000
0000
0001
0000
0000
0000
0001
,
0100
0000
0001
0000
0010
0000
0100
0000
0001
0000
0100
1000
0000
0001
0000
0100
,
0010
0000
0000
0000
0010
0000
0000
0000
0000
0000
0000
0100
0000
0000
0000
0100
,
0010
0000
1000
0000
0010
0000
0100
0000
0001
1000
0001
1000
0001
0000
0010
0000
,
0100
0000
0000
0100
1000
0000
0000
0000
0000
0000
1000
0000
0010
0000
0001
0000
,
1000
0000
0100
0000
0110
0000
0000
0000
0010
0000
1000
0100
0000
0010
0001
0000
,
1000
0000
0010
0000
1010
0000
0000
0000
0000
0000
0010
0000
0100
0010
0100
0000
,
1000
0000
0100
0000
0101
0000
0000
0000
0000
0010
0100
0000
1001
0000
0000
0000
,
1000
0000
0000
1000
0100
0000
0000
0100
0001
0000
0000
0001
0100
0000
1000
0010
,
1000
0010
0001
0010
1000
0000
1000
0100
,
0001
0100
1000
0010
0001
1000
0100
0001
,
0010
0000
1000
0000
0010
0000
0001
0000
0100
0010
1000
0000
0010
0000
0100
0000
,
0001
0000
0000
0001
0010
0000
0000
0000
0000
0000
1000
0000
1000
0000
0010
0000
,
0020
0030
0000
0000
;

//---------------dance-single - Nixot----------------
#NOTES:
     dance-single:
     Nixot:
     Medium:
     7:
     0.427,0.448,0.243,0.011,0.000:
0000
0000
0000
0000
,
0000
0000
0000
0000
,
0000
0000
0000
0000
,
0000
0000
0000
0000
,
1000
0001
1000
0001
,
0100
0010
0100
0010
,
1000
0100
0010
0001
,
1000
0000
0000
0000
0010
0010
0010
0000
,
0100
0001
0101
0000
0000
0010
0010
0000
,
1000
0100
1100
0000
0000
0010
0010
0000
,
1000
0010
1010
0000
0000
0100
0100
0000
,
0001
0100
0101
0000
0001
0010
0100
1000
,
0010
0100
0010
1000
,
0100
0010
0001
0010
0100
0000
0000
1000
,
0010
0100
0010
0000
1000
0001
1000
0000
,
0100
0010
0100
0010
0001
0000
0000
0000
,
1001
0000
1000
0000
0010
1000
0010
0000
,
0110
0000
0100
0000
0001
0100
0001
1000
,
0100
0000
0010
0000
0010
0001
0100
0000
,
0010
1000
0100
0000
0010
0001
0010
0100
,
1000
0000
0001
0000
0100
0100
0100
0000
,
0010
0010
0010
1000
0100
0010
0001
0000
,
1000
0000
1000
0000
0001
0001
0001
0000
,
0010
0100
1000
0010
0100
0010
1000
0000
,
0100
0100
0100
1001
0000
1001
0000
0000
,
0010
0010
0010
1001
0000
1001
0000
0000
,
0100
0100
0100
1001
0000
1001
0000
0000
,
0010
0010
0010
1001
0000
2001
0000
0010
,
3010
0100
0101
0000
0000
1000
0100
0010
,
0001
0010
0110
0000
0000
0000
0000
1000
,
1000
0010
1010
0000
0000
0100
0001
0010
,
0100
1000
1010
0000
0100
0001
0100
0010
,
1000
0100
0001
0100
,
1000
0010
0001
0010
1000
0000
0000
0000
,
0001
0100
0001
0000
1000
0010
1000
0000
,
0001
0010
0100
1000
0010
0000
0000
0000
,
0100
0100
0000
0000
,
1000
0100
0010
0001
0010
0100
1000
0000
,
0010
0010
0000
0000
,
0001
0010
0100
1000
0100
0010
0001
0000
,
1000
1000
0000
0000
,
1000
0010
0100
0001
0100
0010
1000
0000
,
0001
0001
0000
0000
,
0001
0100
0010
1000
0010
0100
0001
0000
,
1000
0001
0101
0000
0000
0100
0010
1000
,
0001
0010
0110
0000
0000
0010
0001
0100
,
0010
1000
1001
0000
0000
0001
0010
0100
,
1000
0001
1100
0000
0001
1000
0101
0000
,
0010
1000
0100
0010
0001
0100
0010
0100
,
0001
0010
0100
1000
0010
0000
0000
0000
,
0100
0001
0010
0100
1000
0010
0100
0001
,
0010
0100
0010
0001
1000
0000
0000
0000
,
0010
0010
0000
0000
,
0100
0000
0000
0000
;
