#TITLE:Midnight of the North;
#SUBTITLE:;
#ARTIST:Sanxion7;
#TITLETRANSLIT:;
#SUBTITLETRANSLIT:;
#ARTISTTRANSLIT:;
#CREDIT:;
#BANNER:Midnightofthenorthbanner.png;
#BACKGROUND:;
#LYRICSPATH:;
#CDTITLE:;
#MUSIC:Midnight of the North.mp3;
#OFFSET:-10.300;
#SAMPLESTART:10.290;
#SAMPLELENGTH:12.000;
#SELECTABLE:YES;
#BPMS:0.000=135.000;
#STOPS:;
#BGCHANGES:;

//---------------dance-single - ----------------
#NOTES:
     dance-single:
     :
     Beginner:
     1:
     0.107,0.130,0.000,0.000,0.000: // measure 1
1000
0000
1000
0000
,  // measure 2
1000
0000
0000
0000
,  // measure 3
0001
0000
0001
0000
,  // measure 4
0001
0000
0000
0000
,  // measure 5
0100
0000
0100
0000
,  // measure 6
0100
0000
0000
0000
,  // measure 7
0010
0000
0010
0000
,  // measure 8
0010
0000
0000
0000
,  // measure 9
1000
0000
0000
0000
,  // measure 10
0100
0000
0000
0000
,  // measure 11
0010
0000
0000
0000
,  // measure 12
0001
0000
0000
0000
,  // measure 13
1000
0000
0000
0000
,  // measure 14
0010
0000
0000
0000
,  // measure 15
0100
0000
0000
0000
,  // measure 16
0001
0000
0000
0000
,  // measure 17
0010
0000
0010
0000
,  // measure 18
0010
0000
0010
0000
,  // measure 19
0010
0000
0000
0000
,  // measure 20
0100
0000
0000
0000
,  // measure 21
0100
0000
0100
0000
,  // measure 22
0100
0000
0100
0000
,  // measure 23
0100
0000
0000
0000
,  // measure 24
1000
0000
0000
0000
,  // measure 25
0001
0000
1000
0000
,  // measure 26
0001
0000
1000
0000
,  // measure 27
0010
0000
0100
0000
,  // measure 28
0010
0000
0100
0000
,  // measure 29
0001
0000
0100
0000
,  // measure 30
0001
0000
0100
0000
,  // measure 31
0010
0000
1000
0000
,  // measure 32
0010
0000
1000
0000
,  // measure 33
0001
0000
0001
0000
,  // measure 34
0001
0001
0001
0000
,  // measure 35
0100
0000
0100
0000
,  // measure 36
0100
0100
0100
0000
,  // measure 37
0010
0000
0010
0000
,  // measure 38
0010
0010
0010
0000
,  // measure 39
1000
0000
1000
0000
,  // measure 40
1000
1000
1000
0000
,  // measure 41
1000
0000
0000
0000
;

//---------------dance-single - ----------------
#NOTES:
     dance-single:
     :
     Easy:
     3:
     0.205,0.178,0.000,0.011,0.000:
0001
0100
0001
0100
,
0010
1000
0010
0000
,
1000
0100
1000
0100
,
0010
0001
0010
0000
,
0001
0100
1000
0100
,
0001
0010
1000
0000
,
0010
1000
0100
0001
,
0100
1000
0010
0000
,
0100
0000
0010
0000
,
0100
0010
0100
0010
,
0100
0000
0001
0000
,
0100
0001
0100
0001
,
0100
0000
0001
0000
,
0010
0001
0010
0001
,
0010
0000
1000
0000
,
0010
1000
0010
1000
,
0010
0000
0100
0000
,
0010
0100
0010
0000
,
1000
0000
0001
0000
,
1000
0001
1000
0000
,
0001
0000
0100
0000
,
0001
0100
0001
0000
,
1000
0000
0010
0000
,
1000
0010
1000
0000
,
0010
0100
0010
0100
,
0001
0100
0001
0000
,
1000
0100
1000
0100
,
0010
0001
0010
0000
,
0010
0001
0010
0001
,
1000
0010
1000
0000
,
0010
0100
0010
0100
,
0001
1000
0001
0000
,
1000
0100
0010
0001
,
0010
0100
1000
0000
,
0010
0001
0100
1000
,
0100
0001
0010
0000
,
0010
0100
1000
0001
,
0100
0010
1000
0000
,
1000
0010
0100
0001
,
0010
0100
1000
0000
,
0002
0000
0000
1000
0000
0000
1000
0000
,
0003
0000
0000
0000
;

//---------------dance-single - ----------------
#NOTES:
     dance-single:
     :
     Medium:
     5:
     0.288,0.274,0.119,0.022,0.000:
1000
0000
0100
0000
0010
0001
0010
0000
,
0001
0100
0101
0000
,
0100
0000
0010
0000
1000
0100
1000
0000
,
0010
1000
1010
0000
,
0010
0000
1000
0000
0100
1000
0100
0000
,
0010
0001
0011
0000
,
0001
0000
0100
0000
0010
0100
0010
0000
,
1000
0100
0110
0000
,
0001
0000
0100
0000
1000
0100
1000
0000
,
0010
0000
0100
0000
0001
0100
0001
0000
,
0010
0000
0001
0000
0100
0001
0100
0000
,
0010
0000
1000
0000
0100
1000
0100
0000
,
0010
0000
0001
0000
0100
1000
0100
0000
,
0010
0000
0001
0000
0100
0010
0100
0000
,
0001
0000
0010
0000
0100
1000
0100
0000
,
0010
0001
0100
0000
,
0010
0000
0010
1000
0000
1000
0010
0000
,
0100
0001
0100
0000
,
0001
0000
0010
0001
0000
0001
0010
0000
,
1000
0100
1000
0000
,
0010
0000
1000
0100
0000
0100
1000
0000
,
0010
0100
0001
0000
,
0010
0000
0001
0100
0000
0100
0001
0000
,
0010
0100
1000
0000
,
0010
0000
1000
0000
0100
0010
0100
0000
,
1000
0010
1010
0000
,
0010
0000
0100
0000
0001
0010
0001
0000
,
0100
0001
0101
0000
,
0001
0000
0010
0000
0100
1000
0100
0000
,
0010
0001
0011
0000
,
0001
0000
0100
0000
0010
1000
0100
0000
,
1000
0010
1010
0000
,
0010
0000
1000
0000
0100
0001
0100
0000
,
1000
0010
0011
0000
,
0001
0000
0100
0000
1000
0100
0001
0000
,
0010
1000
1010
0000
,
1000
0000
0100
0000
0010
0001
0100
0000
,
0010
0100
0101
0001
,
0010
0000
0100
0000
1000
0010
1000
0000
,
0100
0000
0010
0000
0100
1000
0001
0100
,
0020
0000
0000
0100
0000
0000
0200
0000
,
0000
0000
0300
0000
,
0030
0000
0000
0000
;

//---------------dance-single - ----------------
#NOTES:
     dance-single:
     :
     Hard:
     8:
     0.473,0.388,0.000,0.033,0.304:
1000
0000
0100
0000
0010
0000
0001
0000
0001
0000
0010
0000
0100
0000
1000
0100
,
1000
0000
0000
0010
0000
0000
0100
0000
0000
0001
0000
0000
0010
0000
0100
1000
,
0100
0000
0010
0000
0001
0000
0100
0000
0100
0000
0001
0000
0010
0000
0100
1000
,
0100
0000
0000
0010
0000
0000
0001
0000
0000
0100
0000
0000
0010
0000
1000
0100
,
1000
0000
0010
0000
0100
0000
0001
0000
0001
0000
0010
0000
0001
0000
1000
0100
,
1000
0000
0000
0010
0000
0000
0100
0000
0000
0001
0000
0000
0010
0000
0100
1000
,
0100
0000
0010
0000
0001
0000
1000
0000
0010
0000
0100
0000
0001
0000
0010
0001
,
0010
0000
0000
0001
0000
0000
0100
0000
0000
0010
0000
0000
1000
0000
0100
1000
,
0100
1000
0010
0100
0001
0010
0100
0000
,
0100
0010
0001
0100
0010
1000
0001
0000
,
0010
0001
0100
1000
0100
0001
0010
0000
,
0010
0100
1000
0010
0100
0001
0010
0000
,
0010
0001
0100
0010
1000
0001
0010
0000
,
0010
0001
0100
0010
1000
0001
0010
0000
,
0100
1000
0100
0010
0001
1000
0010
0000
,
0010
0100
0001
0010
0100
1000
0100
0000
,
0010
0000
0001
0100
0000
0100
0001
0000
,
0010
0000
1000
0000
0100
0000
0000
1000
0000
1000
0010
0000
1000
0000
0000
0000
,
0100
0000
1000
0100
0000
0100
1000
0000
,
0010
0000
0001
0000
0100
0000
0000
0001
0000
0001
0100
0000
0010
0000
1000
0000
,
0100
0000
1000
0010
0000
0010
1000
0000
,
0100
0000
1000
0000
0001
0000
0000
0100
0000
0100
0001
0000
0010
0000
0100
0000
,
0010
0000
0001
0010
0000
0010
0001
0000
,
0001
0000
0100
0000
1000
0000
0000
1000
0000
1000
0010
0000
0100
0000
0001
0000
,
0010
0000
0001
0000
0100
0000
0010
0000
0010
0000
1000
0000
0001
0000
0010
0001
,
0010
0000
0000
0001
0000
0000
0100
0000
0000
0010
0000
0000
1000
0000
0100
1000
,
0100
0000
1000
0000
0010
0000
0100
0000
0100
0000
0001
0000
0010
0000
0100
1000
,
0100
0000
0000
0001
0000
0000
0100
0000
0000
0010
0000
0000
1000
0000
0100
0010
,
0100
0000
1000
0000
0100
0000
0010
0000
0010
0000
1000
0000
0100
0000
0001
0010
,
0001
0000
0000
0100
0000
0000
0010
0000
0000
1000
0000
0000
0100
0000
1000
0010
,
1000
0000
0100
0000
1000
0000
0001
0000
0001
0000
0010
0000
0100
0000
1000
0100
,
1000
0000
0000
0010
0000
0000
0100
0000
0000
0001
0000
0000
0010
0000
0001
0010
,
0001
0000
0100
0000
0010
0000
1000
0000
1000
0000
0010
0000
0100
0000
0001
0010
,
0001
0000
0000
0100
0000
0000
0010
0000
0000
1000
0000
0000
0010
0000
0001
0010
,
0001
0000
0100
0000
0010
0000
1000
0000
1000
0000
0010
0000
0100
0000
0001
0100
,
0001
0000
0000
0010
0000
0000
0100
0000
0000
1000
0000
0000
0100
0000
0010
0001
,
0010
0000
0001
0000
0100
0000
1000
0000
1000
0000
0100
0000
0001
0000
0010
0001
,
0010
0000
0000
0100
0000
0000
1000
0000
0000
0001
0000
0000
0100
0000
0010
1000
,
0010
0000
0001
0000
0100
0000
0010
0000
0010
0000
1000
0000
0100
0000
0010
0001
,
0010
0000
0000
0100
0000
0000
1000
0000
0000
0001
0000
0000
0100
0000
0010
1000
,
0020
0000
0000
2030
0000
0000
0002
0000
,
0000
0000
0000
0000
,
3003
0000
0000
0000
;
