#TITLE:Hollywood Galaxy;
#SUBTITLE:;
#ARTIST:dj TAKA;
#TITLETRANSLIT:;
#SUBTITLETRANSLIT:;
#ARTISTTRANSLIT:;
#CREDIT:;
#BANNER:banner.png;
#BACKGROUND:bgblack.PNG;
#LYRICSPATH:;
#CDTITLE:;
#MUSIC:Hollywood Galaxy.mp3;
#OFFSET:-13.700;
#SAMPLESTART:45.960;
#SAMPLELENGTH:12.000;
#SELECTABLE:YES;
#BPMS:0.000=186.000;
#STOPS:;
#BGCHANGES:;

//---------------dance-single - ----------------
#NOTES:
     dance-single:
     :
     Beginner:
     2:
     0.173,0.229,0.009,0.000,0.000:
1000
0000
0100
0000
,
1000
0000
0100
0000
,
0010
0000
0001
0000
,
0010
0000
0001
0000
,
0100
0000
0010
0000
,
0100
0000
0010
0000
,
1000
0000
0001
0000
,
1000
0000
0001
0000
,
0000
0000
0000
0000
,
0000
0100
0000
0100
,
0000
0010
0000
0010
,
0000
1000
0000
1000
,
0000
0001
0000
0001
,
0000
0100
0000
0100
,
0000
0001
0000
0001
,
0000
1000
0000
1000
,
0000
0010
0000
0010
,
0010
0000
1000
0000
,
0100
0000
1000
0000
,
0010
0000
0001
0000
,
0100
0000
0001
0000
,
0010
0000
0001
0000
,
0100
0000
1000
0000
,
0010
0000
1000
0000
,
0100
0000
0000
0000
,
0010
0010
0010
0000
,
0010
0010
0010
0000
,
0100
0100
0100
0000
,
0100
0100
0100
0000
,
0001
0001
0001
0000
,
0001
0000
0001
0000
,
1000
1000
1000
0000
,
1000
0000
1000
0000
,
0100
0100
0100
0000
,
0100
0100
0100
0000
,
0010
0010
0010
0000
,
0010
0010
0010
0000
,
1000
1000
1000
0000
,
1000
0000
1000
0000
,
0001
0001
0001
0000
,
0001
0000
0001
0000
,
1000
0000
0000
0000
,
0100
0000
0000
0000
,
0010
0000
0000
0000
,
0001
0000
0000
0000
,
0100
0000
0000
0000
,
0010
0000
0000
0000
,
1000
0000
0000
0000
,
0001
0000
0000
0000
,
1000
0000
0010
0000
,
1000
0000
0010
0000
,
0100
0000
0001
0000
,
0100
0000
0000
0000
,
0001
0000
0010
0000
,
0001
0000
0010
0000
,
0100
0000
1000
0000
,
0100
0000
0000
0000
,
1000
0000
1000
0000
,
1000
0000
0000
0000
,
0001
0000
0001
0000
,
0001
0000
0000
0000
,
0100
0000
0100
0000
,
0100
0000
0000
0000
,
0010
0000
0010
0000
,
0010
0000
0000
0000
,
1000
0000
0000
0000
,
0100
0000
0000
0000
,
0010
0000
0000
0000
,
0001
0000
0000
0000
,
0100
0000
0000
0000
,
0010
0000
0000
0000
,
1000
0000
0000
0000
,
0001
0000
0000
0000
,
1001
0000
0000
0000
;

//---------------dance-single - ----------------
#NOTES:
     dance-single:
     :
     Easy:
     4:
     0.313,0.294,0.018,0.107,0.000:
1000
0100
1000
0100
,
0010
0001
0010
0001
,
0100
0010
0100
0010
,
1000
0100
0001
0010
,
1000
0100
1000
0100
,
0010
0001
0010
0001
,
0100
0010
0100
0010
,
1000
0001
1000
0001
,
0000
0000
0000
0000
,
0001
0100
0000
0100
,
0001
0010
0000
0010
,
0001
1000
0000
1000
,
0010
0100
0000
0100
,
0001
1000
0000
1000
,
0100
0010
0000
0010
,
0100
1000
0000
1000
,
0001
0100
0000
0100
,
0010
0100
0010
0100
,
0010
1000
0010
1000
,
0001
0100
0001
0100
,
0001
0010
0100
1000
,
0001
0010
0001
0010
,
1000
0100
1000
0100
,
0010
0001
0100
0010
,
2000
0000
3000
0000
,
0001
0100
0001
0100
,
0010
1000
0010
1000
,
0100
0001
0100
1000
,
0010
0001
0010
0000
,
1000
0010
1000
0010
,
0100
0001
0010
1000
,
0100
1000
0100
1000
,
0010
0001
0100
0010
,
1000
0001
1000
0001
,
0100
0010
0100
0010
,
1000
0100
0010
0100
,
1000
0010
0100
0001
,
0010
0001
0010
0001
,
1000
0100
1000
0100
,
0010
0001
0100
1000
,
0010
0100
0001
1000
,
0020
0000
0000
0000
,
0032
0000
0000
0000
,
0203
0000
0000
0000
,
2300
0000
0000
0000
,
3002
0000
0000
0000
,
0023
0000
0000
0000
,
0230
0000
0000
0000
,
2300
0000
0000
0000
,
3010
0000
1000
0000
,
0100
1000
0001
0000
,
0100
0000
0010
0000
,
0100
0001
0010
0000
,
0100
0000
1000
0000
,
0001
0100
0010
0000
,
0100
0000
0001
0000
,
2002
0000
3003
0000
,
0001
0100
0010
1000
,
0100
0010
0100
0000
,
1000
0001
0010
0100
,
1000
0010
0100
0000
,
0001
0100
0010
1000
,
0100
1000
0010
0000
,
0100
0001
1000
0010
,
0100
0001
0010
0000
,
0010
0001
0100
0010
,
1000
0100
1000
0001
,
0100
0010
0100
0010
,
1000
0001
1000
0001
,
0010
0001
0100
1000
,
0010
1000
0100
0001
,
0010
0001
0000
0100
,
2000
0000
3000
0000
,
1001
0000
0000
0000
;

//---------------dance-single - ----------------
#NOTES:
     dance-single:
     :
     Medium:
     7:
     0.459,0.430,0.072,0.054,0.000:
0010
0000
1000
0100
0000
0100
1000
0000
,
0010
0000
0001
0100
0000
0100
0001
0000
,
1000
0000
0001
1000
0000
1000
0001
0000
,
0100
0010
1000
0000
0010
0100
0001
0000
,
0010
0000
0001
0100
0000
0100
0001
0000
,
0010
0000
0100
1000
0000
1000
0100
0000
,
0010
0000
0001
1000
0000
1000
0001
0000
,
0100
0010
1000
0000
0010
0100
0001
0000
,
0000
0000
0000
0000
,
0010
0000
1000
0000
0100
0010
0100
0000
,
1000
0000
0001
0000
0100
0010
0100
0000
,
0001
0000
0010
0000
0100
1000
0100
0000
,
0010
0000
0001
0000
1000
0010
1000
0000
,
0001
0000
0010
0000
0100
1000
0100
0000
,
0010
0000
0001
0000
0100
0010
0100
0000
,
0001
0000
0010
0000
0001
1000
0001
0000
,
0100
0000
0010
0000
1000
0001
0010
0100
,
1000
0000
0100
0000
0010
0001
0100
0000
,
0001
0000
0010
0000
0100
1000
0010
0000
,
1000
0000
0001
0000
0100
0010
1000
0000
,
0001
0000
0100
0000
1000
0100
0001
0000
,
0010
0000
0100
0000
1000
0010
0100
0000
,
0001
0000
0010
0000
1000
0010
0100
0000
,
0001
0000
0010
0000
0100
1000
0010
0000
,
0110
0000
0000
0000
0010
0010
0010
0010
,
0100
0001
0010
0100
1000
0000
0010
0000
,
0100
0001
0100
0010
1000
0000
0001
0000
,
0010
0100
1000
0100
0010
0000
0001
0000
,
1000
0010
0100
0000
0100
0010
1000
0000
,
0001
0010
0001
0100
0010
0000
1000
0000
,
0100
0010
0100
1000
0001
0000
0100
0000
,
0010
1000
0001
0010
0100
0000
1000
0000
,
0100
0010
0001
0000
1000
0010
0100
0000
,
0001
0010
0001
0100
0010
0000
1000
0000
,
0100
1000
0010
0100
0001
0000
0010
0000
,
0001
0100
1000
0100
0001
0000
0010
0000
,
0100
1000
0010
0000
0100
0001
0010
0000
,
0001
0100
0010
1000
0001
0000
0010
0000
,
0100
1000
0100
0010
0001
0000
1000
0000
,
0010
0100
0001
0000
0100
0010
1000
0000
,
0001
0010
0001
0100
0010
1000
0001
0000
,
2001
0000
0001
0000
,
0010
0000
0010
0000
,
0100
0000
0100
0000
,
0010
0000
0001
3000
,
1002
0000
1000
0000
,
0010
0000
0100
0000
,
0010
0000
1000
0000
,
0100
0000
0013
0000
,
0001
0000
0100
0001
0000
0001
0100
0000
,
0010
0000
1000
0010
0000
0010
1000
0000
,
0100
0000
1000
0100
0000
0100
1000
0000
,
0001
0000
0010
0001
0000
0001
0010
0000
,
0100
0000
1000
0100
0000
0100
1000
0000
,
0010
0000
0100
0010
0000
0010
0100
0000
,
0001
0000
1000
0001
0000
0001
1000
0000
,
2002
0000
0000
3003
,
0010
0000
1000
0000
0100
1000
0001
0000
,
0100
0000
0010
0000
1000
0001
0010
0000
,
0001
0000
0100
0000
0010
1000
0001
0000
,
0010
0001
1001
0000
,
0010
0000
1000
0000
0100
0010
0100
0000
,
1000
0000
0010
0000
0100
0001
0100
0000
,
0001
0000
0010
0000
0001
1000
0010
0000
,
0100
0001
0011
0000
,
0010
0001
0100
0010
,
1000
0000
0100
0000
1000
0010
0100
0000
,
0001
0000
0010
0000
0100
1000
0010
0000
,
0100
0001
1001
0000
,
0001
0100
1000
0100
,
0001
0000
0010
0000
0100
1000
0010
0000
,
0100
0100
0000
0001
0001
0000
0010
0010
,
0000
0010
0001
0000
0100
0000
0010
0000
,
2002
0000
0000
0000
,
3003
0000
0000
0000
;

//---------------dance-single - ----------------
#NOTES:
     dance-single:
     :
     Hard:
     9:
     0.608,0.686,0.054,0.045,0.098: // measure 1
1000
0010
0100
0001
0010
0001
0100
0000
,  // measure 2
0010
1000
0100
0001
0100
1000
0010
0000
,  // measure 3
0010
0100
0001
0010
0100
1000
0100
0000
,  // measure 4
0010
0001
0100
0000
0010
1000
0100
0000
,  // measure 5
1000
0010
0100
0001
0010
0100
1000
0000
,  // measure 6
1000
0100
0010
0001
1000
0010
0100
0000
,  // measure 7
0010
0100
0001
0010
0000
0010
0001
0100
,  // measure 8
0010
1000
0100
0001
0010
0001
0100
1000
,  // measure 9
0000
0000
0000
0000
,  // measure 10
0010
0000
1000
0000
0100
0000
0000
1000
0000
0000
0010
0000
0100
0000
0001
0000
,  // measure 11
0010
0000
0100
0000
1000
0000
0000
0100
0000
0000
0010
0000
0001
0000
0100
0000
,  // measure 12
0010
0000
1000
0000
0010
0000
0000
0100
0000
0000
0001
0000
0010
0000
0001
0000
,  // measure 13
0100
0000
0010
0000
1000
0000
0000
0001
0000
0000
0010
0000
0001
0000
0100
0000
,  // measure 14
0010
0000
1000
0000
0001
0000
0000
0010
0000
0000
0001
0000
0100
0000
0010
0000
,  // measure 15
1000
0000
0001
0000
0010
0000
0000
0001
0000
0000
0100
0000
0010
0000
1000
0000
,  // measure 16
0100
0000
0010
0000
0100
0000
0000
1000
0000
0000
0001
0000
0100
0000
0010
0000
,  // measure 17
1000
0000
0001
0000
0010
0000
0000
0010
0000
0000
0001
0000
0100
0000
0010
0000
,  // measure 18
1000
0100
0010
0100
1000
0001
0100
0010
,  // measure 19
1000
0001
0010
0001
0100
0010
1000
0000
,  // measure 20
1000
0010
0100
0001
0010
0100
1000
0100
,  // measure 21
0010
0001
1000
0010
0100
0001
0010
0000
,  // measure 22
0010
0001
0100
1000
0100
0010
0001
1000
,  // measure 23
0010
0100
0001
0010
0001
1000
0100
0000
,  // measure 24
0100
1000
0001
0000
0100
0010
1000
0000
,  // measure 25
2002
0000
0000
0000
3003
0000
0000
0000
0100
0010
0100
0010
0100
0010
0100
0010
,  // measure 26
0100
0001
0010
0100
1000
0100
0010
0001
,  // measure 27
1000
0010
0100
0001
0010
0001
0100
0000
,  // measure 28
0100
0010
1000
0100
0001
0100
1000
0010
,  // measure 29
0100
0001
0010
0100
1000
0100
0010
0000
,  // measure 30
0010
0001
0100
0010
1000
0001
0010
0000
,  // measure 31
0010
0001
0100
1000
0100
0001
0010
0000
,  // measure 32
0001
0100
0010
1000
0001
0010
0100
0000
,  // measure 33
1000
0010
0100
0000
0001
0010
0100
0000
,  // measure 34
0010
0001
0100
0010
1000
0001
0010
0100
,  // measure 35
1000
0010
0100
0001
0010
0100
1000
0000
,  // measure 36
1000
0010
1000
0001
0010
0100
1000
0100
,  // measure 37
0010
0001
1000
0010
0100
0001
0010
0000
,  // measure 38
0010
0001
0100
0010
1000
0100
0010
0000
,  // measure 39
0010
0100
1000
0001
0100
0010
1000
0000
,  // measure 40
0010
0100
0001
0000
0100
0010
1000
0000
,  // measure 41
0001
0100
0010
1000
0001
0010
0100
1000
,  // measure 42
0010
0000
0100
0010
0000
0000
0000
0000
,  // measure 43
0001
0000
0010
0001
0000
0000
0000
0000
,  // measure 44
0001
0000
0100
0001
0100
0000
0000
0010
,  // measure 45
0100
0000
0000
0100
1000
0010
0100
0001
,  // measure 46
0010
0000
0100
1000
0000
0000
0000
0000
,  // measure 47
0010
0000
0010
0100
0000
0000
0100
0000
,  // measure 48
0001
0000
0010
0001
0010
0000
0000
0000
,  // measure 49
1000
0010
0001
0100
,  // measure 50
1000
0000
0100
1000
0000
1000
0100
0000
,  // measure 51
0010
0000
0001
0100
0000
0100
0001
0000
,  // measure 52
0010
0000
0100
0010
0100
0000
0100
1000
,  // measure 53
0001
0000
0100
0010
1000
0001
0010
0100
,  // measure 54
1000
0000
1000
0010
0000
0010
0100
0000
,  // measure 55
0001
0000
0010
0001
0000
0001
0100
0000
,  // measure 56
0010
0000
1000
0100
0000
0100
1000
0000
,  // measure 57
2002
0000
0000
3003
,  // measure 58
0010
1000
0001
0010
0100
1000
0100
0010
,  // measure 59
0001
1000
0010
0100
0010
1000
0001
0010
,  // measure 60
0001
0100
0010
1000
0001
0010
0100
1000
,  // measure 61
0100
0010
0001
1000
0010
0100
0001
0000
,  // measure 62
0001
0100
0010
1000
0001
0010
0100
1000
,  // measure 63
0100
0010
0001
0010
0100
1000
0100
0001
,  // measure 64
0100
1000
0010
0100
0001
0010
0001
0100
,  // measure 65
1000
0100
0010
0001
1000
0010
0100
0000
,  // measure 66
0001
0000
0000
0001
0000
0000
0001
0000
0100
0000
0010
0000
1000
0000
0001
0000
,  // measure 67
0010
0000
0000
0001
0000
0000
0100
0000
0010
0000
0000
1000
0000
0000
0100
0000
,  // measure 68
0010
0000
0000
0100
0000
0000
1000
0000
0001
0000
0000
0100
0000
0000
0010
0000
,  // measure 69
1000
0000
0000
0001
0000
0000
0010
0000
0001
0000
0000
0100
0000
0000
0010
0000
,  // measure 70
1000
0000
0000
0001
0000
0000
0010
0000
0001
0000
0100
0000
0010
0000
1000
0000
,  // measure 71
0001
0000
0000
0010
0000
0000
0001
0000
0100
0000
0000
0010
0000
0000
1000
0000
,  // measure 72
0010
0110
0000
0001
0101
0000
0000
0210
,  // measure 73
0000
0000
0000
0310
,  // measure 74
1001
0000
0000
0000
;
