#TITLE:FIGHT THEME;
#SUBTITLE:;
#ARTIST:P5;
#TITLETRANSLIT:;
#SUBTITLETRANSLIT:;
#ARTISTTRANSLIT:;
#GENRE:Picopop;
#CREDIT:Frozen_Heat/Azn_Punk_07/GuardianFrozen;
#MENUCOLOR:#58369e;
#METERTYPE:DDR;
#BANNER:[Crossovers] - FIGHT THEME.png;
#BACKGROUND:[Crossovers] - FIGHT THEME-bg.png;
#LYRICSPATH:;
#CDTITLE:!cdtitle.png;
#MUSIC:[Crossovers] - FIGHT THEME.mp3;
#OFFSET:-0.064;
#SAMPLESTART:10.787;
#SAMPLELENGTH:10.787;
#SELECTABLE:YES;
#LISTSORT:;
#BPMS:0.000=178.000;
#STOPS:;
#BGCHANGES:;
#ATTACKS:;

//---------------dance-single - ----------------
#NOTES:
     dance-single:
     :
     Hard:
     8:
     0.643,0.698,0.234,0.033,0.100:
0000
0000
0000
0000
,
0000
0000
0000
0000
,
0000
0000
0000
0000
,
0000
0000
0000
0000
,
0000
0000
0000
0000
,
0000
0000
0000
0000
,
0000
0000
0000
0000
,
0000
0000
0000
0000
0000
0000
0001
0010
,
0001
0001
0100
0000
0010
0010
1000
0000
,
0100
0100
0010
0000
0001
0001
1000
0010
,
1000
1000
0100
0000
0010
0010
0001
0000
,
0100
0100
0010
0000
1000
1000
0001
0100
,
0010
0010
1000
0000
0100
0100
0010
0000
,
0001
0001
1000
0000
0010
0010
0100
0001
,
1000
1000
0001
0000
0010
0010
0100
0000
,
1000
0000
0001
0100
0001
0000
1000
0100
1000
0000
0001
0100
0001
0000
1000
0100
,
1000
0100
0100
0000
0010
0001
0001
0000
,
1000
0010
0010
0000
0100
0001
0001
1000
,
0001
0100
0100
0000
0010
1000
1000
0000
,
0100
0010
0010
0100
1000
0001
0001
0100
,
0001
0010
0010
0000
0001
0100
0100
0000
,
0010
1000
1000
0000
0100
0010
0010
0100
,
1000
0001
0001
0000
0100
0010
0010
0000
,
1000
0100
0100
1000
0001
0100
0100
0001
,
1000
0010
0000
1010
0000
1001
0000
0011
,
0000
0100
0000
0010
0100
0000
0110
0000
,
0001
0000
0001
0100
0000
0001
1000
0001
,
0000
1000
0100
0001
0100
0000
0010
0001
,
0000
1000
0010
0000
0110
0000
0101
0000
,
0001
0010
1000
0010
0000
0001
1000
0000
,
0010
1000
0010
0100
0001
0000
1001
0000
,
1000
0100
0001
0100
0010
0000
0011
0000
,
1100
1000
0101
0001
,
0100
0000
0001
0000
0100
0000
1000
0000
0100
0000
0000
0000
0010
0100
0010
0100
,
0010
0000
1000
0001
0010
0001
0100
0010
,
0000
1000
0001
1000
0100
0000
1100
0000
,
0010
0100
0001
1000
0001
0000
0010
0001
,
0000
0100
0010
1000
0010
0001
0000
0010
,
0100
1010
1001
0010
,
0001
0010
0100
0010
0001
1000
0100
0000
,
1000
0010
0001
0010
0100
0001
0100
0000
,
0010
1000
0100
0010
0001
1000
0001
0000
,
1000
1000
0100
0010
0001
0001
0010
0100
,
1000
1000
0100
0010
0000
0001
1000
1000
,
0001
0001
0100
0010
1000
1000
0010
0100
,
0001
0001
0100
0010
0000
1000
0001
0001
,
1000
0000
0000
0000
1100
0000
0000
0010
0100
0000
0100
0000
1000
0000
0001
0000
,
0000
0100
0001
0000
1000
1000
0010
0100
,
0000
0000
0001
1000
0001
0000
0010
0000
0010
0000
0001
0000
0000
0000
1000
0000
,
0000
0001
0100
0010
1010
0000
1001
0000
,
0011
0000
0000
0000
0100
0000
0000
0010
0001
0000
0001
0000
0000
0000
1000
0000
,
0000
0000
0001
0000
0100
0000
0010
1000
0010
0000
0100
0000
0001
0000
1000
0000
,
0000
0100
1000
0001
1000
0010
0000
0100
,
0000
0001
1000
0001
0011
0000
1100
0000
,
0110
0000
0000
1000
0100
0000
0000
1000
0001
0000
0100
0000
0000
0000
0010
0000
,
0000
0000
0100
0001
0010
0000
0100
0000
1000
0000
0010
0000
0000
0000
1000
0000
,
0010
0000
1000
0100
0010
0000
0001
0000
1000
0000
0010
0000
0000
0000
0100
0000
,
0001
0000
0010
0001
0100
0000
0010
0000
1000
0000
0100
0000
0001
0000
0100
0000
,
0010
0000
0000
0100
1000
0000
0000
0001
0100
0000
0010
0000
1000
0000
0100
0000
,
0000
0000
0010
0000
0001
0000
1000
0010
0100
0000
0001
0000
1000
0000
0001
0000
,
0001
0010
0100
1000
1000
0100
0010
0001
,
0001
0010
0100
1000
0000
1000
0100
0010
,
0001
0200
0000
1000
0000
0001
0000
0310
,
0100
0020
0000
1000
0000
0001
0000
0130
,
0010
2000
0000
0100
0000
0001
0000
3010
,
0000
0100
0000
0001
1000
0000
0000
0000
,
1001
0000
0000
0000
;

//---------------dance-single - ----------------
#NOTES:
     dance-single:
     :
     Medium:
     7:
     0.551,0.625,0.056,0.134,0.000:
0000
0000
0000
0000
,
0000
0000
0000
0000
,
0000
0000
0000
0000
,
0000
0000
0000
0000
,
0000
0000
0000
0000
,
0000
0000
0000
0000
,
0000
0000
0000
0000
,
0000
0000
0000
0000
0000
0000
0001
0010
,
0100
0010
0001
0000
1000
0000
0010
1000
,
0010
0000
0100
0001
0100
0000
0010
1000
,
0000
0000
0001
0000
0010
0100
0010
0000
,
0100
1000
0100
0010
0100
0000
0010
0000
,
0001
0100
0001
0000
1000
0010
1000
0000
,
0100
0000
0010
0100
0010
0000
0100
0000
,
1000
0100
1000
0000
0001
0010
0001
0000
,
1000
0100
0010
0001
1000
0000
0000
0000
,
0001
0100
0010
0000
0100
0000
0010
0100
,
0001
0000
0010
0100
1000
0000
0100
1000
,
0100
0000
0010
0000
0001
1000
0001
0000
,
0100
0001
0100
0010
0100
0000
0010
1000
,
0000
0100
0010
0100
,
1000
0100
0010
0100
1000
0000
0001
0000
,
0100
0001
0100
0000
0010
1000
0010
0000
,
1000
0001
1000
0001
0100
0000
0010
0000
,
1000
0100
0000
0100
0000
0010
0000
0010
,
0000
0001
0000
0001
1000
0000
1000
0100
,
0010
0000
0010
0100
1000
0000
0001
0000
,
1000
0001
0100
0001
1000
0000
0010
0100
,
0010
0000
0100
0001
0100
0000
0010
0000
,
1000
0010
0001
0010
1000
0000
0001
1000
,
0001
0000
1000
0000
1000
0010
1000
0000
,
0001
0010
0100
0010
0001
0000
1000
0000
,
0001
0101
1000
1100
,
0001
0010
0100
1000
0001
0000
1000
0001
,
0000
0000
1000
0100
0001
0100
1000
0000
,
0001
0100
0001
0000
1000
0000
0010
1000
,
0100
0000
0010
0001
0100
0000
0010
0000
,
1000
0000
0001
1000
0001
1000
0000
0000
,
0001
0000
0100
0010
0100
0000
0001
0000
,
0010
0100
0010
0000
0100
0000
1000
0001
,
1000
0000
1000
0000
0001
0100
0001
0000
,
0001
0010
0100
0010
0001
0000
1000
0001
,
1000
0100
2000
0000
3100
0010
0200
0000
,
0310
0001
0010
0002
0000
1003
0010
1000
,
0001
0100
0002
0000
0103
0010
0200
0000
,
0310
1000
0010
2000
0000
3010
0100
0010
,
1000
0000
1100
0000
1000
0100
0000
0100
,
0000
0100
0010
0001
1000
0001
0000
0001
,
0000
0001
0100
0000
0100
0010
0000
0010
,
0000
0010
1000
0010
1000
0100
0010
0000
,
0001
0000
0011
0000
0001
0010
0000
0010
,
0000
0010
0100
1000
0001
1000
0000
1000
,
0000
1000
0010
0000
0010
0100
0000
0100
,
0000
0100
0001
0100
0001
0010
0100
0000
,
1000
0000
0001
0100
0000
0001
0100
0001
,
0000
1000
0010
1000
0000
0001
0010
0001
,
0000
1000
0100
0001
0000
0100
0010
0001
,
0000
1000
0010
1000
0000
0001
0100
1000
,
0000
0100
0001
0100
0000
0010
1000
0010
,
0000
1000
0001
1000
0000
0001
0010
0001
,
1000
0100
2000
0000
3010
0100
0020
0000
,
0130
0001
0100
0002
0000
0013
0100
0010
,
0002
1000
0000
0100
0000
0013
0000
1000
,
0001
2000
0000
0010
0000
0001
0000
3010
,
0100
0020
0000
0001
0000
0100
0000
1000
,
0000
0001
0000
0130
0100
0000
0000
0000
,
1001
0000
0000
0000
;

//---------------dance-single - ----------------
#NOTES:
     dance-single:
     :
     Easy:
     5:
     0.361,0.404,0.056,0.178,0.000:
0000
0000
0000
0000
,
0000
0000
0000
0000
,
0000
0000
0000
0000
,
0000
0000
0000
0000
,
0000
0000
0000
0000
,
0000
0000
0000
0000
,
0000
0000
0000
0000
,
0000
0000
0000
0000
,
1000
0100
0010
0100
,
1000
0001
0100
0000
,
0010
0100
0001
1000
,
0100
0010
0001
0000
,
1000
0001
0100
0001
,
1000
0100
0010
0001
,
1000
1000
0001
0001
,
0100
0010
0110
0000
,
0001
0010
0100
0010
,
0001
1000
0010
0000
,
0100
0001
1000
0100
,
0001
0100
1000
0000
,
0010
0100
0001
1000
,
0100
0010
0100
1000
,
0010
0010
0100
0100
,
0001
1000
1001
0010
,
1001
0000
0000
0000
,
0000
0000
0000
0000
0000
0000
1000
0100
,
1000
0000
0010
0000
,
0100
0001
0100
0000
0010
0000
0000
0000
,
1000
0001
0010
0100
,
0010
0001
1000
0000
,
0001
0000
0100
0000
,
0010
1000
0010
0000
0100
0000
0000
0000
,
0001
1000
0001
0000
0001
0010
0001
0000
,
0001
1000
0001
0000
0100
0000
0000
0000
,
0010
1000
0100
0010
,
0100
1000
0010
0000
,
0100
0001
0100
0000
0010
0000
0000
0000
,
1000
0001
1000
0000
0100
0000
0000
0000
,
0010
0001
0010
0100
,
1000
0001
0100
0010
,
1000
1000
0001
0001
,
0010
0100
0010
0000
0110
0000
0000
0000
,
0010
0000
0100
0000
,
1000
0001
1000
0000
,
0010
0000
0100
0000
,
0001
1000
0001
0000
,
2000
0100
0010
3100
,
0002
0010
0100
0013
,
2000
0010
0100
3010
,
0002
0010
0100
0013
,
2000
0100
0001
3100
,
0002
0010
1000
0013
,
2000
0010
0001
3010
,
0002
0100
1000
0103
,
0002
1000
0010
1000
,
0203
0001
1000
0001
,
0320
0100
1000
0100
,
2030
0100
0001
0100
,
3002
1000
0010
0100
,
2003
0100
0001
0010
,
3002
0003
2000
3000
,
0001
1000
0001
0000
,
1000
0100
0000
0100
0000
0000
0000
0000
,
0010
0001
0000
0001
0000
0000
0000
0000
,
1000
0010
0000
0010
0000
0000
0000
0100
,
0000
0100
0000
0000
0001
0000
0000
0000
,
1001
0000
0000
0000
;

//---------------dance-single - ----------------
#NOTES:
     dance-single:
     :
     Beginner:
     2:
     0.100,0.221,0.078,0.000,0.000:
0000
0000
0000
0000
,
0000
0000
0000
0000
,
0000
0000
0000
0000
,
0000
0000
0000
0000
,
0000
0000
0000
0000
,
0000
0000
0000
0000
,
0000
0000
0000
0000
,
0000
0000
0000
0000
,
1000
0000
0000
0000
,
0001
0000
0000
0000
,
0100
0000
0000
0000
,
0010
0000
0000
0000
,
1000
0000
0000
0000
,
0001
0000
0000
0000
,
0010
0000
0000
0000
,
0100
0000
0000
0000
,
0010
0000
0000
0000
,
0001
0000
0000
0000
,
1000
0000
0000
0000
,
0010
0000
0000
0000
,
0100
0000
0000
0000
,
0001
0000
0000
0000
,
1000
0000
0000
0000
,
0001
0000
0000
0000
,
1001
0000
0000
0000
,
0000
0000
0000
0000
,
0100
0000
0000
0000
,
0010
0000
0000
0000
,
1000
0000
0000
0000
,
0001
0000
0000
0000
,
0010
0000
0000
0000
,
0100
0000
0000
0000
,
0010
0000
0000
0000
,
0001
0000
0000
0000
,
1000
0000
0000
0000
,
0010
0000
0000
0000
,
0100
0000
0000
0000
,
0001
0000
0000
0000
,
0010
0000
0000
0000
,
0001
0000
0000
0000
,
1000
0000
0000
0000
,
0100
0000
0000
0000
,
0110
0000
0000
0000
,
0000
0000
0000
0000
,
1001
0000
0000
0000
,
0000
0000
0000
0000
,
0001
0001
0000
0000
,
0000
0000
0000
0000
,
1000
1000
0000
0000
,
0000
0000
0000
0000
,
0010
0010
0000
0000
,
0000
0000
0000
0000
,
0100
0100
0000
0000
,
0000
0000
0000
0000
,
0001
0000
0000
0000
,
0100
0000
0000
0000
,
0010
0000
0000
0000
,
1000
0000
0000
0000
,
0100
0000
0000
0000
,
0010
0000
0000
0000
,
0001
0000
0001
0000
,
0001
0000
0000
0000
,
1001
0000
0000
0000
,
0110
0000
0000
0000
,
1001
0000
0000
0000
,
0000
0000
0000
0000
,
0110
0000
0000
0000
;

//---------------dance-single - LIFTS----------------
#NOTES:
     dance-single:
     LIFTS:
     Edit:
     7:
     0.586,0.735,0.356,0.000,0.006: // measure 1
0000
0000
0000
0000
,  // measure 2
0000
0000
0000
0000
,  // measure 3
0000
0000
0000
0000
,  // measure 4
0000
0000
0000
0000
,  // measure 5
0000
0000
0000
0000
,  // measure 6
0000
0000
0000
0000
,  // measure 7
0000
0000
0000
0000
,  // measure 8
0000
0000
0000
0000
0000
0000
1000
0100
,  // measure 9
0010
0000
0110
0000
1000
0100
L000
0000
,  // measure 10
0010
0001
0100
0001
0010
0000
0001
0100
,  // measure 11
0000
0001
0100
0000
0010
1000
00L0
0000
,  // measure 12
0100
0010
0001
0010
0100
0000
1000
0001
,  // measure 13
0100
0000
0101
0000
0001
1000
000L
0000
,  // measure 14
0100
0010
0100
1000
0001
0000
0100
0000
,  // measure 15
0010
1010
0100
0101
,  // measure 16
0000
L000
0L00
00L0
100L
0000
0001
1000
,  // measure 17
0001
0000
0010
0000
0100
1000
0L00
0000
,  // measure 18
0010
1000
0001
1000
0100
0000
0010
0001
,  // measure 19
0100
0010
1000
0000
0100
0000
1000
0001
,  // measure 20
L000
0100
0010
0100
0010
0000
1000
0100
,  // measure 21
0010
0000
0001
0010
0100
1000
0001
0000
,  // measure 22
0100
0010
0L00
0000
1000
0000
1100
0000
,  // measure 23
0010
0000
0011
0000
0001
0010
0100
0000
,  // measure 24
1000
0001
1000
000L
0100
0000
0010
0000
,  // measure 25
0001
0100
0000
0L00
0000
001L
0000
01L0
,  // measure 26
0000
1L00
0000
L001
0100
0000
0010
1000
,  // measure 27
0010
0100
0010
0000
1000
0100
L000
0000
,  // measure 28
0010
0001
0100
0000
0001
1000
000L
0000
,  // measure 29
0010
1000
0100
0000
0010
0001
00L0
0000
,  // measure 30
0100
0010
1000
0000
0100
0010
0L00
0000
,  // measure 31
0001
1000
0010
0000
1000
0001
L000
0000
,  // measure 32
0010
0100
1000
0000
0010
1000
00L0
0000
,  // measure 33
0001
010L
0L10
10L0
,  // measure 34
L000
0L00
00L0
000L
01L0
0000
1000
0001
,  // measure 35
1000
0000
0001
0100
0010
0100
0001
0000
,  // measure 36
0001
000L
0L00
00L0
0L01
0000
1000
0100
,  // measure 37
1000
0010
0100
0010
1000
0000
1000
L000
,  // measure 38
00L0
0L00
10L0
0000
0001
1000
0001
0000
,  // measure 39
1001
0010
0110
1000
,  // measure 40
0001
0000
1000
0100
L000
0000
0010
0000
,  // measure 41
0001
0010
000L
0000
0100
1000
0L00
0000
,  // measure 42
0010
1000
00L0
0000
0001
0100
000L
0000
,  // measure 43
0010
1000
0100
0000
0010
0001
0100
0000
,  // measure 44
0010
1000
0100
0010
0010
0001
0100
0000
,  // measure 45
0000
00L0
L100
0000
0000
00L0
010L
0000
,  // measure 46
0000
0000
00L0
0000
L100
0000
0010
00L0
0000
0000
00L0
0000
010L
0000
0000
0000
,  // measure 47
0010
0000
0010
1000
0000
0100
1000
0100
,  // measure 48
0000
0010
0001
0010
0000
0100
1000
0001
,  // measure 49
0000
0100
0001
0100
0000
0010
1000
0010
,  // measure 50
0000
1000
0001
0010
0100
0000
00L0
0000
,  // measure 51
1L00
0000
0001
0100
0000
0001
0010
0001
,  // measure 52
0000
1000
0100
1000
0000
0010
0100
0001
,  // measure 53
0000
0010
0001
0010
0000
0100
1000
0100
,  // measure 54
0000
1000
0001
0100
0010
0000
0L00
0000
,  // measure 55
10L0
0000
0001
0010
0000
0100
0010
0001
,  // measure 56
0000
1000
0010
0100
0000
0010
1000
0001
,  // measure 57
0000
0100
0001
0010
0000
0100
1000
0001
,  // measure 58
0000
0100
0010
1000
0001
0000
L000
0000
,  // measure 59
010L
0010
1000
0000
0100
0010
0001
0010
,  // measure 60
0000
0100
1000
0001
0100
0001
1000
0000
,  // measure 61
0000
000L
00L0
0L00
L001
001L
01L0
1L00
,  // measure 62
L001
0010
0100
1000
0000
0001
0010
0100
,  // measure 63
1000
0100
0000
L000
0000
0010
0000
0100
,  // measure 64
1000
0100
0000
L000
0000
0010
0000
0100
,  // measure 65
1000
0100
0000
0010
0000
0001
0000
1000
,  // measure 66
0000
0010
0000
0100
0010
0000
0000
0000
,  // measure 67
0LL0
0000
0000
0000
;
