#TITLE:Rock You;
#SUBTITLE:;
#ARTIST:Azrael;
#TITLETRANSLIT:;
#SUBTITLETRANSLIT:;
#ARTISTTRANSLIT:;
#CREDIT:;
#BANNER:KoizuDDR-bn.png;
#BACKGROUND:KoizuDDR-bg.png;
#LYRICSPATH:;
#CDTITLE:;
#MUSIC:rockyou.ogg;
#OFFSET:0.000;
#SAMPLESTART:63.083;
#SAMPLELENGTH:12.000;
#SELECTABLE:YES;
#BPMS:0.000=175.000;
#STOPS:;
#BGCHANGES:;

//---------------dance-single - Koizumi----------------
#NOTES:
     dance-single:
     Koizumi:
     Hard:
     9:
     0.552,0.646,0.821,0.289,0.336: // measure 1
0000
0000
0000
0000
,  // measure 2
0000
0000
0000
0000
,  // measure 3
0000
0000
0000
0000
,  // measure 4
0000
0000
0000
0000
,  // measure 5
1100
1100
1010
1010
,  // measure 6
0110
0110
0101
0101
,  // measure 7
0011
0011
0101
0101
,  // measure 8
1001
1001
1010
1010
,  // measure 9
1100
1100
1010
1010
,  // measure 10
0110
0110
0101
0101
,  // measure 11
0011
0011
0101
0101
,  // measure 12
1001
0000
0000
1000
0001
1000
0001
0000
0000
1001
0000
0000
,  // measure 13
1000
0100
1010
1010
,  // measure 14
1000
0000
0000
0001
0000
0000
0001
0000
0010
0100
0000
1000
,  // measure 15
0001
0101
1000
1010
,  // measure 16
1001
1001
2002
3113
,  // measure 17
1000
0000
0100
0000
0000
0010
0001
0000
0000
1000
0000
0000
,  // measure 18
0011
0101
1001
0000
,  // measure 19
1000
0100
1000
0100
0000
0000
0010
0000
0000
0001
0000
0000
,  // measure 20
0101
0000
0110
0000
2002
0000
0000
3003
,  // measure 21
1000
0000
0000
0010
0000
0000
0100
0000
0010
0000
0000
0010
,  // measure 22
1000
0000
0100
0010
0000
0001
0000
0000
0001
1000
0000
0000
,  // measure 23
1100
0000
0000
1010
0000
0000
1000
0000
0001
0000
0000
0001
,  // measure 24
0010
0000
0000
0010
0000
0000
0100
0000
1000
0000
0000
0000
,  // measure 25
1100
1010
1100
1010
,  // measure 26
0110
0101
0110
0101
,  // measure 27
1000
0100
0010
0001
,  // measure 28
1000
1000
0001
0001
,  // measure 29
2002
0000
0000
0000
,  // measure 30
0000
0000
0000
3003
,  // measure 31
2000
0000
3200
0000
,  // measure 32
0302
0000
0000
0000
0000
0000
0000
0000
0000
0000
0000
0000
0000
0000
0000
0000
0000
0000
0000
0000
0000
0000
0000
0000
0000
0000
0000
0000
0000
0000
0000
0000
0000
0000
0000
0000
0000
0000
0000
0000
0000
0000
0000
0000
0000
0000
0000
0000
0000
0000
0000
0000
0000
0000
0000
0000
0000
0000
0000
0000
0000
0000
0000
0000
0000
0000
0000
0000
0000
0000
0000
0000
0000
0000
0000
0000
0000
0000
0000
0000
0000
0000
0000
0000
0000
0000
0000
0000
0000
0000
0000
0000
0000
0000
0000
0000
0020
0003
0000
0000
0000
0000
0000
0000
0000
0000
0000
0000
0000
0000
0000
0000
0000
0000
0000
0000
0000
0000
0000
0000
0000
0000
0000
0000
0000
0000
0000
0000
0000
0000
0000
0000
0000
0000
0000
0000
0000
0000
0000
0000
0000
0000
0000
0000
0000
0000
0000
0000
0000
0000
0000
0000
0000
0000
0000
0000
0000
0000
0000
0000
0000
0000
0000
0000
0000
0000
0000
0000
0000
0000
0000
0000
0000
0000
0000
0000
0000
0000
0000
0000
0000
0000
0000
0000
0000
0000
0000
0000
0000
0000
0000
0000
,  // measure 33
1030
1010
0000
0000
,  // measure 34
0001
0011
0000
0000
,  // measure 35
0002
0000
0203
0000
,  // measure 36
2300
0000
0000
0000
0000
0000
0000
0000
0000
0000
0000
0000
0000
0000
0000
0000
0000
0000
0000
0000
0000
0000
0000
0000
0000
0000
0000
0000
0000
0000
0000
0000
0000
0000
0000
0000
0000
0000
0000
0000
0000
0000
0000
0000
0000
0000
0000
0000
0000
0000
0000
0000
0000
0000
0000
0000
0000
0000
0000
0000
0000
0000
0000
0000
0000
0000
0000
0000
0000
0000
0000
0000
0000
0000
0000
0000
0000
0000
0000
0000
0000
0000
0000
0000
0000
0000
0000
0000
0000
0000
0000
0000
0000
0000
0000
0000
0020
3000
0000
0000
0000
0000
0000
0000
0000
0000
0000
0000
0000
0000
0000
0000
0000
0000
0000
0000
0000
0000
0000
0000
0000
0000
0000
0000
0000
0000
0000
0000
0000
0000
0000
0000
0000
0000
0000
0000
0000
0000
0000
0000
0000
0000
0000
0000
0000
0000
0000
0000
0000
0000
0000
0000
0000
0000
0000
0000
0000
0000
0000
0000
0000
0000
0000
0000
0000
0000
0000
0000
0000
0000
0000
0000
0000
0000
0000
0000
0000
0000
0000
0000
0000
0000
0000
0000
0000
0000
0000
0000
0000
0000
0000
0000
,  // measure 37
0031
0011
0000
0000
,  // measure 38
1000
1010
0000
0000
,  // measure 39
2000
0000
3200
0000
,  // measure 40
0320
0000
0032
0000
,  // measure 41
1003
1001
0000
0000
,  // measure 42
0110
0110
0000
0000
,  // measure 43
0002
0000
0203
0000
,  // measure 44
0320
0000
2030
0000
,  // measure 45
3001
0000
0010
0000
0100
0000
0001
0000
0100
0000
0010
0000
,  // measure 46
0002
0000
0000
0003
,  // measure 47
1000
0000
0100
0010
0000
0001
0000
0000
0001
1000
0000
0001
,  // measure 48
1000
0000
0100
1000
0000
0010
0100
0000
0001
0010
0000
0001
,  // measure 49
1000
0000
0000
1100
0000
0000
1000
0000
0000
1000
0100
0010
,  // measure 50
0001
0101
0001
0001
,  // measure 51
0001
0000
0100
0010
0000
1000
0000
0000
1000
0001
0000
1000
,  // measure 52
0001
0000
0100
0001
0000
0010
0100
0000
1000
0010
0000
1000
,  // measure 53
0001
0000
0000
0101
0000
0000
0001
0000
0000
1000
0010
0100
,  // measure 54
0001
0101
0001
0001
,  // measure 55
1000
0000
0100
0001
0000
0001
0100
0000
1000
0001
0000
0000
,  // measure 56
0001
0000
0100
1000
0000
1000
0100
0000
0001
1000
0000
0000
,  // measure 57
1000
0000
0000
1010
0000
0000
1000
0000
0000
1000
0100
0010
,  // measure 58
0001
0101
0001
0101
,  // measure 59
1000
0000
0010
0001
0000
0001
0010
0000
1000
0001
0000
0000
,  // measure 60
0001
0000
0010
1000
0000
1000
0010
0000
0001
1000
0000
0000
,  // measure 61
0001
0000
0100
0000
0100
0000
0010
0000
1000
0000
0100
0000
,  // measure 62
1001
0000
0000
1000
,  // measure 63
0220
0330
0000
0000
0000
0000
0000
0000
0000
0000
0000
0000
0000
0000
0000
0000
0000
0000
0000
0000
0000
0000
0000
0000
;

//---------------dance-single - KZMI----------------
#NOTES:
     dance-single:
     KZMI:
     Easy:
     3:
     0.246,0.359,0.359,0.012,0.012:
0000
0000
0000
0000
,
0000
0000
0000
0000
,
0000
0000
0000
0000
,
0000
0000
0000
0000
,
1000
0100
1000
0000
,
0001
0100
0001
0000
,
1000
0010
1000
0000
,
0001
0010
0001
0001
,
1000
0100
0010
0000
,
0001
0100
0010
0000
,
1000
0010
0100
0000
,
0001
0010
0100
0100
,
1000
0000
0000
0000
,
0010
0000
0000
0000
,
0100
0000
0000
0000
,
0100
0000
0000
0000
,
0001
0000
0000
0000
,
0010
0000
0000
0000
,
0100
0000
0000
0000
,
0100
0000
0000
0000
,
1100
0000
0000
0000
,
0101
0000
0000
0000
,
1010
0000
0000
0000
,
0011
0000
0000
0000
,
1000
0000
1000
0000
,
0001
0000
0001
0000
,
0100
0000
0100
0000
,
0200
0000
0000
0000
,
0300
0000
0000
0000
,
0000
0000
0000
0000
,
0110
0000
1001
0000
,
0110
0000
1001
0000
,
0110
0110
0000
0000
,
1000
1000
0000
0000
,
1001
0000
0110
0000
,
1001
0000
0110
0000
,
1001
1001
0000
0000
,
0010
0010
0000
0000
,
0110
0000
1001
0000
,
0110
0000
1001
0000
,
0110
0110
0000
0000
,
0001
0001
0000
0000
,
1001
0000
0110
0000
,
1001
0000
0110
0000
,
1001
0000
1100
0000
,
1001
0000
0000
0000
,
1000
0000
0100
0000
,
0010
0000
0001
0000
,
0100
0000
0010
0000
,
1000
0000
1000
0000
,
0001
0100
0001
0000
,
1000
0100
1000
0000
,
0001
0000
0001
0000
,
1000
0000
1000
0000
,
0100
0100
0100
0000
,
0010
0010
0010
0000
,
0001
0000
0001
0000
,
1000
0000
1000
0000
,
0010
0010
0100
0100
,
0001
0001
1000
1000
,
0100
0000
0000
0000
0100
0000
0000
0000
0100
0000
0000
0000
,
1001
0000
0000
0000
,
0110
0000
0000
0000
;

//---------------dance-single - KZMI----------------
#NOTES:
     dance-single:
     KZMI:
     Medium:
     5:
     0.344,0.430,0.347,0.243,0.006: // measure 1
0000
0000
0000
0000
,  // measure 2
0000
0000
0000
0000
,  // measure 3
0000
0000
0000
0000
,  // measure 4
0000
0000
0000
0000
,  // measure 5
1100
0000
1010
0000
,  // measure 6
0110
0000
0101
0000
,  // measure 7
0011
0000
0101
0000
,  // measure 8
1001
0000
1010
0000
,  // measure 9
1100
0000
1010
0000
,  // measure 10
0110
0000
0101
0000
,  // measure 11
0011
0000
0101
0000
,  // measure 12
1001
0000
0000
1000
0000
0001
1000
0000
0000
1001
0000
0000
,  // measure 13
1000
0100
1000
1000
,  // measure 14
0010
0100
0001
0001
,  // measure 15
0010
0100
0010
0100
,  // measure 16
1000
0001
1000
0000
,  // measure 17
1000
0100
0001
0000
,  // measure 18
1000
0100
0001
0000
,  // measure 19
1000
0100
0010
0001
,  // measure 20
0100
0000
0010
0000
2002
0000
0000
3003
,  // measure 21
1000
0010
0100
0100
,  // measure 22
0001
0010
0100
0100
,  // measure 23
1100
1000
1010
0000
,  // measure 24
0101
0001
1001
0000
,  // measure 25
0001
0100
1000
0000
,  // measure 26
0001
0100
1000
0000
,  // measure 27
1000
0100
0010
0001
,  // measure 28
1000
1000
0001
0001
,  // measure 29
2002
0000
0000
0000
,  // measure 30
0000
0000
0000
3003
,  // measure 31
2000
0000
3200
0000
,  // measure 32
0302
0000
0000
0000
0000
0000
0000
0000
0000
0000
0000
0000
0000
0000
0000
0000
0000
0000
0000
0000
0000
0000
0000
0000
0000
0000
0000
0000
0000
0000
0000
0000
0000
0000
0000
0000
0000
0000
0000
0000
0000
0000
0000
0000
0000
0000
0000
0000
0000
0000
0000
0000
0000
0000
0000
0000
0000
0000
0000
0000
0000
0000
0000
0000
0000
0000
0000
0000
0000
0000
0000
0000
0000
0000
0000
0000
0000
0000
0000
0000
0000
0000
0000
0000
0000
0000
0000
0000
0000
0000
0000
0000
0000
0000
0000
0000
0020
0003
0000
0000
0000
0000
0000
0000
0000
0000
0000
0000
0000
0000
0000
0000
0000
0000
0000
0000
0000
0000
0000
0000
0000
0000
0000
0000
0000
0000
0000
0000
0000
0000
0000
0000
0000
0000
0000
0000
0000
0000
0000
0000
0000
0000
0000
0000
0000
0000
0000
0000
0000
0000
0000
0000
0000
0000
0000
0000
0000
0000
0000
0000
0000
0000
0000
0000
0000
0000
0000
0000
0000
0000
0000
0000
0000
0000
0000
0000
0000
0000
0000
0000
0000
0000
0000
0000
0000
0000
0000
0000
0000
0000
0000
0000
,  // measure 33
1030
1010
0000
0000
,  // measure 34
0001
0011
0000
0000
,  // measure 35
0002
0000
0203
0000
,  // measure 36
2300
0000
0000
0000
0000
0000
0000
0000
0000
0000
0000
0000
0000
0000
0000
0000
0000
0000
0000
0000
0000
0000
0000
0000
0000
0000
0000
0000
0000
0000
0000
0000
0000
0000
0000
0000
0000
0000
0000
0000
0000
0000
0000
0000
0000
0000
0000
0000
0000
0000
0000
0000
0000
0000
0000
0000
0000
0000
0000
0000
0000
0000
0000
0000
0000
0000
0000
0000
0000
0000
0000
0000
0000
0000
0000
0000
0000
0000
0000
0000
0000
0000
0000
0000
0000
0000
0000
0000
0000
0000
0000
0000
0000
0000
0000
0000
0020
3000
0000
0000
0000
0000
0000
0000
0000
0000
0000
0000
0000
0000
0000
0000
0000
0000
0000
0000
0000
0000
0000
0000
0000
0000
0000
0000
0000
0000
0000
0000
0000
0000
0000
0000
0000
0000
0000
0000
0000
0000
0000
0000
0000
0000
0000
0000
0000
0000
0000
0000
0000
0000
0000
0000
0000
0000
0000
0000
0000
0000
0000
0000
0000
0000
0000
0000
0000
0000
0000
0000
0000
0000
0000
0000
0000
0000
0000
0000
0000
0000
0000
0000
0000
0000
0000
0000
0000
0000
0000
0000
0000
0000
0000
0000
,  // measure 37
0031
0011
0000
0000
,  // measure 38
1000
1010
0000
0000
,  // measure 39
2000
0000
3200
0000
,  // measure 40
0320
0000
0032
0000
,  // measure 41
1003
1001
0000
0000
,  // measure 42
0110
0110
0000
0000
,  // measure 43
0002
0000
0203
0000
,  // measure 44
0320
0000
2030
0000
,  // measure 45
3001
0000
0001
0000
,  // measure 46
0002
0000
0003
0000
,  // measure 47
1000
0100
0010
0001
,  // measure 48
1000
0100
0010
0001
,  // measure 49
1000
1000
0000
0000
,  // measure 50
0001
0001
0000
0000
,  // measure 51
0001
0100
0010
1000
,  // measure 52
0001
0100
0010
1000
,  // measure 53
0001
0001
0000
0000
,  // measure 54
1000
1000
0000
0000
,  // measure 55
0001
1000
0010
0100
,  // measure 56
0001
1000
0010
0100
,  // measure 57
0001
0001
0000
0000
,  // measure 58
1000
1000
0000
0000
,  // measure 59
0001
1000
0100
0010
,  // measure 60
0001
1000
0100
0010
,  // measure 61
0001
0001
1000
1000
,  // measure 62
0010
0000
0000
0000
,  // measure 63
1001
0000
0000
0000
;
