#TITLE:[12th Notes] Hydrocity Zone;
#SUBTITLE:(From Sonic 3);
#ARTIST:SEGA/Sonic Team;
#TITLETRANSLIT:;
#SUBTITLETRANSLIT:;
#ARTISTTRANSLIT:;
#CREDIT:;
#BANNER:Hydrocity Zone_bn (Act 1).png;
#BACKGROUND:Hydrocity Zone_bg (Act 1).png;
#LYRICSPATH:;
#CDTITLE:;
#MUSIC:Hydrocity Zone Act 1.mp3;
#OFFSET:-0.220;
#SAMPLESTART:56.339;
#SAMPLELENGTH:12.400;
#SELECTABLE:YES;
#BPMS:0.000=101.250;
#STOPS:;
#BGCHANGES:;

//---------------dance-single - ----------------
#NOTES:
     dance-single:
     :
     Easy:
     4:
     0.304,0.268,0.043,0.223,0.060: // measure 1
1000
0000
0001
0000
0100
0000
0010
0100
,  // measure 2
0010
0000
1000
0000
0001
0000
1000
0001
,  // measure 3
1000
0000
0010
0000
0100
0000
0001
1000
,  // measure 4
0001
0000
1000
0001
2000
0000
3002
0000
,  // measure 5
0103
0000
0010
0000
1000
0000
0010
0100
,  // measure 6
0010
0000
0100
0000
0001
0000
0010
0100
,  // measure 7
0010
0000
0100
0000
1000
0000
0010
0100
,  // measure 8
0010
1000
0002
2003
,  // measure 9
3001
0100
1000
0100
,  // measure 10
0001
0000
0000
0010
0000
0000
0002
0000
0000
0000
0000
1003
0000
0000
0000
0000
0000
0000
0001
0000
0000
0000
0000
0000
,  // measure 11
1000
0100
0001
0100
,  // measure 12
1000
0000
0000
0010
0000
0000
2000
0000
0000
0000
0000
3001
0000
0000
0000
0000
0000
0000
0100
0000
0000
0000
0000
0000
,  // measure 13
0010
1000
0010
0001
,  // measure 14
0010
0000
0000
1000
0000
0000
0200
0000
0000
0000
0000
0310
0000
0000
0000
0000
0000
0000
0001
0000
0000
0000
0000
0000
,  // measure 15
0100
1000
0100
0001
,  // measure 16
0010
0000
0000
0001
0000
0000
0100
0000
0000
0100
0000
0200
0000
0000
0000
0000
0000
0000
0300
0000
0000
0000
0000
0000
,  // measure 17
0010
1000
0001
0100
,  // measure 18
0001
0010
0100
1100
,  // measure 19
0010
0001
1000
0010
,  // measure 20
0200
0302
2003
3200
,  // measure 21
0310
0001
1000
0010
,  // measure 22
0100
0010
1000
1010
,  // measure 23
0010
1000
0001
0020
,  // measure 24
0000
0000
0130
0000
0000
0100
0000
0000
0100
0010
0000
0000
0010
0000
0000
0000
0000
0000
0000
0000
0000
0000
0000
0000
,  // measure 25
0001
0000
1000
0000
0010
0000
0100
0010
,  // measure 26
0100
0000
0001
0000
1000
0000
0001
1000
,  // measure 27
0001
0000
0100
0000
0010
0000
1000
0001
,  // measure 28
1000
0000
0001
1000
0002
0000
2003
0000
,  // measure 29
3010
0000
0100
0000
0001
0000
0100
0010
,  // measure 30
0100
0000
0010
0000
1000
0000
0100
0010
,  // measure 31
0100
0000
0010
0000
0001
0000
0100
0010
,  // measure 32
0100
0001
2000
3002
,  // measure 33
1003
0010
0001
0010
,  // measure 34
1000
0000
0000
0100
0000
0000
2000
0000
0000
0000
0000
3001
0000
0000
0000
0000
0000
0000
1000
0000
0000
0000
0000
0000
,  // measure 35
0001
0010
1000
0010
,  // measure 36
0001
0000
0000
0100
0000
0000
0002
0000
0000
0000
0000
1003
0000
0000
0000
0000
0000
0000
0010
0000
0000
0000
0000
0000
,  // measure 37
0100
0001
0100
1000
,  // measure 38
0100
0000
0000
0001
0000
0000
0020
0000
0000
0000
0000
0130
0000
0000
0000
0000
0000
0000
1000
0000
0000
0000
0000
0000
,  // measure 39
0010
0001
0010
1000
,  // measure 40
0100
0000
0000
1000
0000
0000
0010
0000
0000
0010
0000
0020
0000
0000
0000
0000
0000
0000
0030
0000
0000
0000
0000
0000
,  // measure 41
0100
0001
1000
0010
,  // measure 42
1000
0100
0010
0011
,  // measure 43
0100
1000
0001
0100
,  // measure 44
0020
2030
3002
0023
,  // measure 45
0130
1000
0001
0100
,  // measure 46
0010
0100
0001
1001
,  // measure 47
1000
0010
1000
0002
,  // measure 48
0000
0000
0103
0000
0000
0100
0000
0000
0100
0010
0000
0000
0010
0000
0000
0000
0000
0000
0000
0000
0000
0000
0000
0000
,  // measure 49
1001
0000
0000
0000
;

//---------------dance-single - Copied from----------------
#NOTES:
     dance-single:
     Copied from:
     Hard:
     10:
     0.787,0.639,0.275,0.309,1.000:
1000
0000
0001
0000
0000
0100
0000
0000
0001
0100
0000
0100
0010
0000
0010
1000
0000
1000
0100
0000
0000
0100
0000
0010
,
0000
0000
0001
1000
0000
0000
0100
0000
1000
0100
0000
0010
0000
0000
0001
0010
0000
0001
0001
0000
1000
0000
0100
1000
,
0100
0000
1000
0000
0000
0001
0100
0000
0100
0010
0000
0010
1000
0000
1000
0001
0000
0001
0100
0000
0000
0010
0000
0010
,
0000
0000
1000
0100
0000
0000
0100
0000
0010
0001
0000
0010
0002
0000
0000
0010
0000
0000
2003
0000
0000
0010
0000
0000
,
3001
0000
1000
0000
0000
0010
0000
0000
1000
0010
0000
0010
0100
0000
0100
0001
0000
0001
0010
0000
0000
0010
0000
0100
,
0000
0000
1000
0001
0000
0000
0010
0000
0001
0010
0000
0100
0000
0000
1000
0100
0000
1000
0001
0000
0010
0000
0010
0001
,
0010
0000
0001
0000
0000
1000
0010
0000
0010
0100
0000
0100
0001
0000
0001
1000
0000
1000
0010
0000
0000
0100
0000
0100
,
0000
0000
0001
0010
0000
0000
0010
0000
0100
1000
0000
0100
2000
0000
0000
0100
0000
0000
3002
0000
0000
0100
0000
0000
,
1003
0000
0000
0100
0000
1000
0000
0000
0010
0100
0000
0001
0020
0000
0000
1000
0000
0030
0020
0000
0000
0001
0000
0000
,
0130
0000
0000
0100
0000
1000
0100
0000
0000
0001
0000
0010
0000
0000
0010
0001
0010
0100
1000
0000
0010
0100
0000
0000
,
0001
0000
0000
0010
0000
0001
0000
0000
0100
0010
0000
1000
0200
0000
0000
0001
0000
0300
0200
0000
0000
1000
0000
0000
,
0310
0000
0000
0010
0000
1000
0010
0000
0000
1000
0000
0001
0000
0000
0010
0100
0010
0001
0100
0000
0110
0000
0000
0000
,
0010
0000
0000
1000
0000
0100
0000
0000
0010
0001
0000
0100
0020
0000
0000
0001
0000
0030
0020
0000
0000
1000
0000
0030
,
0100
0000
0000
0100
0000
1000
0100
0000
0000
1000
0000
0010
0000
0000
0100
0001
0010
0100
1000
0000
0001
0000
0000
0000
,
0100
0000
0000
0001
0000
0010
0000
0000
0100
1000
0000
0010
0200
0000
0000
1000
0000
0300
0200
0000
0000
0301
0010
0001
,
0011
0000
0000
0000
0000
0000
0000
0000
0000
0000
0000
0000
0000
0000
0000
0000
0000
0000
0000
0000
0000
0000
0000
0000
0011
0000
0000
0000
0000
0000
0000
0000
0000
0000
0000
0000
0000
0000
0000
0000
0000
0000
0000
0000
0000
0000
0000
0000
1010
0000
0000
0000
0000
0000
0000
0000
0000
0000
0000
0000
0000
0000
0000
0000
0000
0000
0000
0000
0000
0000
0000
0000
0011
0000
0000
0000
0000
0000
0000
0000
0000
0000
0000
0000
0000
0000
0000
0000
1000
0000
0000
0000
0000
0000
0000
0000
0000
0000
0000
0000
0000
0000
0000
0000
0000
0000
0000
0000
0000
0000
0000
0000
0000
0000
0000
0000
0000
0000
0000
0000
0000
0000
0000
0000
0000
0000
0000
0000
0000
0000
0000
0000
0001
0000
0000
0000
0000
0000
1000
0000
0000
0000
0000
0000
0001
0000
0000
0000
0000
0000
0000
0000
0000
0000
0000
0000
0000
0000
0000
0000
0000
0000
0000
0000
0000
0000
0000
0000
0000
0000
0000
0000
0000
0000
0000
0000
0000
0000
0000
0000
0100
0000
0000
0000
0000
0000
0010
0000
0000
0000
0000
0000
,
0100
0000
0100
0000
0000
0010
0000
0000
1000
0100
0000
1100
0000
0000
1000
0000
0000
0001
0020
0000
0000
0100
0000
0000
,
0032
0000
0000
1003
0000
0010
0100
0000
0000
0001
0000
0001
0000
0000
0000
1000
0100
0010
0001
0000
0000
0001
0010
0100
,
1000
0000
0100
0000
0000
0110
0000
0000
0010
0001
0000
0011
0000
0000
0001
0000
0000
0010
0200
0000
0000
1000
0000
0000
,
0310
0000
0010
0001
0000
0001
0100
0000
0100
0010
0000
0010
1000
0000
1000
0100
0000
0100
0010
0000
0010
0001
1000
0001
,
1000
0000
0001
0000
0000
0100
0000
0000
0100
0010
0000
1010
0000
0000
1000
0000
0000
0100
0020
0000
0000
0001
0000
0000
,
0230
0000
0300
0100
0000
1000
0010
0000
0100
0001
0000
0010
0000
0001
0010
0100
1000
0100
0010
0000
0001
0100
0000
0100
,
0000
0000
0010
1000
0000
1010
0000
0000
1000
0001
0000
0101
0000
0000
0001
0010
0000
0001
0200
0000
0000
1000
0000
0010
,
0300
0000
0110
0000
0000
0110
0000
0000
1001
1001
0000
0000
0110
0000
0000
0000
0000
0000
0100
0000
0010
1000
0000
0001
,
0001
0000
1000
0000
0000
0010
0000
0000
1000
0010
0000
0010
0100
0000
0100
0001
0000
0001
0010
0000
0000
0010
0000
0100
,
0000
0000
1000
0001
0000
0000
0010
0000
0001
0010
0000
0100
0000
0000
1000
0100
0000
1000
0001
0000
0010
0000
0010
0001
,
0010
0000
0001
0000
0000
1000
0010
0000
0010
0100
0000
0100
0001
0000
0001
1000
0000
1000
0010
0000
0000
0100
0000
0100
,
0000
0000
0001
0010
0000
0000
0010
0000
0100
1000
0000
0010
0200
0000
0000
0001
0000
0000
0320
0000
0000
1000
0000
0000
,
0031
0000
0100
0000
0000
0001
0000
0000
0001
0100
0000
0100
0010
0000
0010
1000
0000
1000
0100
0000
0000
0100
0000
0010
,
0000
0000
0001
1000
0000
0000
0100
0000
1000
0100
0000
0010
0000
0000
0001
0010
0000
0001
1000
0000
0100
0000
0100
1000
,
0100
0000
1000
0000
0000
0001
0100
0000
0100
0010
0000
0010
1000
0000
1000
0001
0000
0001
0100
0000
0000
0010
0000
0010
,
0000
0000
1000
0100
0000
0000
0100
0000
0010
0001
0000
0010
0200
0000
0000
0001
0000
0000
0320
0000
0000
1000
0000
0000
,
0031
0000
0000
1000
0000
0001
0000
0000
0100
0010
0000
1000
0200
0000
0000
0001
0000
0300
0200
0000
0000
1000
0000
0000
,
0310
0000
0000
0010
0000
0001
0010
0000
0000
1000
0000
0100
0000
0000
0100
1000
0100
0010
0001
0000
0100
0010
0000
0000
,
1000
0000
0000
0100
0000
1000
0000
0000
0010
0100
0000
0001
0020
0000
0000
1000
0000
0030
0020
0000
0000
0001
0000
0000
,
0130
0000
0000
0100
0000
0001
0100
0000
0000
0001
0000
1000
0000
0000
0100
0010
0100
1000
0010
0000
0110
0000
0000
0000
,
0100
0000
0000
0001
0000
0010
0000
0000
0100
1000
0000
0010
0200
0000
0000
1000
0000
0300
0200
0000
0000
0001
0000
0300
,
0010
0000
0000
0010
0000
0001
0010
0000
0000
0001
0000
0100
0000
0000
0010
1000
0100
0010
0001
0000
1000
0000
0000
0000
,
0010
0000
0000
1000
0000
0100
0000
0000
0010
0001
0000
0100
0020
0000
0000
0001
0000
0030
0020
0000
0000
1030
0100
1000
,
1100
0000
0000
0000
0000
0000
0000
0000
0000
0000
0000
0000
0000
0000
0000
0000
0000
0000
0000
0000
0000
0000
0000
0000
0110
0000
0000
0000
0000
0000
0000
0000
0000
0000
0000
0000
0000
0000
0000
0000
0000
0000
0000
0000
0000
0000
0000
0000
0110
0000
0000
0000
0000
0000
0000
0000
0000
0000
0000
0000
0000
0000
0000
0000
0000
0000
0000
0000
0000
0000
0000
0000
0101
0000
0000
0000
0000
0000
0000
0000
0000
0000
0000
0000
0000
0000
0000
0000
0100
0000
0000
0000
0000
0000
0000
0000
0000
0000
0000
0000
0000
0000
0000
0000
0000
0000
0000
0000
0000
0000
0000
0000
0000
0000
0000
0000
0000
0000
0000
0000
0000
0000
0000
0000
0000
0000
0000
0000
0000
0000
0000
0000
0010
0000
0000
0000
0000
0000
0001
0000
0000
0000
0000
0000
0010
0000
0000
0000
0000
0000
0000
0000
0000
0000
0000
0000
0000
0000
0000
0000
0000
0000
0000
0000
0000
0000
0000
0000
0000
0000
0000
0000
0000
0000
0000
0000
0000
0000
0000
0000
0100
0000
0000
0000
0000
0000
0010
0000
0000
0000
0000
0000
,
0100
0000
0010
0000
0000
0100
0000
0000
0001
0010
0000
0011
0000
0000
0001
0000
0000
1000
0200
0000
0000
0010
0000
0000
,
2300
0000
0000
3001
0000
0100
0010
0000
0000
1000
0000
1000
0000
0000
0000
0010
0100
0001
1000
0000
0000
0100
0010
0001
,
1000
0000
0010
0000
0000
0110
0000
0000
0100
0001
0000
0101
0000
0000
0001
0000
0000
1000
0200
0000
0000
0001
0000
0000
,
0310
0000
0100
1000
0000
1000
0010
0000
0010
0100
0000
0100
0001
0000
0001
0010
0000
0010
0100
0000
0100
1000
0001
1000
,
0010
0000
1000
0000
0000
0010
0000
0000
0010
0100
0000
0101
0000
0000
0001
0000
0000
0010
0200
0000
0000
1000
0000
0000
,
0320
0000
0030
0010
0000
0001
0100
0000
0010
1000
0000
0100
0000
1000
0100
0010
0001
0010
0100
0000
1000
0010
0000
0010
,
0000
0000
0100
0001
0000
0101
0000
0000
0001
1000
0000
1010
0000
0000
1000
0100
0000
1000
0020
0000
0000
0001
0000
0100
,
0030
0000
0101
0000
0000
0101
0000
0000
1010
1010
0000
0000
1010
0000
0000
0000
0000
0000
0010
0000
1000
0100
0000
0100
,
0001
0000
0000
0000
;

//---------------dance-single - Copied from----------------
#NOTES:
     dance-single:
     Copied from:
     Medium:
     8:
     0.614,0.495,0.026,0.756,0.567:
1000
0000
0001
0000
0000
0000
0000
0000
0100
0010
0000
0000
0010
0000
0010
1000
0000
0000
1000
0000
1000
0001
0000
0200
,
0000
0000
0000
0301
0000
0000
0200
0000
0000
1300
0000
0000
0020
0000
0000
0031
0000
0000
0020
0000
0000
1030
0000
0010
,
1000
0000
0010
0000
0000
0000
0100
0000
0001
0010
0000
0000
0001
0000
1000
0100
0000
0000
1000
0000
0001
0010
0000
0002
,
0000
1003
0200
0310
0020
0031
0020
1030
,
0001
0000
1000
0000
0000
0000
0000
0000
0010
0100
0000
0000
0100
0000
0100
0001
0000
0000
0001
0000
0001
1000
0000
0020
,
0000
0000
0000
1030
0000
0000
0020
0000
0000
0031
0000
0000
0200
0000
0000
1300
0000
0000
0200
0000
0000
0301
0000
0100
,
0001
0000
0100
0000
0000
0000
0010
0000
1000
0100
0000
0000
1000
0000
0001
0010
0000
0000
0001
0000
1000
0100
0000
2000
,
0000
3001
0020
0130
0200
1300
0200
0301
,
0100
0000
0000
0010
0000
0001
0000
0000
0001
1000
0000
0000
0020
0000
0000
0031
0000
0000
0020
0000
0000
1030
0000
0000
,
0010
0000
0000
0010
0000
0010
0100
0000
0000
0100
0000
0002
0000
0000
0000
0000
0000
0000
2003
0000
0000
0000
0000
0000
,
3100
0000
0000
1000
0000
0001
0000
0000
0010
0100
0000
0000
0020
0000
0000
0031
0000
0000
0020
0000
0000
1030
0000
0000
,
0010
0000
0000
0010
0000
0010
0100
0000
0000
0100
0000
2000
0000
0000
0000
0000
0000
0000
3002
0000
0000
0000
0000
0000
,
0013
0000
0000
0100
0000
1000
0000
0000
1000
0001
0000
0000
0200
0000
0000
1300
0000
0000
0200
0000
0000
0301
0000
0000
,
0100
0000
0000
0100
0000
0100
0010
0000
0000
0010
0000
2000
0000
0000
0000
0000
0000
0000
3002
0000
0000
0000
0000
0000
,
0013
0000
0000
0001
0000
1000
0000
0000
0100
0010
0000
0000
0200
0000
0000
1300
0000
0000
0200
0000
0000
0301
0000
0000
,
0100
0000
0000
0100
0000
0000
0010
0000
0000
0010
0000
0020
0000
0000
0000
0000
0000
0000
0030
0000
0000
0000
0000
0000
,
0001
0000
0100
0000
0000
0001
0000
0000
1000
0100
0000
1000
0000
0000
0001
0000
0000
0010
0001
0000
0000
1000
0000
0000
,
0020
0000
0000
0100
0000
0000
0230
0000
0000
0301
0000
2000
0000
0000
0000
0000
0000
0000
3002
0000
0000
0000
0000
0000
,
1003
0000
0100
0000
0000
1000
0000
0000
0001
0010
0000
0001
0000
0000
1000
0000
0000
0000
0100
0000
0000
1000
0000
0000
,
0020
0000
0000
0001
0000
0030
0020
0000
0000
1000
0000
0030
0200
0000
0000
0001
0000
0300
0200
0000
0000
1300
0000
0000
,
0010
0000
0100
0000
0000
0010
0000
0000
1000
0001
0000
1000
0000
0000
0010
0000
0000
0100
0010
0000
0000
1000
0000
0000
,
0200
0000
0000
0001
0300
0000
0200
0000
0000
1300
0000
0002
0000
0000
0000
0000
0000
0000
2003
0000
0000
0000
0000
0000
,
3000
0000
0001
0100
0000
0001
0000
0000
1000
0100
0000
1000
0000
0000
0001
0100
0000
0001
0100
0000
0000
0001
0000
0200
,
0000
0000
0310
0000
0000
0010
0000
0000
0010
0100
0000
0000
0110
0000
0000
0000
0000
0000
0000
0000
0000
0000
0000
0000
,
0001
0000
1000
0000
0000
0000
0000
0000
0010
0100
0000
0000
0100
0000
0100
0001
0000
0000
0001
0000
0001
1000
0000
0020
,
0000
0000
0000
1030
0000
0000
0020
0000
0000
0031
0000
0000
0200
0000
0000
1300
0000
0000
0200
0000
0000
0301
0000
0100
,
0001
0000
0100
0000
0000
0000
0010
0000
1000
0100
0000
0000
1000
0000
0001
0010
0000
0000
0001
0000
1000
0100
0000
2000
,
0000
3001
0020
0130
0200
1300
0200
0301
,
1000
0000
0001
0000
0000
0000
0000
0000
0100
0010
0000
0000
0010
0000
0010
1000
0000
0000
1000
0000
1000
0001
0000
0200
,
0000
0000
0000
0301
0000
0000
0200
0000
0000
1300
0000
0000
0020
0000
0000
0031
0000
0000
0020
0000
0000
1030
0000
0010
,
1000
0000
0010
0000
0000
0000
0100
0000
0001
0010
0000
0000
0001
0000
1000
0100
0000
0000
1000
0000
0001
0010
0000
0002
,
0000
1003
0200
0310
0020
0031
0020
1030
,
0010
0000
0000
0100
0000
1000
0000
0000
1000
0001
0000
0000
0200
0000
0000
1300
0000
0000
0200
0000
0000
0301
0000
0000
,
0100
0000
0000
0100
0000
0100
0010
0000
0000
0010
0000
2000
0000
0000
0000
0000
0000
0000
3002
0000
0000
0000
0000
0000
,
0013
0000
0000
0001
0000
1000
0000
0000
0100
0010
0000
0000
0200
0000
0000
1300
0000
0000
0200
0000
0000
0301
0000
0000
,
0100
0000
0000
0100
0000
0100
0010
0000
0000
0010
0000
0002
0000
0000
0000
0000
0000
0000
2003
0000
0000
0000
0000
0000
,
3100
0000
0000
0010
0000
0001
0000
0000
0001
1000
0000
0000
0020
0000
0000
0031
0000
0000
0020
0000
0000
1030
0000
0000
,
0010
0000
0000
0010
0000
0010
0100
0000
0000
0100
0000
0002
0000
0000
0000
0000
0000
0000
2003
0000
0000
0000
0000
0000
,
3100
0000
0000
1000
0000
0001
0000
0000
0010
0100
0000
0000
0020
0000
0000
0031
0000
0000
0020
0000
0000
1030
0000
0000
,
0010
0000
0000
0010
0000
0000
0100
0000
0000
0100
0000
0200
0000
0000
0000
0000
0000
0000
0300
0000
0000
0000
0000
0000
,
1000
0000
0010
0000
0000
1000
0000
0000
0001
0010
0000
0001
0000
0000
1000
0000
0000
0100
1000
0000
0000
0001
0000
0000
,
0200
0000
0000
0010
0000
0000
0320
0000
0000
1030
0000
0002
0000
0000
0000
0000
0000
0000
2003
0000
0000
0000
0000
0000
,
3001
0000
0010
0000
0000
0001
0000
0000
1000
0100
0000
1000
0000
0000
0001
0000
0000
0000
0010
0000
0000
0001
0000
0000
,
0200
0000
0000
1000
0000
0300
0200
0000
0000
0001
0000
0300
0020
0000
0000
1000
0000
0030
0020
0000
0000
0031
0000
0000
,
0100
0000
0010
0000
0000
0100
0000
0000
0001
1000
0000
0001
0000
0000
0100
0000
0000
0010
0100
0000
0000
0001
0000
0000
,
0020
0000
0000
1000
0030
0000
0020
0000
0000
0031
0000
2000
0000
0000
0000
0000
0000
0000
3002
0000
0000
0000
0000
0000
,
0003
0000
1000
0010
0000
1000
0000
0000
0001
0010
0000
0001
0000
0000
1000
0010
0000
1000
0010
0000
0000
1000
0000
0020
,
0000
0000
1030
0000
0000
1000
0000
0000
0001
1000
0000
0000
1001
0000
0000
0000
0000
0000
0000
0000
0000
0000
0000
0000
,
1001
0000
0000
0000
;
