#TITLE:Flip Flap;
#SUBTITLE:;
#ARTIST:kors k;
#TITLETRANSLIT:;
#SUBTITLETRANSLIT:;
#ARTISTTRANSLIT:;
#CREDIT:;
#BANNER:bn.png;
#BACKGROUND:bg.png;
#LYRICSPATH:;
#CDTITLE:;
#MUSIC:11.kors k - Flip Flap.mp3;
#OFFSET:-11.341;
#SAMPLESTART:20.900;
#SAMPLELENGTH:12.000;
#SELECTABLE:YES;
#BPMS:0.000=175.000;
#STOPS:;
#BGCHANGES:;

//---------------dance-single - ----------------
#NOTES:
     dance-single:
     :
     Hard:
     9:
     0.595,0.566,0.393,0.026,0.673:
1000
0000
0000
0010
0000
0000
0100
0000
0100
0000
0000
0000
,
0010
0000
0000
1000
0000
0001
0010
0000
0000
0001
0000
0000
,
1000
0000
0000
0001
0000
0000
0100
0000
0100
0000
0000
0000
,
0010
0000
0100
0010
0000
0100
0001
0000
0000
1000
0000
0001
,
1000
0000
0000
0010
0000
0000
0100
0000
0100
0000
0000
0000
,
0010
0000
0000
1000
0000
0010
0100
0000
0000
0001
0000
0010
,
0100
0000
0000
1000
0000
0000
0001
0000
0010
0000
0000
0000
,
0011
1100
0101
1010
,
1001
0000
0000
1001
0000
0000
0001
0100
0001
0100
0000
0100
,
0010
0000
0000
1000
0000
0000
1100
0000
0000
1000
0000
0001
,
0100
0000
0000
0010
0000
0100
0001
1000
0001
1000
0000
0100
,
0000
0000
0100
0010
0000
0010
0001
0000
0000
1000
0000
0000
,
0101
0000
0000
1100
0000
0000
1000
0010
0100
0001
0000
0001
,
0010
0000
0000
0100
0000
0000
0010
0000
0000
0001
0000
1000
,
0010
0000
0000
0100
0000
0010
1000
0010
0100
0001
0000
0010
,
0001
0000
0000
0001
0000
1000
0001
0000
0000
0001
0000
0000
,
0100
0000
0100
0010
0000
0010
0100
0000
0100
0010
0000
0000
,
1000
0000
0001
1000
0000
1000
0001
0000
0001
1000
0000
0000
,
0001
0000
1000
0100
0000
0010
0001
0000
0001
0100
0000
0100
,
0010
0000
0100
0010
0000
0100
0010
0000
0000
1001
0000
0000
,
0001
0000
0001
0100
0000
0010
1000
0000
0001
0100
0000
0000
,
1001
0000
1000
0100
0000
0010
0001
0000
1000
0100
0000
0000
,
1001
0000
0000
0010
0000
0100
0001
0010
0100
1000
0000
1000
,
0100
0100
0100
0100
,
1000
0000
0001
0100
0000
1000
0100
0000
0001
0100
0000
1000
,
0100
0000
0001
0100
0000
1000
0100
0000
0001
0100
0000
0000
,
0001
0000
0001
0100
0000
1000
0100
0000
0001
0100
0000
1000
,
0100
0000
0001
0100
0000
1000
0100
0000
0000
1001
0000
0000
,
0001
0000
0001
0100
0000
1000
0100
0000
0001
0100
0000
0100
,
0010
0000
0010
0100
0000
0100
0010
0000
0010
0100
0000
0000
,
0010
0000
0010
1000
0000
1000
0100
0000
0100
0001
0000
0001
,
0100
0000
0010
0001
0000
0001
0100
0000
0000
0010
0000
0000
,
1001
0000
0000
0001
0000
0001
0010
0000
0010
0100
0000
0100
,
1000
0000
1000
0001
0000
0001
0100
0000
0000
0100
0000
0000
,
0010
0000
1000
0010
0000
0100
0001
0000
0001
0010
0000
0010
,
0100
0000
0100
0010
0000
0010
0001
0000
0000
1001
0000
0000
,
0001
0000
0001
0010
0000
0010
0100
0000
0100
1000
0000
1000
,
0100
0000
0100
0010
0000
0010
0001
0000
0000
0001
0000
0000
,
0001
0000
0001
0100
0000
0100
0010
0000
0010
1000
0000
1000
,
0001
0000
0001
1000
0000
1000
0100
0000
0000
1100
0000
0000
,
1000
0000
0000
0001
0000
0000
0100
0000
0100
0000
0000
0000
,
0010
0000
0000
1000
0000
0010
0100
0000
0000
0010
0000
0000
,
1000
0000
0000
0001
0000
0000
0010
0000
0010
0000
0000
0000
,
0010
0000
0010
0100
0000
0100
1000
0000
0000
0001
0000
0000
,
1000
0000
0000
0001
0000
0000
0100
0000
0100
0000
0000
0000
,
0001
0000
0000
0001
0000
0100
0001
0000
0000
0100
0000
0000
,
0010
0000
0000
1000
0000
0000
0100
0000
1000
0000
0000
0000
,
1000
0001
0100
0100
,
0010
0000
0000
0110
0000
0000
0010
0100
0001
1000
0000
1000
,
0100
0000
0000
0010
0000
0000
0100
0000
0000
1000
0000
0001
,
0100
0000
0000
0010
0000
0100
0010
1000
0010
0100
0000
0010
,
0000
0000
0100
0010
0000
0010
0100
0000
0000
0001
0000
0000
,
1000
0001
0200
0300
,
0001
1000
0020
0030
,
0110
0110
0110
0110
,
1001
0101
0011
1100
,
1001
0000
0000
0011
0000
0001
0010
0100
0010
0001
0000
0001
,
0100
0000
0000
0010
0000
0000
1001
0000
0000
0001
0000
0001
,
0100
0000
0000
0110
0000
0010
1000
0010
0001
0010
0000
0100
,
0000
0000
0010
1000
0000
1000
0100
0000
0000
0100
0000
0000
,
1100
0000
0000
0011
0000
0000
0001
0010
0100
1000
0000
1000
,
0100
0000
0000
1000
0000
0000
0010
0000
0000
0100
0000
0100
,
0001
0000
0000
1000
0000
0001
0010
0100
0010
0100
0000
0010
,
0001
0000
0000
0100
0000
0010
0100
0000
0000
0010
0000
0000
,
0110
0000
0000
1001
0000
0001
0100
0000
0000
1010
0000
0000
,
1100
0000
0000
0101
0000
0001
0100
0000
0000
0110
0000
0000
,
1010
0000
0000
0011
0000
0001
1000
0010
1000
0010
0000
0100
,
0001
0000
0000
0010
0000
0100
1000
0000
0000
0001
0000
0000
,
0101
0000
0000
1100
0000
1000
0010
0000
0000
0110
0000
0000
,
0110
0000
0000
1001
0000
0001
0100
0000
0000
1010
0000
1000
,
0100
0000
0010
0001
0000
0001
0100
0010
0100
0010
0000
0100
,
0001
0000
0000
1000
0000
0010
0200
0000
0000
0000
0000
0000
,
0301
0000
0000
0000
;

//---------------dance-single - ----------------
#NOTES:
     dance-single:
     :
     Medium:
     6:
     0.439,0.535,0.481,0.026,0.079:
1000
0000
0000
0001
0000
0000
1000
0000
1000
0000
0000
0000
,
1000
0100
0010
0001
,
0010
0000
0000
0100
0000
0000
1000
0000
1000
0000
0000
0000
,
1000
0100
0010
0100
,
1000
0000
0000
0001
0000
0000
0100
0000
0100
0000
0000
0000
,
0001
1000
0010
0100
,
0001
0000
0000
0010
0000
0000
0100
0000
0100
0000
0000
0000
,
0010
0010
0010
0010
,
0001
0100
1000
0100
,
0010
0010
0010
0100
,
0001
1000
0100
0010
,
0100
1000
0001
0100
,
0001
1000
0100
1000
,
0010
0010
0100
0010
,
1000
0001
0010
0100
,
1100
0101
1100
0101
,
1000
0000
0000
0001
0000
0100
0001
0000
0000
0100
0000
0000
,
0010
0000
0000
1000
0000
0010
1000
0000
0000
0010
0000
0000
,
0100
0010
1000
0001
,
0010
0100
1000
0100
,
1000
0000
0000
0001
0000
1000
0001
0000
0000
0001
0000
0000
,
0100
0000
0000
0010
0000
0100
0010
0000
0000
0100
0000
0000
,
0010
1000
0100
0010
,
0001
0001
1000
1000
,
0101
0101
0101
0101
,
0101
0101
0101
0001
,
0110
0110
0110
0110
,
0110
0110
0100
0100
,
1010
1010
1010
1010
,
1010
1010
0010
1000
,
1100
1100
1100
1100
,
1100
1100
1000
0001
,
1001
0110
1001
0110
,
1001
0110
0001
0001
,
0101
1010
0101
1010
,
0101
1010
0001
0001
,
1100
0011
1100
0011
,
1100
0011
0010
0010
,
0011
1100
0110
1001
,
0001
1000
0100
0100
,
1000
0001
0100
0000
,
0001
0001
1000
0100
,
0001
0001
0100
0000
,
0010
0100
0001
1000
,
0001
1000
0100
0000
,
1000
0001
0100
0100
,
0001
1000
0010
0000
,
1000
1000
0001
0000
,
1000
0001
0100
0100
,
0001
0010
0100
0010
,
0001
1000
0010
0001
,
0010
0100
0010
1000
,
0001
1000
0002
0003
,
0001
0000
0000
0100
0000
0020
0000
0000
0000
0030
0000
0000
,
0100
0100
0100
0100
,
0110
0101
0100
0100
,
0010
1000
0001
0010
,
0100
0100
0100
0010
,
0001
1000
0010
0100
,
0001
0001
1000
1000
,
0001
1000
0100
1000
,
0010
0010
0010
0100
,
0001
1000
0100
0010
,
0100
1000
0001
0100
,
0001
0000
0000
0100
0000
0010
0100
0000
0000
0010
0000
0000
,
1000
0000
0000
0001
0000
0010
0001
0000
0000
0001
0000
0000
,
0001
0100
1000
0100
,
0001
0010
1000
0010
,
0001
0000
0000
1000
0000
0001
1000
0000
0000
1001
0000
0000
,
0001
0000
0000
0100
0000
0010
1000
0000
0000
0110
0000
0000
,
0010
0000
0000
1000
0000
0100
1000
0100
1000
0100
0000
1000
,
0100
0000
0000
0010
0000
0010
0002
0000
0000
0000
0000
0000
,
0103
0000
0000
0000
;

//---------------dance-single - ----------------
#NOTES:
     dance-single:
     :
     Easy:
     3:
     0.253,0.283,0.000,0.017,0.000:
0001
0000
1000
0000
,
0010
1000
0010
0000
,
1000
0000
0100
0000
,
0010
0100
1000
0100
,
1000
0000
0010
0000
,
0100
0100
0001
0100
,
0001
0000
1000
0000
,
0100
0100
0100
0100
,
1000
0000
0001
0000
,
0100
0001
0100
0000
,
0010
0000
0100
0000
,
0001
0001
1000
0001
,
1000
0000
0100
0000
,
1000
1000
1000
0000
,
0100
0000
1000
0000
,
0010
0010
0010
0000
,
0100
0001
0100
0000
,
0010
1000
0010
0000
,
1000
0001
1000
0001
,
0100
1000
0100
0001
,
0010
0100
0010
0000
,
0100
1000
0100
0000
,
1000
0010
1000
0010
,
0100
0100
0100
0000
,
0010
0000
1000
0000
,
0001
0000
1000
0001
,
0100
0000
0100
0000
,
0001
0010
0001
0000
,
1000
0000
0001
0000
,
1000
0010
0100
0000
,
0010
0000
1000
0000
,
0100
0010
0001
1000
,
0001
0000
0100
0000
,
0001
1000
0100
0000
,
1000
0000
0100
0000
,
1000
0010
0100
0100
,
0010
0000
1000
0000
,
0001
1000
0100
0000
,
1000
0000
0001
0000
,
0100
0000
0001
0100
,
0010
0000
0100
0000
,
0001
0001
0001
0000
,
1000
0000
0100
0000
,
1000
1000
1000
0000
,
0020
0000
0000
0000
,
0000
0000
0000
0000
,
0000
0000
0000
0000
,
0000
0000
0000
0030
0000
0000
0000
0000
,
0100
0000
0010
0000
,
0100
0100
0001
0000
,
1000
0000
0001
0000
,
0010
0100
1000
0000
,
0001
0001
0000
0000
,
1000
1000
0000
0000
,
0001
0001
0001
0001
,
0001
0100
1000
0100
,
0010
1000
0001
0010
,
0100
0100
0100
0000
,
0010
0000
0001
0000
,
1000
0001
0100
0000
,
0001
0100
0010
1000
,
0100
0100
0100
0000
,
1000
0000
0001
0000
,
0100
0001
0010
0000
,
0001
0010
0100
1000
,
0100
0010
0100
1000
,
0100
0100
1000
1000
,
0010
0010
0100
0100
,
0001
0100
1000
0100
,
0001
0010
1000
0010
,
0001
0010
0100
1000
,
0100
0010
0002
0000
,
0003
0000
0000
0000
;

//---------------dance-single - ----------------
#NOTES:
     dance-single:
     :
     Beginner:
     1:
     0.116,0.220,0.009,0.000,0.000: // measure 1
1000
0000
0000
0000
,  // measure 2
0000
0000
0000
0000
,  // measure 3
0001
0000
0000
0000
,  // measure 4
0000
0000
0000
0000
,  // measure 5
0100
0000
0000
0000
,  // measure 6
0000
0000
0000
0000
,  // measure 7
0010
0000
0000
0000
,  // measure 8
1000
0000
0000
0000
,  // measure 9
0001
0000
0000
0000
,  // measure 10
0100
0000
0000
0000
,  // measure 11
0001
0000
0000
0000
,  // measure 12
1000
0000
0000
0000
,  // measure 13
0100
0000
0000
0000
,  // measure 14
1000
0000
0000
0000
,  // measure 15
0001
0000
0000
0000
,  // measure 16
1000
1000
1000
0000
,  // measure 17
0010
0000
0000
0000
,  // measure 18
0100
0000
0000
0000
,  // measure 19
0010
0000
0010
0000
,  // measure 20
0100
0100
0100
0000
,  // measure 21
0001
0000
0000
0000
,  // measure 22
1000
0000
0000
0000
,  // measure 23
0100
0000
0100
0000
,  // measure 24
0100
0100
0100
0000
,  // measure 25
1000
0000
0000
0000
,  // measure 26
0001
0000
0000
0000
,  // measure 27
0100
0000
0000
0000
,  // measure 28
0001
0000
0000
0000
,  // measure 29
1000
0000
0000
0000
,  // measure 30
0100
0000
0000
0000
,  // measure 31
1000
0000
0000
0000
,  // measure 32
0010
0000
0010
0000
,  // measure 33
0100
0000
0000
0000
,  // measure 34
0001
0000
0000
0000
,  // measure 35
1000
0000
0000
0000
,  // measure 36
0100
0000
0000
0000
,  // measure 37
1000
0000
0000
0000
,  // measure 38
0010
0000
0000
0000
,  // measure 39
0100
0000
0000
0000
,  // measure 40
0001
0000
1000
0000
,  // measure 41
0100
0000
0000
0000
,  // measure 42
0000
0000
0000
0000
,  // measure 43
0100
0000
0000
0000
,  // measure 44
0000
0000
0000
0000
,  // measure 45
1000
0000
0000
0000
,  // measure 46
0000
0000
0000
0000
,  // measure 47
0001
0000
0000
0000
,  // measure 48
0000
0000
0000
0000
,  // measure 49
0100
0000
0000
0000
,  // measure 50
0001
0000
0000
0000
,  // measure 51
0100
0000
0000
0000
,  // measure 52
0010
0000
0000
0000
,  // measure 53
1000
1000
0000
0000
,  // measure 54
0001
0001
0000
0000
,  // measure 55
0100
0000
0010
0000
,  // measure 56
0100
0100
0100
0100
,  // measure 57
0100
0000
0000
0000
,  // measure 58
0010
0000
0000
0000
,  // measure 59
1000
0000
0000
0000
,  // measure 60
0001
0000
0001
0000
,  // measure 61
1000
0000
0000
0000
,  // measure 62
0100
0000
0000
0000
,  // measure 63
1000
0000
0010
0000
,  // measure 64
0100
0100
0100
0000
,  // measure 65
0001
0000
0000
0000
,  // measure 66
0100
0000
0000
0000
,  // measure 67
0001
0000
0001
0000
,  // measure 68
1000
1000
1000
0000
,  // measure 69
0100
0000
0000
0000
,  // measure 70
1000
0000
0000
0000
,  // measure 71
0010
0000
0100
0000
,  // measure 72
0001
0001
0001
0000
,  // measure 73
1001
0000
0000
0000
;
