#TITLE:Bitter Chocolate Striker;
#SUBTITLE:;
#ARTIST:L.E.D.-G;
#TITLETRANSLIT:;
#SUBTITLETRANSLIT:;
#ARTISTTRANSLIT:;
#CREDIT:;
#BANNER:bitter-ban.png;
#BACKGROUND:bitter-bg.png;
#LYRICSPATH:;
#CDTITLE:;
#MUSIC:05 BITTER CHOCOLATE STRIKER.mp3;
#OFFSET:1.060;
#SAMPLESTART:38.064;
#SAMPLELENGTH:12.000;
#SELECTABLE:YES;
#BPMS:0.000=165.000;
#STOPS:100.000=2.182
,278.000=2.545
;
#BGCHANGES:;

//---------------dance-single - ----------------
#NOTES:
     dance-single:
     :
     Medium:
     7:
     0.456,0.553,0.413,0.143,0.263:
0000
0000
0000
0000
,
2002
0000
0000
0000
,
0000
0000
0000
3003
,
1000
0000
0001
0000
,
0100
0000
0010
0000
,
1000
0100
1000
0100
,
0010
0001
0010
0001
,
0100
0010
1000
0100
,
0001
0100
1000
0010
,
1010
1000
0001
0100
,
0010
1000
0001
1000
,
1001
0010
0100
0001
,
1001
0010
0100
0001
,
1001
0001
0001
0001
,
1100
1000
1000
1000
,
0110
0010
0010
0010
,
2002
0000
3003
0001
,
1000
0001
0100
0010
,
0010
0010
1000
0001
,
1000
0010
0100
0010
,
1001
0000
0000
1010
0000
1010
0000
0000
0000
0001
0000
0001
,
0020
0230
2300
3001
,
1001
1000
0010
1000
,
1010
0000
0000
1001
0000
0000
1000
0000
1000
0010
0000
0010
,
0100
0000
0002
0000
0000
2003
0000
0000
3020
0000
0000
0130
,
0001
0000
0000
0000
0000
0000
1001
0000
0001
0100
0000
0100
,
0010
0000
0000
1000
0000
0010
0000
0000
1000
0001
0000
0001
,
0100
0000
0000
0010
0000
2000
0000
0000
3001
0100
0000
0000
,
0010
0000
0000
1000
0000
0000
0001
0000
1000
0010
0000
0000
,
0010
0000
1000
0010
0000
0000
1001
0000
0000
0001
0000
0001
,
0100
0000
0000
0010
0000
0000
1000
0000
0001
1000
0000
0000
,
0010
1000
1001
0010
,
1000
0000
0000
0001
0000
0000
0001
0000
1000
0010
1000
0010
,
0000
0000
1000
0000
0000
0001
1000
0000
0000
1000
0000
0000
,
0110
0001
1100
0001
,
0011
0001
1001
1000
,
0010
0000
0000
1000
0000
0000
0010
0000
0010
1000
0000
0000
,
0001
0000
0001
1000
0000
0000
1010
0000
0000
0001
0000
0000
,
1001
0000
1100
0001
,
1001
0010
1010
1010
,
1001
1001
0101
0101
,
0011
0000
0000
0001
0000
0000
1000
0000
0000
0010
0000
0010
,
1000
0010
1000
0001
,
0100
0000
0100
0010
0000
0010
1000
0000
0000
0001
0000
0000
,
1000
0000
0000
0010
0000
1000
0100
0000
0100
0010
0000
0010
,
0001
0000
0001
0100
0000
0100
0010
0000
0000
1000
0000
0000
,
0001
0100
0110
1000
,
0001
0000
0000
1000
0000
0000
1001
0000
0001
0100
0000
0100
,
0010
0000
0010
1000
0000
0000
0001
0000
0000
1000
0000
0000
,
0100
0000
0010
0001
0000
1000
0002
0000
0000
0000
0000
0000
,
0000
0000
0000
0000
,
0000
0000
2003
0000
,
0000
0000
3020
0000
,
0000
0000
0230
0000
,
0000
0000
0000
0000
,
0000
0000
0000
0000
,
0000
0000
0000
0000
,
0000
0300
1001
0000
,
1000
0000
0001
0000
,
0100
0010
1001
0010
,
0100
0001
1001
0010
,
0100
0000
0000
0001
0000
0000
1001
0000
0001
1000
0000
1000
,
0010
0100
0001
1000
,
0010
0100
1001
0010
,
1000
0001
1001
0010
,
0100
0000
0001
0100
0000
0100
0010
0000
0000
1000
0000
0000
,
0001
0000
0001
1000
0000
1000
0001
0000
0000
0100
0000
0000
,
0100
0000
0100
0010
0000
0010
1000
0000
0000
0001
0000
0000
,
1001
0000
0000
0010
0000
0000
0010
0000
0010
1000
0000
1000
,
0010
0000
0100
0000
0001
0000
1001
0000
0000
1001
0000
0000
,
0010
0100
0001
0010
,
0001
0000
0000
1000
0000
1000
0010
0000
0010
1000
0000
0000
,
0001
0100
0010
0010
,
1001
0000
0000
0001
0000
0001
0100
0000
0100
0001
0000
0000
,
1001
0000
0000
0010
0000
0000
0100
0000
0000
0001
0000
0020
,
0000
0031
1000
1001
,
0010
0000
0000
0100
0000
0000
0010
0000
0000
0010
0000
0010
,
1000
0000
0000
0001
0000
0001
1000
0000
0000
1010
0000
0000
,
0001
0000
0001
0100
0000
0000
0010
0000
0000
1000
0000
1000
,
0000
0000
1000
0100
0000
0100
0010
0000
0010
0100
0000
0000
,
0010
0001
1000
0001
,
1001
0000
0000
0001
0000
0101
0000
0000
0000
1001
0000
0000
,
1000
0010
0100
0001
,
0010
0000
0000
0001
1000
0001
1000
0001
1000
0001
0000
0000
,
2000
3010
1001
0010
,
0010
0000
0000
0011
0000
0110
0000
1100
0000
2020
0000
0000
,
0000
0000
0000
3030
;

//---------------dance-single - Copied from----------------
#NOTES:
     dance-single:
     Copied from:
     Hard:
     9:
     0.650,0.708,0.315,0.143,1.000:
0000
0000
0000
0000
,
2002
0000
0000
0000
,
0000
0000
0000
3003
,
1000
0010
1000
0010
0000
0000
0100
0001
0100
0001
0000
0000
,
1000
0001
1000
0001
0000
0000
1000
0010
1000
0010
0000
0000
,
1000
0010
0100
0001
,
0010
0100
1000
0001
,
0001
0100
0100
0010
,
1000
0100
0010
0001
,
1001
0000
0001
0100
0000
0100
0010
0000
0010
1000
0000
1000
,
0001
0000
0001
0100
0000
0100
0010
0000
0010
1000
0000
1000
,
0100
0000
0010
0000
0000
0010
0000
0000
0001
0000
0000
0001
,
0000
0000
1000
0100
0000
1000
0000
0000
0001
0100
0010
1000
,
0001
1001
1000
1010
,
0010
0000
0000
0110
0000
0000
0001
0000
0000
1001
0000
1000
,
0001
0000
0010
0100
0000
0100
1000
0001
1000
0001
1000
0001
,
2000
0000
0000
3000
0000
0000
0000
0000
0000
0001
0000
0001
,
0010
0000
0010
0100
0000
0100
1000
0000
1000
0100
0000
0100
,
0010
0000
0010
0001
0000
0001
0100
0000
0100
0010
0000
0010
,
1000
0000
1000
0001
0000
0001
0100
0000
0100
0010
0000
0010
,
1000
0001
1000
0001
0000
1001
0000
0000
0000
1000
0001
0100
,
0020
2030
3002
1003
,
1001
1000
0010
1000
,
1010
0000
0000
1001
0000
0000
1000
0001
0100
0010
0000
0010
,
1000
0000
0100
0010
0000
0001
0010
0000
0100
1000
0000
0001
,
1000
0000
0000
0000
0000
0000
1001
0000
0001
0100
0010
1000
,
0001
0000
0001
1000
0000
0010
0000
0000
1000
0001
0000
0001
,
0100
0000
0100
0010
0000
2000
0000
0000
3001
0100
0010
0100
,
0001
0010
0001
1000
0000
0001
0000
0000
1000
0100
0000
1000
,
0100
0000
1000
0100
0000
0000
1001
0000
0001
0100
0010
0100
,
0001
0000
1000
0010
0000
1000
0000
0000
0001
0100
0000
0001
,
0100
0000
0001
0100
0000
0020
0000
0000
1030
0100
0000
0100
,
0010
0000
0010
0001
0000
0001
1000
0100
1000
0001
0010
0001
,
1000
0000
1001
0000
0000
0001
0100
0000
0001
1000
0010
1000
,
0001
0000
1000
0000
0010
1000
0020
0000
0000
0130
0001
0100
,
0001
0000
0001
0010
0000
0010
0100
0000
0000
1000
0010
0100
,
0010
0000
0010
1000
0000
1000
0100
0000
0100
0001
0000
0001
,
0100
0000
0100
1000
0000
0000
1001
0000
0001
0100
0010
1000
,
0002
0000
0000
0003
1000
0010
2000
0000
0000
3001
0100
0001
,
0100
0000
0100
0010
0000
0000
1010
0000
0000
1010
0000
0000
,
1001
1001
0101
0101
,
0011
0000
0001
0010
0000
0100
0010
0000
0001
0100
0010
1000
,
0001
0000
0001
0100
0000
0010
0000
0000
1000
0010
0000
0010
,
0100
0000
0100
0001
0100
0001
0100
0000
0010
1000
0010
1000
,
0001
0100
0001
0100
0000
0100
0010
0000
0010
1000
0000
1000
,
0100
0000
0100
0010
0000
0010
0001
0000
1000
0010
0100
0001
,
1000
0000
1000
0010
0000
0000
1010
0000
0000
1000
0000
0001
,
0100
0000
0001
0100
0000
0000
0101
0000
0001
0100
0010
1000
,
0001
0100
0001
1000
0010
1000
0001
0000
0001
0000
1000
0100
,
1000
0000
0001
1000
0000
1000
0020
0000
0000
0000
0000
0000
,
0000
0000
0000
0000
,
0000
0000
0230
0000
,
0000
0000
0302
0000
,
0000
0000
0203
0000
,
0000
0000
0000
0000
,
0000
0000
0000
0000
,
0300
0000
0000
0000
,
0000
0000
1001
0001
,
0001
0001
0100
0100
,
0100
0010
1010
0001
,
1000
0001
2001
0010
,
0001
0000
0000
3010
0000
0000
1001
0000
0001
0100
0001
1000
,
0001
0000
1000
0010
0000
1000
0000
0000
0001
0000
0000
1000
,
0001
0010
0001
1000
0100
1000
0002
0000
0013
0000
0100
1000
,
0100
0000
0100
0010
0000
0010
0001
0000
0001
0100
0000
0100
,
0010
0000
0010
1000
0000
1000
0010
0000
0000
1010
0000
0000
,
1001
0000
1000
0010
0000
0010
0100
0000
0000
0110
0000
0000
,
0100
0000
0001
1000
0010
1000
0010
0000
0000
1001
0000
0000
,
1010
0000
0000
0101
0000
0000
1000
0100
0010
0001
0010
0100
,
1000
0000
0001
0000
0100
0000
0101
0000
0000
1010
0000
1000
,
0010
1000
0001
0100
0000
0100
0010
0000
0010
1000
0000
0001
,
0000
0000
1000
0001
0100
0010
1000
0010
0100
0010
0000
1000
,
0001
0000
0001
0100
0000
0100
0010
0000
0010
1000
0000
1000
,
0001
0000
0001
0100
0000
0100
0010
0000
0000
1010
0000
1000
,
0010
1000
0001
0100
0010
1000
0001
0000
1000
0000
0000
0002
,
0000
0000
0000
1003
0100
0010
0001
0100
0010
1000
0000
1000
,
0100
0000
0000
0011
0000
0001
0010
0000
0000
0100
0000
1000
,
0001
0010
0100
1000
0100
0010
0001
1000
0001
1000
0000
0100
,
0010
0001
0010
0100
0000
0100
1000
0000
0001
0000
0000
1000
,
0000
0000
0001
1000
0010
0100
0001
1000
0100
0010
0000
0001
,
0010
0001
0010
0100
0000
1000
0100
1000
0100
0010
0000
0000
,
1001
0000
0000
0000
0000
1010
0000
0000
0001
1000
0000
1000
,
0010
0000
0010
0100
0000
0100
0001
0000
0001
1000
0100
1000
,
0100
1000
0100
0010
0001
0010
0001
0010
0001
1000
0001
1000
,
0002
0000
0000
1003
0010
1000
0001
0100
0001
1000
0010
1000
,
0001
1000
0001
0100
0000
1010
0000
0101
0000
1001
0000
0000
;

//---------------dance-single - ----------------
#NOTES:
     dance-single:
     :
     Easy:
     4:
     0.262,0.325,0.173,0.120,0.000:
0000
0000
0000
0000
,
0000
0000
0000
0000
,
0000
0000
0000
0000
,
0000
0000
0000
0000
,
0000
0000
0000
0000
,
1000
0000
0001
0000
,
1000
0000
0010
0000
,
0100
0000
0001
0000
,
1000
0000
0001
0000
,
1001
0000
1000
0000
,
0001
0000
0010
0000
,
0100
0000
0001
0000
,
1000
0000
0001
0000
,
1001
0000
1000
0000
,
0001
0000
0100
0000
,
0010
0000
1000
0000
,
1001
0000
0000
0000
,
0110
0000
0010
0000
,
1000
0000
0001
0000
,
1000
0000
0010
0000
,
1001
0000
0000
0000
,
0110
0010
1000
0000
,
0001
0100
0010
0000
,
1001
0010
0100
0010
,
2000
0000
0000
3000
,
1001
0000
1100
0000
,
0001
0000
1000
0000
,
0010
0000
0100
0001
,
1000
0010
0100
0001
,
1000
0010
1000
0001
,
1000
0010
0000
1000
,
0001
0100
0010
1000
,
0100
0010
0001
1000
,
0010
0000
1001
0010
,
0100
0000
0001
1000
,
0100
0000
0002
0000
,
2003
0000
3020
0000
,
0230
0000
0301
1000
,
1001
0000
0010
0100
,
0110
0000
0001
0001
,
1000
1000
0010
0010
,
0200
0000
0301
1000
,
0010
0100
0000
0001
,
0010
0100
1000
0001
,
0100
0010
1000
1000
,
0001
0001
1000
0010
,
0100
0001
0000
1000
,
0100
0001
0100
1000
,
0010
1000
0001
0000
,
1000
0000
2002
0000
,
0000
0000
0000
0000
,
3003
0000
2000
0000
,
0000
0000
0002
0000
,
3003
0000
2000
0000
,
0000
0000
0000
0000
,
0000
0000
3000
0000
,
0000
0000
0000
0000
,
0000
0000
1001
0000
,
1000
0000
1000
0000
,
0001
0000
0001
0000
,
0001
0000
0100
0000
,
0100
0000
0010
0010
,
1000
0000
0001
0001
,
1000
0000
1001
0000
,
0010
0000
1001
0000
,
0000
0000
1001
0000
,
0010
0010
1001
0000
,
0100
0100
1001
0010
,
1000
0001
0100
0010
,
1000
0000
1001
1001
,
0000
0010
0000
1000
,
0000
0001
0100
0010
,
1000
0100
0010
0001
,
0100
0010
1000
0001
,
0100
0010
1000
0000
,
0100
0100
0010
0001
,
0001
0100
0100
0010
,
0010
1000
0000
0002
,
0000
2003
0000
3020
,
0000
0130
0001
1000
,
0100
0010
0001
0100
,
0010
1000
0000
1001
,
0000
1000
0000
0001
,
0000
1000
0000
0010
,
0100
0001
0010
0100
,
1000
0001
0000
2002
,
0000
0000
0000
3003
;

//---------------dance-single - ----------------
#NOTES:
     dance-single:
     :
     Beginner:
     2:
     0.163,0.257,0.135,0.000,0.000: // measure 1
0000
0000
0000
0000
,  // measure 2
0000
0000
0000
0000
,  // measure 3
0000
0000
0000
0000
,  // measure 4
0000
0000
0000
0000
,  // measure 5
0000
0000
0000
0000
,  // measure 6
0000
0000
0000
0000
,  // measure 7
0000
0000
0000
0000
,  // measure 8
0000
0000
0000
0000
,  // measure 9
0000
0000
0000
0000
,  // measure 10
1001
0000
0000
0000
,  // measure 11
1000
0000
0000
0000
,  // measure 12
0001
0000
0000
0000
,  // measure 13
0010
0000
0000
0000
,  // measure 14
1001
0000
0000
0000
,  // measure 15
1000
0000
0000
0000
,  // measure 16
0001
0000
0000
0000
,  // measure 17
0100
0000
0000
0000
,  // measure 18
0010
0000
1000
0000
,  // measure 19
1000
0000
0100
0000
,  // measure 20
0010
0000
1000
0000
,  // measure 21
0100
0000
0000
0000
,  // measure 22
1001
0000
1000
0000
,  // measure 23
0001
0000
1000
0000
,  // measure 24
0001
0000
1000
0000
,  // measure 25
1000
0000
0000
0000
,  // measure 26
1001
0000
1001
0000
,  // measure 27
0010
0000
1000
0000
,  // measure 28
0001
0000
0100
0000
,  // measure 29
0010
0010
0000
0000
,  // measure 30
0000
0000
1001
0000
,  // measure 31
1000
0000
0010
0000
,  // measure 32
0100
0000
0001
0000
,  // measure 33
1000
1000
0000
0000
,  // measure 34
0000
0000
1001
0000
,  // measure 35
0010
0000
1000
0000
,  // measure 36
1001
0000
0010
0010
,  // measure 37
0010
0000
0100
0100
,  // measure 38
0100
0000
0001
0001
,  // measure 39
0001
0000
1000
1000
,  // measure 40
1000
0000
0001
0000
,  // measure 41
0100
0000
0010
0000
,  // measure 42
1000
0000
1001
0000
,  // measure 43
0010
0000
1000
0000
,  // measure 44
0001
0000
0100
0000
,  // measure 45
0010
0000
1000
1000
,  // measure 46
1000
1000
1000
0000
,  // measure 47
0001
0000
0100
0000
,  // measure 48
0010
0000
1000
0000
,  // measure 49
0001
0000
0000
0000
,  // measure 50
0000
0000
1001
0000
,  // measure 51
0000
0000
0000
0000
,  // measure 52
0000
0000
1000
0000
,  // measure 53
0000
0000
0001
0000
,  // measure 54
0000
0000
0010
0000
,  // measure 55
0000
0000
0000
0000
,  // measure 56
0000
0000
0100
0000
,  // measure 57
0000
0000
1000
0000
,  // measure 58
0000
0000
1001
0000
,  // measure 59
0000
0000
0000
0000
,  // measure 60
0000
0000
0010
0000
,  // measure 61
0000
0000
0100
0000
,  // measure 62
0000
0000
0001
0000
,  // measure 63
1000
0000
0010
0000
,  // measure 64
0100
0000
0001
0000
,  // measure 65
1000
0000
0001
0000
,  // measure 66
0100
0000
0010
0000
,  // measure 67
1000
0000
1000
0000
,  // measure 68
0001
0000
1000
1000
,  // measure 69
1000
1000
1000
0000
,  // measure 70
0001
0000
1001
1001
,  // measure 71
0000
0010
0000
0000
,  // measure 72
0000
1000
0000
0001
,  // measure 73
0000
1000
0000
0100
,  // measure 74
0100
0100
0000
1001
,  // measure 75
0000
0010
0000
1000
,  // measure 76
0000
0001
0000
0001
,  // measure 77
0000
1001
0000
0010
,  // measure 78
0010
0010
0000
1001
,  // measure 79
0000
0100
0000
0001
,  // measure 80
0000
1000
0000
0010
,  // measure 81
0000
0100
0000
0000
,  // measure 82
1001
0000
0000
1000
,  // measure 83
0000
0001
0000
0100
,  // measure 84
0000
0010
0000
1000
,  // measure 85
0000
0001
0000
1000
,  // measure 86
0000
0001
0000
1001
;
