#TITLE:Back on fear;
#SUBTITLE:;
#ARTIST:teranoid;
#TITLETRANSLIT:;
#SUBTITLETRANSLIT:;
#ARTISTTRANSLIT:;
#GENRE:;
#CREDIT:;
#MENUCOLOR:;
#METERTYPE:DDR;
#BANNER:Back on fear.png;
#BACKGROUND:Back on fear-bg.png;
#LYRICSPATH:;
#CDTITLE:;
#MUSIC:Back on fear.mp3;
#OFFSET:-0.070;
#SAMPLESTART:109.690;
#SAMPLELENGTH:12.000;
#SELECTABLE:YES;
#LISTSORT:;
#BPMS:0.000=175.000,192.000=87.500,224.000=175.000;
#STOPS:;
#BGCHANGES:;
#ATTACKS:;

//---------------dance-single - ----------------
#NOTES:
     dance-single:
     :
     Hard:
     9:
     0.641,0.737,0.413,0.171,0.726:
0000
0000
0000
0000
,
0000
0000
0000
0000
,
0000
0000
0000
0000
,
0000
0000
0000
0000
,
1001
1000
0010
0100
,
0110
0010
1000
0100
,
1000
0000
0100
0010
0000
0010
0001
0000
0001
0100
0000
0100
,
0001
0000
0000
1000
0000
0000
0010
0100
0010
0100
0000
0000
,
0110
0000
0010
1000
0000
1000
0100
0000
0100
0010
0000
0010
,
0001
0000
0001
1000
0000
1000
0010
0000
0010
0100
0000
0000
,
0110
0000
0010
1000
0000
1000
0100
0000
0100
0010
0000
0010
,
0001
0000
0001
0100
0000
0100
0001
0000
0001
1000
0000
0000
,
0001
0000
0010
0000
0100
0000
1000
0000
0100
0000
0010
0000
,
0100
0000
1000
0010
0000
0100
0010
1000
0100
0010
0100
1000
,
0001
0000
0001
0010
0000
0010
0100
0000
0100
1000
0000
1000
,
0001
0010
0001
0010
0100
0010
0100
1000
0100
1000
0001
1000
,
0010
0000
0100
0010
0000
0000
1100
0000
0100
0010
0000
0000
,
0011
0000
0001
0100
0000
0100
0010
0000
0010
1000
0000
0000
,
1100
0000
0100
0010
0000
0000
0101
0000
0001
1000
0000
0000
,
1010
0000
1000
0100
0000
0100
0010
0000
0010
0001
0000
0000
,
0011
0000
0001
1000
0000
0000
1010
0000
0010
0100
0000
0000
,
0110
0000
0010
1000
0000
1000
0100
0000
0100
0010
0000
0000
,
0100
0000
1000
0010
0000
0100
0001
0000
0010
0001
0000
1000
,
0001
0000
0100
0000
0000
0001
0100
0001
0010
0100
1000
0010
,
0100
0000
0001
0010
0000
0000
0110
0000
0010
0001
0000
0000
,
0101
0000
0100
0010
0000
0010
1000
0000
1000
0100
0000
0000
,
1100
0000
1000
0001
0000
0000
0101
0000
0100
0001
0000
0000
,
0011
0000
0010
0100
0000
0010
0001
0100
0010
0100
0000
0000
,
0110
0000
0100
0001
0000
0000
0011
0000
0010
0100
0000
0000
,
1100
0000
1000
0010
0000
0010
1000
0000
1000
0001
0000
0000
,
0110
0000
0100
0001
0000
0001
0010
0000
0010
0100
0000
0100
,
1000
0000
0000
1001
0000
0000
0202
0000
0000
0000
0003
0000
,
0310
0000
0100
0001
0000
0000
0010
0000
0100
1000
0000
0000
,
0010
0000
1000
0001
0000
0000
0100
0001
0100
0001
0000
0000
,
0010
0000
0100
0010
0000
0000
0001
0000
0100
0010
0000
0000
,
1000
0000
0100
1000
0000
0000
0001
1000
0001
1000
0000
0001
,
0010
0000
0100
0010
0000
0000
0001
0000
0100
0010
0000
0000
,
0100
0000
0001
0010
0000
0000
0100
1000
0100
1000
0000
0000
,
0010
0000
1000
0001
0000
0000
0100
0000
0010
0100
0000
0010
,
1000
0000
0100
0010
0000
0100
1000
0010
0100
0010
0000
1000
,
0001
0000
0001
0100
0000
0000
0010
0000
1000
0100
0000
0000
,
0010
0000
0100
1000
0000
0000
0010
0100
0010
0100
0000
0000
,
0010
0000
1000
0100
0000
0000
0010
0000
0100
0010
0000
0000
,
0100
0000
1000
0010
0000
0000
1000
0010
1000
0010
0000
0000
,
0110
0010
1000
0100
,
0001
0100
1000
0010
,
1010
1000
0100
0001
,
0100
1000
0010
0100
,
0102
2000
0000
0003
3020
2000
0000
0030
,
3200
0020
0300
0200
2330
0020
0000
3000
,
0230
0020
0000
0300
2030
0002
0000
3000
,
2003
0200
3000
0320
0230
2000
0000
0300
,
3010
0100
0010
0001
0010
1000
0100
0010
,
0100
1000
0010
1000
0001
0100
0001
1000
,
1001
0001
0100
0010
0110
0100
0001
0010
,
0011
0001
1001
1000
2200
0000
0000
3300
,
1000
0000
0000
0010
0000
0000
0100
0000
1000
0100
0000
0000
,
0001
0000
0010
0100
0000
0010
0001
0000
0100
0010
0000
0000
,
0100
0000
0000
1000
0000
0000
0100
0000
0001
0010
0000
0000
,
0100
0000
0010
0001
0000
0100
0010
0000
1000
0100
0000
0000
,
1000
0000
0000
0001
0000
0000
0100
0000
0010
0100
0000
0000
,
0001
0000
0010
0100
0000
0010
0001
0000
0100
0010
0000
0000
,
0100
0000
0000
0001
0000
0000
0010
0000
0100
0010
0000
0000
,
0001
0000
0100
1000
0000
0100
0001
0000
0010
0100
0000
0000
,
0110
0000
0000
0010
0000
0000
0001
0000
0000
0010
0000
0100
,
0010
0000
0000
0001
0000
0000
0100
0000
0010
0100
0000
0001
,
1000
0001
0010
0100
,
1000
0000
0000
0100
0000
0000
0010
0000
0100
1000
0000
0010
,
1000
0001
0101
0100
,
0110
0010
1010
1000
,
1100
0000
0110
0000
0011
0000
0110
0000
1100
0000
1001
0000
,
0011
0000
0001
1000
0000
0001
1000
0100
0010
0001
0000
0000
,
1001
0000
0000
1010
0000
0000
1000
0100
0010
0100
0000
0000
,
0010
0000
0001
0100
0000
0010
0100
0001
0010
0100
0000
0000
,
1010
0000
0000
0101
0000
0000
0001
0100
0010
1000
0000
0000
,
0100
0000
0010
0100
0000
1000
0010
0100
0001
0010
0000
0000
,
1001
0000
0000
1010
0000
0000
0010
0100
0010
1000
0000
0000
,
0001
0000
0100
0010
0000
1000
0100
0010
0100
1000
0000
0000
,
1100
0000
0000
1001
0000
0000
1000
0010
0100
0010
0000
0000
,
1000
0000
0100
0010
0000
0001
0100
0001
1000
0010
0000
0000
,
0110
0000
0000
1100
0000
0000
0100
0010
0001
0010
0000
0001
,
0100
0000
0001
0010
0100
0010
0001
0100
0010
1000
0000
0000
,
0110
0000
0000
1010
0000
0000
1000
0100
0010
0001
0000
0100
,
0001
0000
0010
0100
0010
0001
0010
0100
0010
0001
0000
0000
,
1001
0000
0001
0100
0000
0010
0100
0000
0001
0010
0000
0100
,
0010
0000
0001
0100
0000
0010
0100
0000
0001
0010
0000
0100
,
1000
0000
0100
0000
0010
0000
0001
0000
0010
0000
0100
0000
,
1100
0000
0000
1001
0000
0000
0001
0010
0100
1000
0000
0000
,
0220
0000
0000
0000
,
0000
0000
0000
0000
,
0330
0000
0000
0000
;

//---------------dance-single - ----------------
#NOTES:
     dance-single:
     :
     Medium:
     7:
     0.512,0.641,0.313,0.171,0.349: // measure 1
0000
0000
0000
0000
,  // measure 2
0000
0000
0000
0000
,  // measure 3
0000
0000
0000
0000
,  // measure 4
0000
0000
0000
0000
,  // measure 5
1001
1000
0001
0100
,  // measure 6
0101
0100
0010
1000
,  // measure 7
1001
0001
1000
0000
,  // measure 8
1001
1000
0002
0103
,  // measure 9
0110
0100
0001
0010
,  // measure 10
0100
0010
0001
1000
,  // measure 11
1001
1000
0010
0100
,  // measure 12
0010
0100
0001
0010
,  // measure 13
0001
0000
1000
0000
0001
0000
1000
0000
0001
1000
0000
0000
,  // measure 14
0001
0000
0100
0010
0000
0100
0010
0000
0100
0010
0000
0100
,  // measure 15
0020
0000
0000
0000
,  // measure 16
1030
0000
1000
0100
0000
0100
0010
0000
0010
0001
0000
0000
,  // measure 17
1001
1000
1010
0010
,  // measure 18
0110
0000
0100
0001
0000
0001
0100
0000
0100
0001
0000
0000
,  // measure 19
0110
0010
1010
1000
,  // measure 20
1100
0000
1000
0100
0000
0100
1000
0000
1000
0100
0000
0000
,  // measure 21
1001
0001
0101
0100
,  // measure 22
0110
0000
0010
1000
0000
1000
0010
0000
0010
1000
0000
0000
,  // measure 23
0001
0000
1000
0001
0000
1000
0001
0000
1000
0001
0000
1000
,  // measure 24
0010
0000
0000
0100
0000
0000
0001
1000
0001
1000
0000
0000
,  // measure 25
1010
0000
0000
0010
0000
0000
0110
0000
0000
0100
0000
0100
,  // measure 26
0001
0000
0001
0010
0000
0010
0100
0000
0100
0010
0000
0000
,  // measure 27
0011
0000
0000
0001
0000
0000
1001
0000
0000
1000
0000
1000
,  // measure 28
0010
0000
0010
0100
0000
0100
0001
0000
0001
0100
0000
0000
,  // measure 29
0110
0010
1010
1000
,  // measure 30
1100
0000
1000
0001
0000
0001
0100
0000
0100
0001
0000
0000
,  // measure 31
0101
0000
0100
0010
0000
0000
0110
0000
0010
1000
0000
0000
,  // measure 32
1100
0110
0012
0000
,  // measure 33
1003
0000
0010
0100
0000
0000
0001
0000
0010
0100
0000
0000
,  // measure 34
0010
0000
0001
0100
0000
0000
0010
0000
0000
0000
0000
0000
,  // measure 35
0100
0000
0001
1000
0000
0000
0100
0000
1000
0010
0000
0000
,  // measure 36
1000
0000
0001
0100
0000
0000
0010
0000
0000
0000
0000
0000
,  // measure 37
0100
0000
0001
0010
0000
0000
0100
0000
0010
0001
0000
0000
,  // measure 38
0100
0000
0001
0010
0000
0000
0100
0000
0000
0000
0000
0000
,  // measure 39
1000
0000
0010
1000
0000
0000
0001
0000
0100
0001
0000
0000
,  // measure 40
1000
0000
0001
0100
0000
0001
0010
0000
0010
0100
0000
0000
,  // measure 41
0110
0000
0010
0001
0000
0000
1000
0000
0010
1000
0000
0000
,  // measure 42
0001
0000
0100
0010
0000
0000
0100
0000
0000
0000
0000
0000
,  // measure 43
0001
0000
0010
0100
0000
0000
0010
0000
0001
0100
0000
0000
,  // measure 44
0001
0000
1000
0010
0000
0000
1000
0000
0000
0000
0000
0000
,  // measure 45
0010
0100
0001
0010
,  // measure 46
0100
0010
0001
0100
,  // measure 47
0010
0100
0001
1000
,  // measure 48
0100
0010
0100
1000
,  // measure 49
2001
0002
0000
3000
0203
0020
0000
0300
,  // measure 50
0230
0002
0300
0023
0230
0020
0000
0300
,  // measure 51
0230
2000
0000
0300
3020
0200
0000
0030
,  // measure 52
0302
0020
0003
0230
0320
0002
0000
0030
,  // measure 53
0103
0010
0100
0001
1000
0100
0010
0100
,  // measure 54
0010
0001
0100
0001
1000
0010
1000
0100
,  // measure 55
0010
0100
1000
0001
0100
0010
0100
0001
,  // measure 56
0010
0100
1000
0010
2000
0000
0000
3000
,  // measure 57
1001
0000
0000
0001
0000
0000
0100
0000
0010
0100
0000
0000
,  // measure 58
0001
0000
0000
0010
0000
0000
0100
0000
0010
0100
0000
0000
,  // measure 59
0010
0000
0000
0001
0000
0000
0100
0000
0001
0100
0000
0000
,  // measure 60
0010
0000
0000
0100
0000
0000
0001
0000
1000
0100
0000
0000
,  // measure 61
1000
0000
0000
0010
0000
0000
0100
0000
0100
0010
0000
0000
,  // measure 62
0001
0000
0000
0010
0000
0000
0100
0000
0010
0100
0000
0000
,  // measure 63
0010
0000
0000
0001
0000
0000
0100
0000
0001
0100
0000
0000
,  // measure 64
0010
0000
0000
0100
0000
0000
0001
0000
0100
0001
0000
0000
,  // measure 65
0101
0100
0010
0100
,  // measure 66
0001
1000
0100
0010
,  // measure 67
0110
0010
0001
0100
,  // measure 68
0001
1000
0010
1000
,  // measure 69
1100
1000
1001
0001
,  // measure 70
0101
0100
0110
0010
,  // measure 71
1000
0000
0100
0000
0010
0000
0001
0000
0010
0000
0100
0000
,  // measure 72
1000
0000
0010
1000
0000
0010
0100
0000
0000
0110
0000
0000
,  // measure 73
0100
0000
0000
0001
0000
0000
0010
0000
0100
0010
0000
0000
,  // measure 74
0001
0000
0100
0010
0000
0000
1000
0000
0100
1000
0000
0000
,  // measure 75
0001
0000
0000
0100
0000
0000
0001
0000
0010
0100
0000
0000
,  // measure 76
0010
0000
0001
0100
0000
0000
0010
0000
0100
0010
0000
0000
,  // measure 77
0100
0000
0000
0001
0000
0000
1000
0000
0100
1000
0000
0000
,  // measure 78
0010
0000
0100
0010
0000
0000
0100
0000
0001
0010
0000
0000
,  // measure 79
0100
0000
0000
0010
0000
0000
0001
0000
0100
0010
0000
0000
,  // measure 80
0100
0000
0001
0010
0000
0000
0100
0000
1000
0100
0000
0000
,  // measure 81
1000
0000
0000
0010
0000
0000
0100
0000
0001
0010
0000
0000
,  // measure 82
0100
0000
0010
0001
0000
0001
0100
0000
0100
0010
0000
0000
,  // measure 83
0100
0000
0000
0001
0000
0000
0010
0000
0100
1000
0000
0000
,  // measure 84
0010
0000
1000
0001
0000
0100
0001
0000
0010
0100
0000
0000
,  // measure 85
0110
0100
0101
0001
,  // measure 86
1001
1000
1100
1000
,  // measure 87
0001
0000
0010
0000
0100
0000
1000
0000
0100
0000
0010
0000
,  // measure 88
0011
0000
0000
1100
0000
0000
0001
1000
0001
1000
0000
0000
,  // measure 89
0220
0000
0000
0000
,  // measure 90
0000
0000
0000
0000
,  // measure 91
0330
0000
0000
0000
;

//---------------dance-single - ----------------
#NOTES:
     dance-single:
     :
     Easy:
     4:
     0.342,0.609,0.249,0.214,0.000:
0000
0000
0000
0000
,
0000
0000
0000
0000
,
0000
0000
0000
0000
,
0000
0000
0000
0000
,
0110
0000
0100
0000
,
0101
0000
0001
0000
,
1000
0100
0010
0100
,
1000
0000
0002
0000
,
1003
0010
0100
0000
,
0110
0100
0001
0000
,
0011
0001
0010
0000
,
0110
0100
1000
0000
,
0001
0000
0100
0000
,
0010
0100
0001
0010
,
0100
0000
0000
0000
,
0220
0000
0000
0330
,
0110
0000
0101
0000
,
0001
1000
0100
1000
,
1001
0000
0101
0000
,
0100
0010
0100
0001
,
0011
0000
1100
0000
,
1000
0001
0100
0010
,
0100
0001
0010
0100
,
0010
0000
0002
0000
,
1003
0000
1010
0000
,
0010
0100
0001
0010
,
0011
0000
0110
0000
,
0100
1000
0001
0100
,
0101
0000
0110
0000
,
0100
0001
0010
0100
,
0010
0001
0100
0001
,
0100
0010
0200
0000
,
0310
0000
0100
0000
,
0010
0000
1000
0100
,
0010
0000
0001
0000
,
0100
0000
0010
1000
,
0100
0000
1000
0000
,
0001
0000
0100
0001
,
0010
0000
0100
0000
,
0010
0001
0100
0010
,
0100
0000
0010
0000
,
1000
0000
0010
1000
,
0001
0000
1000
0000
,
0010
0000
0100
0010
,
1000
0001
0010
0001
,
0010
0001
0010
0001
,
1000
0100
0010
0100
,
0010
0100
0010
0100
,
0110
0020
0000
0000
0032
2000
0003
0000
,
3020
0200
0030
0320
2030
0200
3000
0000
,
0320
0200
0030
0000
2300
0002
3000
0000
,
0203
0020
0300
2030
3020
2000
0030
0000
,
3001
0000
0100
0000
0010
0100
0010
0000
,
1000
0000
0100
0000
0010
0100
1000
0000
,
0001
0000
1000
0000
0010
1000
0100
0000
,
0010
0000
0100
0000
0220
0000
0000
0330
,
1001
0001
1000
0000
,
0010
1000
0100
0000
,
0010
0100
1000
0000
,
0010
1000
0001
0000
,
1000
0001
0100
0000
,
0010
1000
0100
0000
,
0010
0100
1000
0000
,
0010
1000
0001
0000
,
0100
0010
1000
0100
,
0010
0100
1000
0010
,
1000
0001
0100
0001
,
0010
0001
1000
0010
,
1010
0000
0101
0000
,
1001
0000
0110
0000
,
0020
0000
0200
0030
,
0310
0100
0002
1003
,
0001
0100
0010
1000
,
0100
0010
0100
1000
,
0010
1000
0010
0100
,
0001
0010
0001
1000
,
0100
0010
0100
1000
,
0010
0100
0010
1000
,
0100
0010
0001
0100
,
0001
1000
0010
0000
,
1010
1010
0010
0100
,
0010
1000
0001
0000
,
1001
1001
0001
0010
,
0100
0010
0100
1000
,
1100
0000
1001
0000
,
0011
0000
0101
0000
,
0001
0010
0100
0010
,
0110
1001
0002
1003
,
0220
0000
0000
0000
,
0000
0000
0000
0000
,
0330
0000
0000
0000
;

//---------------dance-single - ----------------
#NOTES:
     dance-single:
     :
     Beginner:
     2:
     0.187,0.384,0.114,0.014,0.000: // measure 1
0000
0000
0000
0000
,  // measure 2
0000
0000
0000
0000
,  // measure 3
0000
0000
0000
0000
,  // measure 4
0000
0000
0000
0000
,  // measure 5
0110
0000
0000
0000
,  // measure 6
1001
0000
0000
0000
,  // measure 7
0001
0000
0000
0000
,  // measure 8
1000
0000
0010
0000
,  // measure 9
0100
0000
0100
0000
,  // measure 10
0010
0000
0010
0000
,  // measure 11
1000
0000
1000
0000
,  // measure 12
0001
0000
0001
0000
,  // measure 13
1000
0000
0100
0000
,  // measure 14
0010
0000
0001
0000
,  // measure 15
0100
0000
0000
0000
,  // measure 16
0010
0000
0000
0000
,  // measure 17
0100
0000
0100
0000
,  // measure 18
0100
0000
0000
0000
,  // measure 19
0010
0000
0010
0000
,  // measure 20
0010
0000
0000
0000
,  // measure 21
1000
0000
1000
0000
,  // measure 22
1000
0000
0000
0000
,  // measure 23
0001
0000
0010
0000
,  // measure 24
0100
0100
0100
0000
,  // measure 25
0010
0000
0010
0000
,  // measure 26
0001
0000
0000
0000
,  // measure 27
1000
0000
1000
0000
,  // measure 28
0100
0000
0000
0000
,  // measure 29
0010
0000
0010
0000
,  // measure 30
0100
0000
0000
0000
,  // measure 31
0010
0000
0001
0000
,  // measure 32
1000
0000
0000
0000
,  // measure 33
0001
0000
0010
0000
,  // measure 34
0001
0000
0100
0000
,  // measure 35
0010
0000
1000
0000
,  // measure 36
0010
0000
0100
0000
,  // measure 37
0001
0000
1000
0000
,  // measure 38
0001
0000
0010
0000
,  // measure 39
0100
0000
1000
0000
,  // measure 40
0001
0000
0000
0000
,  // measure 41
1001
0000
1000
0000
,  // measure 42
0010
0000
0100
0000
,  // measure 43
0001
0000
0001
0000
,  // measure 44
0010
0000
0100
0000
,  // measure 45
0010
0000
0000
0000
,  // measure 46
0000
0000
0000
0000
,  // measure 47
0100
0000
0000
0000
,  // measure 48
0000
0000
0000
0000
,  // measure 49
0110
0000
0001
0000
,  // measure 50
1000
0000
0010
0000
,  // measure 51
0100
0000
0010
0000
,  // measure 52
0100
0000
0001
0000
,  // measure 53
1000
0001
0100
0010
,  // measure 54
0100
0001
0010
0100
,  // measure 55
0010
0010
0010
0000
0001
0001
0001
0000
,  // measure 56
1000
0001
1000
0001
1000
0000
0000
0000
,  // measure 57
0001
0000
0100
0000
,  // measure 58
0010
0000
0000
0000
,  // measure 59
0100
0000
0001
0000
,  // measure 60
0010
0000
0000
0000
,  // measure 61
0100
0000
0010
0000
,  // measure 62
0001
0000
0000
0000
,  // measure 63
1000
0000
0010
0000
,  // measure 64
1000
0000
0000
0000
,  // measure 65
1001
0000
1000
0000
,  // measure 66
0100
0000
0100
0000
,  // measure 67
0110
0000
0010
0000
,  // measure 68
0001
0000
0001
0000
,  // measure 69
1001
0000
1001
0000
,  // measure 70
0110
0000
0110
0000
,  // measure 71
1001
0000
0110
0000
,  // measure 72
0100
0000
0010
0010
,  // measure 73
0010
0000
0100
0000
,  // measure 74
0001
0000
0010
0010
,  // measure 75
0010
0000
0001
0000
,  // measure 76
1000
0000
0100
0100
,  // measure 77
0100
0000
0010
0000
,  // measure 78
0001
0000
0100
0100
,  // measure 79
0100
0000
0010
0000
,  // measure 80
1000
0000
0001
0001
,  // measure 81
0001
0000
1000
0000
,  // measure 82
0100
0000
0010
0010
,  // measure 83
0010
0000
0100
0000
,  // measure 84
1000
0000
0001
0001
,  // measure 85
0001
0000
1000
0000
,  // measure 86
0010
0000
0100
0000
,  // measure 87
0001
0000
1000
0000
,  // measure 88
1001
1001
0000
0110
,  // measure 89
0220
0000
0000
0000
,  // measure 90
0000
0000
0000
0000
,  // measure 91
0330
0000
0000
0000
;
