#TITLE:Astrofalcon;
#SUBTITLE:;
#ARTIST:Dr. Tanner;
#TITLETRANSLIT:;
#SUBTITLETRANSLIT:;
#ARTISTTRANSLIT:;
#CREDIT:TaroNuke;
#BANNER:bn.png;
#BACKGROUND:bg.png;
#LYRICSPATH:;
#CDTITLE:;
#MUSIC:Astrofalcon.ogg;
#OFFSET:-0.052;
#SAMPLESTART:26.060;
#SAMPLELENGTH:12.000;
#SELECTABLE:YES;
#DISPLAYBPM:166.000;
#BPMS:0.000=166.000,264.000=83.000;
#STOPS:;
#BGCHANGES:;

//---------------dance-single - TaroNuke----------------
#NOTES:
     dance-single:
     TaroNuke:
     Hard:
     9:
     0.696,0.806,0.341,0.701,1.000: // measure 1
0000
0000
0000
0000
,  // measure 2
0000
0000
0000
0000
,  // measure 3
0000
0000
0000
0000
,  // measure 4
0000
0000
0000
0000
,  // measure 5
1100
0000
0000
0101
0000
0000
1100
0000
1000
0100
0000
0010
,  // measure 6
0001
0000
0000
1010
0000
0000
0011
0000
0001
0100
0000
0010
,  // measure 7
1000
0000
0000
0011
0000
0000
1010
0000
1000
0010
0000
0100
,  // measure 8
0001
0010
0100
1000
0010
0100
0001
0010
0100
1000
0010
0100
,  // measure 9
0002
0000
0000
0000
,  // measure 10
0000
0000
0000
0000
,  // measure 11
1003
0000
1000
0001
0000
0001
0100
0000
0100
0010
0000
0010
,  // measure 12
1000
0100
0010
0001
0100
0010
0100
0000
0100
0000
0100
0001
,  // measure 13
1000
0000
0100
0000
0001
0000
0100
1000
0000
0001
1000
0010
,  // measure 14
1000
0000
0010
0000
0100
0000
0001
0000
0000
0010
0100
1000
,  // measure 15
0001
0000
0001
1000
0000
1000
0100
0000
0100
0010
0000
0010
,  // measure 16
0001
0100
0010
1000
0100
0010
0100
0000
0100
0000
0100
1000
,  // measure 17
0001
0000
0100
0000
1000
0000
0100
0001
0000
1000
0001
0010
,  // measure 18
0002
0000
0023
0000
0230
0000
2300
0000
3020
0000
0230
0000
,  // measure 19
0301
0000
0000
0101
0000
0100
0001
0000
0001
1000
0000
0100
,  // measure 20
1000
0100
0010
0001
0100
0010
0000
0000
1001
0000
1000
0100
,  // measure 21
0020
0000
0230
0000
2300
0000
3001
1000
0000
0001
0010
0100
,  // measure 22
1000
0000
0020
0000
0230
0000
0302
0000
0003
1000
0100
0010
,  // measure 23
0001
0000
0000
1100
0000
0100
1000
0000
1000
0001
0000
0100
,  // measure 24
0001
0010
0100
1000
0010
0100
0000
0000
1001
0000
0001
0100
,  // measure 25
0020
0000
2030
0000
3200
0000
1300
0001
0000
1000
0010
0100
,  // measure 26
0001
0000
2000
0000
3020
0000
0130
0001
0010
0100
1000
0001
,  // measure 27
1000
0000
1000
0100
0000
0100
0001
0000
0001
0100
0000
0100
,  // measure 28
1000
0000
1000
0010
0000
0010
0001
0000
0001
0010
0000
0010
,  // measure 29
1000
0000
1000
0100
0000
0100
0001
0000
0001
0100
0000
0100
,  // measure 30
0010
0000
0010
0001
0000
0001
0100
0000
0100
0010
0000
0010
,  // measure 31
1000
0000
1000
0010
0000
0010
0001
0000
0001
0010
0000
0010
,  // measure 32
0100
0000
0100
0001
0000
0001
0010
0000
0010
0100
0000
0100
,  // measure 33
1000
0000
1000
0010
0000
0010
0001
0000
0001
0100
0000
0100
,  // measure 34
1000
0000
1000
0100
0000
0100
0001
0000
0001
0010
0000
0010
,  // measure 35
1000
0000
0100
0000
0000
2000
0000
0000
0000
3100
0000
0000
,  // measure 36
0001
0000
0100
0000
0000
0002
0000
0000
0003
0000
0000
0000
,  // measure 37
0001
0000
0010
0000
0000
0002
0000
0000
0000
0013
0000
0000
,  // measure 38
1000
0000
0010
0000
0000
2000
0000
0000
3000
0000
0000
0000
,  // measure 39
1000
0000
0100
0000
0000
2200
0000
0000
3300
1100
0000
0000
,  // measure 40
0100
0000
0001
0000
0000
0202
0000
0000
0303
0000
0000
0000
,  // measure 41
0001
0000
0010
0000
0000
0022
0000
0000
0033
0011
0000
0000
,  // measure 42
0010
0000
1000
0000
0000
2020
0000
0000
3030
0000
0000
0000
,  // measure 43
2000
3001
0200
0301
,  // measure 44
0020
0001
0000
0031
,  // measure 45
0012
1003
0200
1300
,  // measure 46
0020
0000
0000
1030
0000
0000
0000
1000
0000
2000
0000
0000
,  // measure 47
3002
0000
1000
0003
0020
0000
1000
0030
,  // measure 48
1200
0000
0000
0000
0000
0000
0000
0000
0000
0000
0000
0000
1000
0000
0000
0000
1000
0000
0000
0000
1000
0300
0000
0000
,  // measure 49
2100
0000
0000
3000
0000
0100
0020
0000
0000
0030
0000
0001
,  // measure 50
0020
0001
0100
0031
,  // measure 51
0001
0000
0000
0101
0000
0100
0001
0000
0001
1000
0000
0100
,  // measure 52
1000
0100
0010
0001
0100
0010
0000
0000
1001
0000
1000
0100
,  // measure 53
0020
0000
0230
0000
2300
0000
3001
1000
0000
0001
0010
0100
,  // measure 54
1000
0000
0020
0000
0230
0000
0302
0000
0003
1000
0100
0010
,  // measure 55
0001
0000
0000
1100
0000
0100
1000
0000
1000
0001
0000
0100
,  // measure 56
0001
0010
0100
1000
0010
0100
0000
0000
1001
0000
0001
0100
,  // measure 57
0020
0000
2030
0000
3200
0000
1300
0001
0000
1000
0010
0100
,  // measure 58
0001
0000
2000
0000
3020
0000
0130
0001
0010
0100
1000
0001
,  // measure 59
2002
0000
0000
3003
0000
0220
0000
0000
0330
0000
0000
2002
,  // measure 60
0000
0000
0000
3003
,  // measure 61
2200
0000
0000
3300
0000
0022
0000
0000
0033
0000
0000
2002
,  // measure 62
0000
0000
0000
3003
,  // measure 63
1000
0100
1000
0001
0100
0001
1000
0100
1000
0001
0000
2002
,  // measure 64
0000
0000
0000
3003
,  // measure 65
1000
0000
1000
0010
0000
0010
0100
0000
0100
0001
0000
1000
,  // measure 66
0001
0010
0100
1000
0010
0100
0010
0000
1010
0000
0011
0000
,  // measure 67
2002
0000
0000
0000
,  // measure 68
3003
0000
0000
0000
;

//---------------dance-single - tarooooou~----------------
#NOTES:
     dance-single:
     tarooooou~:
     Beginner:
     1:
     0.119,0.269,0.100,0.040,0.000:
0000
0000
0000
0000
,
0000
0000
0000
0000
,
0000
0000
0000
0000
,
0000
0000
0000
0000
,
1000
0000
0000
0000
,
1000
0000
0000
0000
,
0001
0000
0000
0000
,
0001
0000
0000
0000
,
2002
0000
0000
0000
,
0000
0000
3003
0000
,
1000
0000
0000
0000
,
0000
0000
0000
0000
,
0010
0000
0000
0000
,
0000
0000
0000
0000
,
0001
0000
0000
0000
,
0000
0000
0000
0000
,
0100
0000
0000
0000
,
1000
0000
1000
0000
,
0001
0000
0000
0000
,
0010
0000
0000
0000
,
0100
0000
0000
0000
,
1000
0000
0000
0000
,
1000
0000
0000
0000
,
0010
0000
0000
0000
,
0100
0000
0000
0000
,
0001
0000
0000
0000
,
1000
0000
0000
0000
,
1000
0000
0000
0000
,
1000
0000
0000
0000
,
1000
0000
1000
0000
,
0001
0000
0000
0000
,
0001
0000
0000
0000
,
0001
0000
0000
0000
,
0010
0010
0010
0000
,
1000
0000
0000
0000
,
0110
0000
0000
0000
,
0001
0000
0000
0000
,
0110
0000
0000
0000
,
1000
0000
0000
0000
,
0110
0000
0000
0000
,
0001
0000
0000
0000
,
0110
0000
0000
0000
,
1000
0000
0000
0000
,
0000
0000
0000
0000
,
0001
0000
0000
0000
,
0000
0000
0000
0000
,
1001
0000
0000
0000
,
1001
0000
0000
0000
,
0110
0000
0110
0000
,
0100
0100
0100
0000
,
0001
0000
0000
0000
,
0001
0000
0000
0000
,
1000
0000
0000
0000
,
1000
0000
0000
0000
,
0010
0000
0000
0000
,
0010
0000
0000
0000
,
0100
0000
0100
0000
,
0100
0000
0000
0000
,
1000
0000
0100
0000
,
0001
0000
0000
0000
,
1000
0000
0100
0000
,
0001
0000
0000
0000
,
1000
0000
0010
0000
,
0001
0000
0000
0000
,
1000
0000
0010
0000
,
0001
0000
0000
0000
,
2002
0000
0000
0000
,
3003
0000
0000
0000
;

//---------------dance-single - TaroNuke----------------
#NOTES:
     dance-single:
     TaroNuke:
     Medium:
     7:
     0.534,0.571,0.491,0.561,0.346:
0000
0000
0000
0000
,
0000
0000
0000
0000
,
0000
0000
0000
0000
,
0000
0000
0000
0000
,
1000
1100
0001
0101
,
1000
0000
0000
1010
0000
0000
0001
0000
0000
0011
0000
0001
,
1000
0000
0000
0011
0000
0000
0001
0000
0000
1010
0000
1000
,
0001
0000
0100
0001
0000
0010
0100
0000
1000
0000
0010
0100
,
0002
0000
0000
0000
,
0000
0000
0000
0000
,
1003
0000
0100
1000
0000
0000
0001
0000
0100
0001
0000
0000
,
1000
0000
0001
0010
0000
0000
0100
0000
0100
0000
0100
0000
,
1000
0100
0001
0010
,
1000
0010
0100
0001
,
1000
0000
0010
1000
0000
0000
0001
0000
0010
0001
0000
0000
,
1000
0000
0001
0010
0000
0000
0100
0000
0100
0000
0100
0000
,
1000
0010
0001
0100
,
2000
3002
2003
3001
,
1001
0110
1001
0110
,
1000
0000
1000
0100
0000
0100
0010
0000
0010
0001
0000
0000
,
0011
1100
0011
1001
,
0001
0000
0001
0100
0000
0100
0010
0000
0010
1000
0000
0000
,
1010
0101
1010
1001
,
1000
0000
1000
0100
0000
0100
0010
0000
0010
0001
0000
0000
,
1001
0110
1001
0110
,
1000
0000
1000
0100
0000
0100
0001
0000
0001
0010
0000
0010
,
2000
3200
2300
3200
,
0320
0032
0023
0032
,
2003
3020
2030
3020
,
0230
0302
0023
0230
,
2300
3200
0320
0032
,
2003
3020
0230
0302
,
0023
0230
0320
0130
,
0110
1001
0110
1001
,
2000
0000
0000
0000
0000
3002
0000
0000
0000
0203
0000
0000
,
0320
0000
0000
0000
0000
2030
0000
0000
0000
3000
0000
0000
,
0002
0000
0000
0000
0000
2003
0000
0000
0000
3200
0000
0000
,
0320
0000
0000
0000
0000
0032
0000
0000
0000
0003
0000
0000
,
1000
0000
0020
0000
0000
0230
0000
0000
0000
0301
0000
0000
,
0010
0000
0200
0000
0000
2300
0000
0000
0000
3000
0000
0000
,
0001
0000
0020
0000
0000
0230
0000
0000
0000
1300
0000
0000
,
0010
0000
0200
0000
0000
0302
0000
0000
0000
0003
0000
0000
,
1000
1000
0001
0001
,
0100
0100
0100
0000
,
1001
0001
1000
1000
,
0100
0100
0100
0000
,
1001
1000
0010
0010
,
0100
0100
0100
0000
,
1001
0000
1001
0000
,
0010
0010
0010
0010
,
1001
0110
1001
0110
,
1000
0000
1000
0100
0000
0100
0001
0000
0001
0010
0000
0000
,
0011
1100
0011
1001
,
0001
0000
0001
0100
0000
0100
1000
0000
1000
0010
0000
0000
,
1010
0101
1010
1001
,
1000
0000
1000
0100
0000
0100
0001
0000
0001
1000
0000
0000
,
1001
0110
1001
0110
,
1000
0000
1000
0100
0000
0100
0001
0000
0001
0010
0000
0010
,
2000
0000
0000
0000
0000
0200
3000
0000
0000
0000
0000
0302
,
0000
0000
0000
0000
,
2003
0000
0000
0000
0000
0200
3000
0000
0000
0000
0000
0302
,
0000
0000
0000
0000
,
1003
0000
1000
0100
0000
0100
1000
0000
0001
0100
0000
0100
,
0001
1010
0101
1010
,
0001
0000
0001
0010
0000
0010
0001
0000
1000
0010
0000
0010
,
1000
0000
0000
0001
0000
0000
1000
0000
0001
0000
0100
0000
,
0020
0000
0000
0000
,
0030
0000
0000
0000
;

//---------------dance-single - Tarooooou~----------------
#NOTES:
     dance-single:
     Tarooooou~:
     Easy:
     4:
     0.311,0.336,0.100,0.321,0.000:
0000
0000
0000
0000
,
0000
0000
0000
0000
,
0000
0000
0000
0000
,
0000
0000
0000
0000
,
1000
1000
0001
0001
,
1000
1000
0001
0001
,
0100
0100
0010
0010
,
0100
0100
0100
0000
,
2002
0000
0000
0000
,
0000
0000
3003
0000
,
2000
0000
3200
0000
,
0320
0000
0000
0000
,
0032
0000
0203
0000
,
0320
0000
0000
0000
,
2030
0000
3200
0000
,
0302
0000
0000
0000
,
2003
0000
3020
0000
,
0032
0010
0010
0010
,
1003
1000
1000
1000
,
1000
0010
0100
0001
,
0010
0010
0010
0010
,
0020
0000
0000
0000
,
0031
0001
0001
0001
,
0001
0010
0100
1000
,
0010
0010
0010
0010
,
0020
0000
0000
0000
,
1030
0100
0010
0100
,
0001
0100
0010
0100
,
0001
0100
0010
0100
,
1000
0010
0100
0001
,
0100
0010
0100
0001
,
0100
0010
0100
1000
,
0100
0010
0100
0001
,
0010
0100
1000
0010
,
1000
0000
0100
0000
,
0001
0000
0001
0000
,
0001
0000
0010
0000
,
1000
0000
1000
0000
,
1100
0000
1100
0000
,
0101
0000
0101
0000
,
0011
0000
0011
0000
,
1010
0000
1010
0000
,
2000
0000
3200
0000
,
0320
0000
0000
0000
,
0032
0000
0203
0000
,
0320
0000
0000
0000
,
2030
0000
3200
0000
,
0302
0000
0000
0000
,
2003
0000
3020
0000
,
0032
0010
0010
0010
,
1003
0100
0001
0010
,
2000
0000
0000
3000
,
0001
0100
1000
0010
,
0001
0001
0001
0000
,
0001
0010
1000
0100
,
0002
0000
0000
0003
,
1000
0010
0001
0100
,
1000
1000
1000
0000
,
1000
1000
0100
0100
,
0010
0010
0010
0000
,
0001
0001
0100
0100
,
0010
0010
0010
0000
,
1000
0100
1000
0001
,
0100
0001
1000
0100
,
0010
0001
0100
0010
,
1000
1000
0001
0001
,
2002
0000
0000
0000
,
3003
0000
0000
0000
;
