#TITLE:The Metro;
#SUBTITLE:;
#ARTIST:Berlin;
#TITLETRANSLIT:;
#SUBTITLETRANSLIT:;
#ARTISTTRANSLIT:;
#GENRE:;
#CREDIT:Telperion;
#BANNER:metro-bn.png;
#BACKGROUND:metro-bg.png;
#LYRICSPATH:;
#CDTITLE:;
#MUSIC:Metro.ogg;
#OFFSET:-0.077347;
#SAMPLESTART:36.987999;
#SAMPLELENGTH:22.681999;
#SELECTABLE:YES;
#DISPLAYBPM:169.149994;
#BPMS:0.000000=169.149994;
#STOPS:;
#DELAYS:;
#TIMESIGNATURES:0.000000=4=4
;
#BGCHANGES:;
#KEYSOUNDS:;
#ATTACKS:;

//---------------dance-single - Telperion----------------
#NOTES:
     dance-single:
     Telperion:
     Hard:
     7:
     0.391,0.504,0.032,0.408,0.000,287.000,4.000,51.000,0.000,0.000,0.000,0.000,0.391,0.504,0.032,0.408,0.000,287.000,4.000,51.000,0.000,0.000,0.000,0.000:
0000
0000
0000
0000
,
0000
0000
0000
0000
,
2000
0001
0000
3001
,
0010
0001
0010
0100
,
0020
0001
0000
0031
,
1000
0000
1000
0000
0001
0010
0010
0000
,
0002
1000
0000
1003
,
0010
1000
0001
0100
,
0020
0001
0000
0100
,
0000
0000
1030
0000
0001
1000
1000
0000
,
0100
0000
0100
0000
,
0010
0100
0010
0100
1000
0001
1000
0001
,
0100
0000
0100
0000
,
0010
0000
0000
0000
0010
0100
0010
0000
,
0010
0000
1000
0000
,
0001
1000
0001
1000
0100
0020
0000
0000
,
0100
0030
0100
0000
,
0100
0000
0000
0000
0100
0010
0100
0000
,
1000
0001
1000
0001
0100
0000
0000
0200
,
0000
0310
0000
0010
,
0100
0001
0000
1000
0000
0100
0000
0010
,
0000
0100
0000
1000
0000
0001
1000
0000
,
1000
0001
0100
0010
0001
0000
0000
0000
,
0010
0100
0001
1000
0100
0000
0000
0000
,
0020
0001
0000
0031
,
0100
0000
1000
0000
0001
1000
0001
1000
,
0020
0000
0000
0000
,
0230
0000
0000
0000
,
2300
0000
0000
0000
,
3100
0000
0001
0000
0010
0000
0001
1000
,
0002
0000
0000
0000
,
0203
0000
0000
0000
,
0320
0000
0000
0000
,
0000
0000
0000
0000
0030
0000
0010
0010
,
0200
0000
0010
0301
,
0020
0000
0100
0031
,
2000
0010
0000
3010
,
0002
0000
0010
0000
0000
0000
0013
0010
,
0002
0023
0230
2300
,
3002
0000
0000
0203
0000
0000
0300
0000
,
0220
0000
0000
0000
,
0000
0000
0000
0000
0330
0000
0010
0100
,
0001
0010
0100
0010
,
1000
0010
0001
0100
,
0020
1000
0000
0001
,
0000
0000
1030
0000
0000
0001
1001
0000
,
0010
0100
1000
0100
,
0001
0100
0010
0100
,
2000
0010
0000
0001
,
0000
0000
3010
0000
0000
0001
1001
0000
,
0010
0100
0000
0100
,
0010
0001
0010
0001
1000
0002
0000
0000
,
0103
0010
1000
0010
,
0100
0000
1000
0000
0100
0010
0010
0000
,
1000
0000
0000
1000
0000
0000
1000
0000
,
0001
0010
0001
1000
0020
0000
0030
0000
,
0100
0001
1000
0100
,
0010
0000
1000
0000
0010
0001
0001
0000
,
1000
0001
1000
0001
0100
0010
0000
0000
,
0010
0100
1000
0100
,
0001
0010
0000
0100
0000
0010
0000
0001
,
0000
1000
0000
0020
0000
0000
0130
0000
,
1000
0100
0010
0100
0001
0000
0000
0000
,
0001
0010
0100
0010
1000
0000
0000
0000
,
0010
0001
1000
0001
,
0100
0010
0001
0010
,
2000
0000
0000
0000
,
3200
0000
0320
0000
,
0031
0010
0100
1000
,
0001
0000
0100
0000
0001
0000
1000
1000
,
0002
0000
0000
0000
,
0203
0000
0000
0000
,
0310
0100
0001
0100
,
0010
0000
0100
0000
0001
0000
1000
1000
,
0002
0000
0003
0010
0002
0000
0003
0001
,
2000
0000
3000
0010
0200
0000
0300
0010
,
2000
0000
0002
0000
,
3000
0000
0003
0000
,
2000
0000
3200
0000
0320
0000
0031
1000
,
0010
0000
0000
0010
0000
0000
0100
0000
,
0010
0100
0010
0100
,
0010
0100
0010
0100
,
0002
2003
3002
2003
,
3002
2003
3002
1003
,
0110
0000
0000
0000
;

//---------------dance-double - Telperion----------------
#NOTES:
     dance-double:
     Telperion:
     Hard:
     7:
     0.348,0.504,0.032,0.224,0.000,272.000,4.000,28.000,0.000,0.000,0.000,0.000,0.348,0.504,0.032,0.224,0.000,272.000,4.000,28.000,0.000,0.000,0.000,0.000:
00000000
00000000
00000000
00000000
,
00000000
00000000
00000000
00000000
,
10000000
00100000
01000000
00100000
,
00010000
00001000
00000010
00000001
,
00000100
00000010
00001000
00000010
,
00000100
00000000
00000001
00000000
00000010
00000100
00000010
00000000
,
00000001
00000010
00000100
00000010
,
00001000
00010000
00100000
10000000
,
00010000
00010000
10000000
10000000
,
01000000
00000000
01000000
00000000
00100000
01000000
00100000
00000000
,
10010000
00000000
00010000
00000000
,
10000000
00010000
01000000
00001000
00010000
00000100
00001000
00000001
,
00000100
00000000
00000100
00000000
,
00000001
00000000
00000000
00000000
00000010
00000100
00000010
00000000
,
00000001
00000000
00000001
00000000
,
00001000
00000100
00010000
00000000
00001000
01000000
00010000
00000000
,
10000000
00000000
10000000
00000000
,
00010000
00000000
00000000
00000000
10000000
00010000
10000000
00000000
,
01000000
00000000
01000000
00100000
01000000
00000000
10000000
00000000
,
00010000
01000000
00001000
00000000
,
00010000
00000100
00000000
00000010
00000000
00000100
00000000
00001000
,
00000000
00000001
00000000
00000100
00000000
00000010
00000100
00000000
,
00000001
00001000
00000010
00010000
00001000
00000000
00000000
00000000
,
00010000
00001000
00100000
00010000
10000000
00000000
00000000
00000000
,
00010000
00100000
01000000
00100000
,
00001000
00000000
01000000
00000000
00100000
01000000
00100000
01000000
,
20000000
00000000
00000000
00000000
,
32000000
00000000
00000000
00000000
,
03020000
00000000
00000000
00000000
,
10030000
00010000
00000000
00010000
,
00200000
00000000
00000000
00000000
,
02300000
00000000
00000000
00000000
,
03020000
00000000
00000000
00000000
,
00030000
00000000
00000000
00000000
,
00002000
00000000
00000000
00000000
,
00003200
00000000
00000000
00000000
,
00000302
00000000
00000000
00000000
,
00001003
00000000
00000010
00000000
00000000
00000000
00000010
00001000
,
00000001
00000010
00000100
00001000
,
00010000
00100000
01000000
10000000
,
00200000
00000000
00000000
00000000
,
00000000
00000000
00000000
00000000
00300000
00000000
01000000
00100000
,
10000000
01000000
00100000
00001000
,
00010000
00001000
00100000
01000000
,
10000000
00010000
01000000
00000000
00100000
00000000
01000000
00000000
,
00001000
00010000
00000100
00000000
00000010
00000000
00000000
00000000
,
00000001
00000100
00000010
00010000
,
00001000
00000100
00000010
00001000
,
00000001
00000010
00000001
00000000
00001000
00000000
00000100
00000000
,
00000010
00000100
00000010
00000000
00000100
00010000
00010000
00000000
,
00002000
00000000
00000000
00000000
,
00013000
00001000
01000000
00010000
10000000
00100000
00000000
00000000
,
01000000
00100000
00000000
00100000
,
10000000
00110000
00000000
00010000
,
00100000
00000000
00100000
00000000
,
00010000
00100000
00001000
00010000
00000010
00001000
00000000
00000000
,
00000010
00000100
00001000
00000100
,
00000001
00000100
00000010
00000000
,
00001000
00000001
00000100
00001000
,
00010000
00100000
10000000
01000000
,
00100000
01000000
00000000
10000000
00000000
00010000
00000000
01000000
,
00000000
00100000
00000000
00010000
00000000
00100000
01000000
00000000
,
00010000
10000000
00010000
10000000
00010000
00000000
00000000
00000000
,
00100000
01000000
00100000
01000000
00100000
00000000
00000000
00000000
,
00010000
00010000
10000000
10000000
,
00100000
00000000
01000000
00000000
00010000
01000000
00001000
00000000
,
00012000
00000000
00000000
00000000
,
00203000
00000000
00000000
00000000
,
02300000
00000000
00000000
00000000
,
03000000
00000000
00000000
00000000
00000000
00000000
00010000
10000000
,
00200000
00000000
00000000
00000000
,
02300000
00000000
00000000
00000000
,
23000000
00000000
00000000
00000000
,
30000000
00000000
00000000
00000000
,
01000000
00100000
01000000
00010000
,
00200000
00000000
00300000
01000000
00020000
00000000
00030000
00001000
,
00000200
00000000
00000300
00000100
00000002
00000000
00000000
00000000
,
00000003
00000000
00000000
00000000
,
00000001
00000010
00000100
00001000
,
00010000
00100000
01000000
10000000
,
00100000
01000000
00100000
01000000
,
00100000
01000000
00100000
01000000
,
00020000
20030000
30020000
20030000
,
30020000
20030000
30020000
10030000
,
01100000
00000000
00000000
00000000
;

//---------------dance-single - Telperion----------------
#NOTES:
     dance-single:
     Telperion:
     Medium:
     5:
     0.242,0.269,0.056,0.200,0.000,180.000,7.000,25.000,0.000,0.000,0.000,0.000,0.242,0.269,0.056,0.200,0.000,180.000,7.000,25.000,0.000,0.000,0.000,0.000:
0000
0000
0000
0000
,
0000
0000
0000
0000
,
1000
0001
0000
0001
,
0010
0001
0000
1000
,
0010
1000
0000
1000
,
0001
1000
0000
1001
,
0010
0100
0000
0100
,
1000
0100
0000
1000
,
0001
0100
0000
0100
,
0010
0100
0000
0110
,
0001
0000
0000
0000
,
0001
0010
0100
1000
,
0010
0000
0010
0000
,
0100
0000
0100
0010
,
1000
0000
0000
0000
,
1000
0010
0100
0001
,
0010
0000
0010
0000
,
0100
0000
0100
0000
,
0010
0100
0001
0100
,
0010
0001
1000
0000
,
0010
0000
0000
0100
0000
1000
0000
0100
,
0000
0010
0000
0001
0000
0000
0010
0000
,
1000
1000
1000
0000
,
0001
0001
0001
0000
,
0010
0001
0010
0100
,
0010
1000
0010
0001
,
2001
0000
0000
0000
,
3020
0000
0000
0000
,
0230
0000
0000
0000
,
0300
0000
0000
0000
,
0002
0000
0000
0000
,
0023
0000
0000
0000
,
0230
0000
0000
0000
,
0300
0000
0000
0000
,
0120
0000
0000
0000
,
0032
0000
0000
0000
,
2003
0000
0000
0000
,
3000
0000
0000
0000
,
0010
0100
1000
0001
,
0010
1000
0100
0010
,
0002
0000
0000
0000
,
0000
0000
0003
0000
,
1000
0100
0010
0100
,
0001
0100
0010
0000
,
0001
0100
0010
0000
,
0100
0001
0010
0000
,
0001
0100
0010
0100
,
1000
0100
0001
0000
,
1000
0000
1000
0000
,
0001
0000
0001
0000
,
0010
0000
0000
0000
,
0001
0010
0100
1000
,
0001
0000
0001
0000
,
1000
0000
1000
0000
,
0010
0000
0000
0000
,
1000
0010
0100
0001
,
0100
0000
0100
0000
,
0010
0000
0010
0000
,
1000
0100
0001
0100
,
1000
0000
0000
0000
,
0001
0000
0000
0100
0000
1000
0000
0100
,
0000
0010
0000
1000
0000
0000
0001
0000
,
0010
0010
0010
0000
,
0100
0100
0100
0000
,
1000
0000
1000
0000
,
0001
0000
1000
0000
,
0120
0000
0000
0000
,
2030
0000
0000
0000
,
3002
0000
0000
0000
,
0003
0000
0000
0000
,
0120
0000
0000
0000
,
0230
0000
0000
0000
,
2300
0000
0000
0000
,
3000
0000
0000
0000
,
0002
0000
0000
0000
,
2003
0000
0000
3000
2000
0000
0000
3000
,
2020
0000
0000
0000
,
3030
0000
0000
0000
,
0100
0010
0001
1000
,
0100
0001
0010
0100
,
1000
0000
1000
0000
,
1000
0000
1000
0000
,
2000
3000
2000
3000
,
2000
3000
2000
3000
,
0001
0000
0000
0000
;

//---------------dance-single - Telperion----------------
#NOTES:
     dance-single:
     Telperion:
     Easy:
     2:
     0.152,0.202,0.032,0.176,0.000,107.000,4.000,22.000,0.000,0.000,0.000,0.000,0.152,0.202,0.032,0.176,0.000,107.000,4.000,22.000,0.000,0.000,0.000,0.000:
0000
0000
0000
0000
,
0000
0000
0000
0000
,
0000
1000
0000
1000
,
0000
1000
0000
1000
,
0000
0001
0000
0001
,
0000
0001
0000
0001
,
0000
0010
0000
0010
,
0000
0010
0000
0010
,
0000
0100
0000
0100
,
0000
0010
0000
0001
,
1000
0000
0000
0000
,
0010
0000
0100
0000
,
0001
0000
0000
0000
,
0001
0000
0000
0000
,
1000
0000
0000
0000
,
0100
0000
0010
0000
,
0001
0000
0000
0000
,
1000
0000
0000
0000
,
0001
0000
0001
0000
,
0001
0000
0000
0000
,
1000
0000
1000
0000
,
0010
0000
0010
0000
,
0100
0100
0100
0000
,
0010
0000
1000
0000
,
0001
0000
0000
0000
,
0000
0000
0000
0000
,
0020
0000
0030
0000
,
0200
0000
0300
0000
,
2000
0000
3000
0000
,
0000
0000
0000
0000
,
0002
0000
0003
0000
,
0200
0000
0300
0000
,
0020
0000
0030
0000
,
0000
0000
0000
0000
,
0020
0000
0030
0000
,
0200
0000
0300
0000
,
0002
0000
0003
0000
,
0000
0000
0000
0000
,
0001
0010
0100
1000
,
0002
0000
0000
0000
,
0003
0000
0000
0000
,
0000
0000
0000
0000
,
0100
0000
0100
0000
,
0010
0000
0010
0000
,
1000
0000
1000
0000
,
0001
0000
0000
0000
,
0010
0000
0010
0000
,
0100
0000
0100
0000
,
1000
0000
0000
0000
,
0000
0000
0000
0000
,
0000
0001
0000
0001
,
0000
0001
0000
0001
,
0000
1000
0000
1000
,
0000
1001
0000
1000
,
0010
0000
0000
0000
,
0100
0000
0000
0000
,
0000
0001
0000
0001
,
0000
0001
0000
0001
,
0020
0000
0000
0000
,
0000
0000
0030
0000
,
0200
0000
0000
0000
,
0000
0000
0300
0000
,
1000
1000
1000
0000
,
0001
0000
1000
0000
,
0010
0000
0010
0000
,
0100
0000
0000
0000
,
1002
0000
0003
0000
,
0020
0000
0030
0000
,
0200
0000
0300
0000
,
0000
0000
0000
0000
,
2000
0000
3000
0000
,
0020
0000
0030
0000
,
0200
0000
0300
0000
,
0000
0000
0000
0000
,
2001
0000
3000
0000
,
0200
0000
0310
0000
,
0200
0000
1300
0000
,
0001
0000
0000
0000
,
1000
0010
0100
0001
,
2000
0000
0000
0000
,
3000
0000
0000
0000
,
0000
0000
0000
0000
,
0000
0000
0000
0000
,
0000
0000
0000
0000
,
0110
0000
0000
0000
;

//---------------dance-single - Blank----------------
#NOTES:
     dance-single:
     Blank:
     Beginner:
     1:
     0.075,0.069,0.008,0.112,0.000,51.000,1.000,14.000,1.000,0.000,0.000,0.000,0.075,0.069,0.008,0.112,0.000,51.000,1.000,14.000,1.000,0.000,0.000,0.000: // measure 1
0000
0000
0000
0000
,  // measure 2
0000
0000
0000
0000
,  // measure 3
1000
0000
0000
0000
,  // measure 4
1000
0000
0000
0000
,  // measure 5
0001
0000
0000
0000
,  // measure 6
0001
0000
0000
0000
,  // measure 7
0010
0000
0000
0000
,  // measure 8
0010
0000
0000
0000
,  // measure 9
0100
0000
0000
0000
,  // measure 10
0100
0000
0000
0000
,  // measure 11
0010
0000
0000
0000
,  // measure 12
0000
0000
0000
0000
,  // measure 13
0010
0000
0000
0000
,  // measure 14
0000
0000
0000
0000
,  // measure 15
0100
0000
0000
0000
,  // measure 16
0000
0000
0000
0000
,  // measure 17
0100
0000
0000
0000
,  // measure 18
0000
0000
0000
0000
,  // measure 19
1000
0000
0000
0000
,  // measure 20
1000
0000
0000
0000
,  // measure 21
0001
0000
0000
0000
,  // measure 22
0001
0000
0000
0000
,  // measure 23
0100
0000
0000
0000
,  // measure 24
0010
0000
0000
0000
,  // measure 25
0100
0000
0000
0000
,  // measure 26
0000
0000
0000
0000
,  // measure 27
0002
0000
0000
0000
,  // measure 28
0003
0000
0000
0000
,  // measure 29
2000
0000
0000
0000
,  // measure 30
3000
0000
0000
0000
,  // measure 31
0002
0000
0000
0000
,  // measure 32
0003
0000
0000
0000
,  // measure 33
2000
0000
0000
0000
,  // measure 34
3000
0000
0000
0000
,  // measure 35
0200
0000
0000
0000
,  // measure 36
0300
0000
0000
0000
,  // measure 37
0020
0000
0000
0000
,  // measure 38
0030
0000
0000
0000
,  // measure 39
0200
0000
0000
0000
,  // measure 40
0000
0000
0000
0000
,  // measure 41
0300
0000
0000
0000
,  // measure 42
0000
0000
0000
0000
,  // measure 43
1000
0000
0000
0000
,  // measure 44
1000
0000
0000
0000
,  // measure 45
0001
0000
0000
0000
,  // measure 46
0001
0000
0000
0000
,  // measure 47
1000
0000
0000
0000
,  // measure 48
1000
0000
0000
0000
,  // measure 49
0001
0000
0000
0000
,  // measure 50
0000
0000
0000
0000
,  // measure 51
0100
0000
0000
0000
,  // measure 52
0000
0000
0000
0000
,  // measure 53
0010
0000
0000
0000
,  // measure 54
0000
0000
0000
0000
,  // measure 55
0100
0000
0000
0000
,  // measure 56
0000
0000
0000
0000
,  // measure 57
0010
0000
0000
0000
,  // measure 58
0000
0000
0000
0000
,  // measure 59
1000
0000
0000
0000
,  // measure 60
1000
0000
0000
0000
,  // measure 61
0001
0000
0000
0000
,  // measure 62
0001
0000
0000
0000
,  // measure 63
0010
0000
0000
0000
,  // measure 64
0000
0000
0000
0000
,  // measure 65
0100
0000
0000
0000
,  // measure 66
0000
0000
0000
0000
,  // measure 67
2000
0000
0000
0000
,  // measure 68
3000
0000
0000
0000
,  // measure 69
0002
0000
0000
0000
,  // measure 70
0003
0000
0000
0000
,  // measure 71
2000
0000
0000
0000
,  // measure 72
3000
0000
0000
0000
,  // measure 73
0002
0000
0000
0000
,  // measure 74
0003
0000
0000
0000
,  // measure 75
0020
0000
0000
0000
,  // measure 76
0030
0000
0000
0000
,  // measure 77
0200
0000
0000
0000
,  // measure 78
0300
0000
0000
0000
,  // measure 79
0020
0000
0000
0000
,  // measure 80
0000
0000
0000
0000
,  // measure 81
0030
0000
0000
0000
,  // measure 82
0000
0000
0000
0000
,  // measure 83
0000
0000
0000
0000
,  // measure 84
0000
0000
0000
0000
,  // measure 85
0110
0000
0000
0000
,  // measure 86
0000
0000
0000
0000
,  // measure 87
M000
0000
0000
0000
;
