#TITLE:Flying High;
#SUBTITLE:;
#ARTIST:Freedom Call;
#TITLETRANSLIT:;
#SUBTITLETRANSLIT:;
#ARTISTTRANSLIT:;
#CREDIT:;
#BANNER:bn.PNG;
#BACKGROUND:bg.PNG;
#LYRICSPATH:;
#CDTITLE:;
#MUSIC:Flying High.ogg;
#OFFSET:-0.020;
#SAMPLESTART:60.420;
#SAMPLELENGTH:16.420;
#SELECTABLE:YES;
#BPMS:0.000=156.910;
#STOPS:;
#BGCHANGES:;

//---------------dance-single - ----------------
#NOTES:
     dance-single:
     :
     Hard:
     8:
     0.619,0.604,0.413,0.625,0.016:
0000
0000
0000
0000
,
0000
0000
0000
0000
,
0000
0000
0000
0000
,
0000
0000
1001
0011
,
1001
0000
1000
0010
0100
0000
0001
0010
,
0100
0000
0000
0000
1000
0000
0010
0000
0100
0000
0000
0001
0000
0000
0010
0000
,
0001
0100
0010
1000
0001
1000
0100
0010
,
0001
0010
0100
1000
0010
0000
0100
0001
,
0020
0000
0130
1000
0002
0000
0013
0001
,
0200
0000
0310
0100
0002
0000
0013
0100
,
2000
0000
0000
3020
0000
0000
0230
0000
,
0301
0010
1000
0010
0001
0100
0010
1000
,
0200
0000
0310
0001
2000
0000
3010
1000
,
0002
0000
0013
0001
0200
0000
0310
1000
,
0200
0000
0000
0320
0000
0000
0032
0000
,
1003
0010
0100
0001
0100
0000
0000
0000
,
1010
0000
1000
0100
0010
0000
0010
0001
,
0200
0320
2030
3002
,
0013
0000
0001
0100
0001
0000
0100
0010
,
0200
0000
0320
0000
2030
0000
3002
0003
,
1001
0000
1000
0010
1000
0000
0010
0100
,
0002
0000
0023
0000
0230
0000
2300
3000
,
1010
0000
0010
0100
0001
0000
0001
0010
,
0100
0000
0100
1000
0001
0010
0001
0100
,
0010
0000
1000
0100
0001
0000
0100
1000
,
0020
0000
0230
0000
0302
0000
0023
0030
,
0011
0000
0001
0100
0010
0000
1000
0100
,
0002
0000
0203
0000
2300
0000
3020
0030
,
1010
0000
0010
0100
0001
0000
0010
0001
,
0200
0000
0320
0000
2030
0000
3200
0300
,
0110
0000
0010
0001
1000
0000
0010
1000
,
0001
0000
0010
0001
0100
0010
1000
0100
,
0010
0011
0001
0101
,
0100
0110
0010
1010
,
1000
1001
0001
0011
,
0010
0110
0100
1100
,
1000
0010
1000
0001
0010
0001
1000
0100
,
1000
0001
0100
0001
1000
0010
1000
0001
,
0010
0001
0100
0010
1000
0100
0001
0100
,
1000
0010
0001
0010
1000
0010
0100
0001
,
0011
0000
0100
1000
0010
0000
0100
0001
,
2000
0000
0000
3020
0000
0000
0230
0000
,
0301
0000
0010
0100
1000
0000
0001
0010
,
0002
1000
0010
1003
,
2010
3001
0012
1003
,
2100
3100
0101
0011
,
0102
0013
0110
1100
,
1000
0010
1000
0001
0010
0001
0100
0010
,
1000
0000
0100
0010
0001
0000
1000
0010
,
0200
0000
0000
0302
0000
0000
0023
0000
,
0130
0000
1000
0010
1000
0000
0001
0010
,
0002
0000
0203
0000
0320
0000
2030
3000
,
2010
3001
0102
1003
,
0120
0130
0110
1010
,
1001
0001
0011
0110
,
0100
1000
0010
1000
0001
0010
0001
0100
,
0102
0000
0100
0100
0103
0000
0010
1000
,
2010
0000
0010
0010
3010
0000
0100
0001
,
0012
0000
0010
0003
0011
0000
0101
0000
,
0100
0000
0010
0000
1000
0000
0001
0000
0010
0000
0001
0000
1000
0001
1000
0001
,
1000
0000
0000
0000
;

//---------------dance-single - ----------------
#NOTES:
     dance-single:
     :
     Beginner:
     1:
     0.118,0.191,0.011,0.000,0.000:
0000
0000
0000
0000
,
0000
0000
0000
0000
,
0000
0000
0000
0000
,
0000
0000
0000
0000
,
1000
0000
0000
0000
,
0000
0000
0001
0000
,
0001
0000
0000
0000
,
0010
0000
0010
0000
,
0010
0000
0000
0000
,
0100
0000
0000
0000
,
1000
0000
0000
0000
,
0010
0000
0000
0000
,
1000
0000
0000
0000
,
0001
0000
0000
0000
,
0010
0000
0000
0000
,
0001
0000
0001
0000
,
0001
0000
0000
0000
,
0010
0000
0000
0000
,
0100
0000
0000
0000
,
1000
0000
1000
0000
,
1000
0000
0000
0000
,
0010
0000
0000
0000
,
0100
0000
0100
0000
,
0100
0000
0100
0000
,
0100
0000
0000
0000
,
0001
0000
0000
0000
,
1000
0000
0000
0000
,
0010
0000
0000
0000
,
1000
0000
1000
0000
,
1000
0000
1000
0000
,
1000
0000
0000
0000
,
0100
0000
0000
0000
,
0010
0000
0010
0000
,
0010
0000
0000
0000
,
0001
0000
0001
0000
,
0001
0000
0000
0000
,
1000
0000
0000
0000
,
0010
0000
0000
0000
,
0100
0000
0000
0000
,
0001
0000
0001
0000
,
0001
0000
0000
0000
,
0010
0000
0010
0000
,
0010
0000
0000
0000
,
0100
0000
0000
0000
,
1000
0000
1000
0000
,
1000
0000
0000
0000
,
0010
0000
0010
0000
,
0010
0000
0100
0000
,
0100
0000
0000
0000
,
0001
0000
0001
0000
,
0001
0000
0000
0000
,
0010
0000
0000
0000
,
0100
0000
0100
0000
,
0100
0000
0100
0000
,
1000
0000
1000
0000
,
1000
0000
0000
0000
,
0010
0000
0000
0000
,
0100
0000
0000
0000
,
0001
0000
0001
0000
,
1000
0000
1000
0000
,
1001
0000
0000
0000
;

//---------------dance-single - ----------------
#NOTES:
     dance-single:
     :
     Easy:
     4:
     0.266,0.286,0.011,0.233,0.000:
0000
0000
0000
0000
,
0000
0000
0000
0000
,
0000
0000
0000
0000
,
0000
0000
1000
0001
,
1000
0000
0001
0000
,
0010
0000
0001
0100
,
0001
0000
0100
0000
,
0010
0100
0010
0000
,
1000
0000
0010
0000
,
0100
0000
0001
0000
,
0010
0000
0100
1000
,
0100
0000
0010
0001
,
0010
0000
0001
0000
,
0100
0000
0010
0000
,
1000
0000
0001
0000
,
1000
0001
1000
0000
,
0001
0000
0010
0000
,
0100
1000
0100
1000
,
0100
0000
0010
0000
,
0001
0100
0001
0100
,
0001
0000
0100
0000
,
0010
0000
1000
0000
,
0001
0010
0001
0000
,
0100
0001
0100
0010
,
1000
0000
0001
0000
,
0010
0001
0100
0001
,
0010
0000
0100
0000
,
1000
0010
1000
0001
,
0020
0030
0002
0003
,
0200
0300
0020
0030
,
1000
0010
0100
0000
,
0001
0010
0100
1000
,
0002
0003
2000
3000
,
0020
0030
0200
0300
,
0002
0003
0020
0030
,
0200
0300
2000
3000
,
0020
0030
0200
0300
,
0002
0003
2000
3000
,
0020
0000
0030
0100
,
0200
0000
0310
0010
,
0010
1000
0100
1000
,
0001
0000
0010
0001
,
0100
0000
0010
1000
,
0001
0000
0010
0000
,
0001
0000
0100
0000
,
0010
0000
1000
0100
,
1000
0000
0001
0100
,
0001
0000
1000
0010
,
1000
0000
0001
0010
,
0001
0000
0100
0010
,
0100
0000
0010
1000
,
0010
0000
1000
0000
,
0200
0300
0020
0030
,
0002
0003
0100
0010
,
0200
0300
0010
1000
,
0001
0010
0001
0100
,
0010
0010
0010
0000
,
1000
1000
1000
0000
,
0001
0000
0010
0000
,
0001
0100
0010
1000
,
1001
0000
0000
0000
;

//---------------dance-single - ----------------
#NOTES:
     dance-single:
     :
     Medium:
     7:
     0.511,0.540,0.212,0.434,0.000: // measure 1
0000
0000
0000
0000
,  // measure 2
0000
0000
0000
0000
,  // measure 3
0000
0000
0000
0000
,  // measure 4
0000
0000
1001
0011
,  // measure 5
0101
0000
0100
0010
0100
0000
0010
0000
,  // measure 6
1000
0000
0100
1000
0100
0000
0010
0000
,  // measure 7
0001
0010
0001
0000
1000
0010
1000
0000
,  // measure 8
0001
0100
0001
1000
0100
0000
1000
0010
,  // measure 9
1000
0000
0001
0000
0010
0000
0001
0100
,  // measure 10
0001
0000
0100
0000
0010
0000
1000
0010
,  // measure 11
1000
0000
0000
0010
0000
0000
0100
0000
,  // measure 12
0001
0000
0010
0000
0100
0000
1000
0100
,  // measure 13
1000
0000
0010
0000
0100
0000
0001
0010
,  // measure 14
0001
0000
0100
0000
0010
0000
1000
0001
,  // measure 15
1000
0000
0000
0001
0000
0000
0100
0000
,  // measure 16
0010
1000
0001
0100
0010
0000
0000
0000
,  // measure 17
1000
0000
0100
1000
0100
0000
0010
0000
,  // measure 18
0002
0023
0230
2300
,  // measure 19
3010
0000
0100
0001
0100
0000
0010
0000
,  // measure 20
2000
3002
0023
0032
,  // measure 21
0103
0000
0010
1000
0010
0000
0100
0000
,  // measure 22
0002
0023
2030
3020
,  // measure 23
0031
0000
0100
0001
0100
0000
0010
0000
,  // measure 24
1000
0000
0100
1000
0100
0000
1000
0001
,  // measure 25
1000
0000
0001
0010
0001
0000
0010
0000
,  // measure 26
0200
2300
3020
2030
,  // measure 27
3001
0000
0010
0001
0010
0000
0001
0000
,  // measure 28
0200
0320
2030
3002
,  // measure 29
0013
0000
0001
0100
0001
0000
1000
0000
,  // measure 30
0200
2300
3020
2030
,  // measure 31
3001
0000
0010
0001
0010
0000
0001
0000
,  // measure 32
0100
0000
0010
1000
0010
1000
0001
0100
,  // measure 33
0002
2003
3020
2030
,  // measure 34
3200
0320
0032
0203
,  // measure 35
0320
2030
3002
0023
,  // measure 36
0032
2003
3020
2030
,  // measure 37
3100
0010
0001
0010
0100
0000
1000
0000
,  // measure 38
0010
1000
0001
0100
0001
0000
1000
0000
,  // measure 39
0010
1000
0010
0000
0100
0001
0100
0000
,  // measure 40
0001
0010
1000
0010
0001
0000
0100
0000
,  // measure 41
0010
1000
0010
0000
0100
0001
0100
0000
,  // measure 42
0001
0000
0000
0010
0000
0000
0100
0000
,  // measure 43
1000
0010
1000
0000
0001
0100
0001
0000
,  // measure 44
1000
0010
0100
0001
,  // measure 45
0011
0001
0101
0100
,  // measure 46
0110
0010
1010
1100
,  // measure 47
1001
0001
0011
0101
,  // measure 48
0110
0000
0010
0000
1000
0001
0100
0010
,  // measure 49
1000
0000
0100
1000
0100
0000
0010
0000
,  // measure 50
0001
0000
0000
0010
0000
0000
0100
0000
,  // measure 51
1000
0000
0010
1000
0010
0000
0100
0001
,  // measure 52
0100
0010
1000
0100
,  // measure 53
0011
0001
0101
0100
,  // measure 54
0110
0010
1010
1100
,  // measure 55
1010
0010
0110
0101
,  // measure 56
0001
0010
0100
1000
0100
0010
0001
0010
,  // measure 57
0100
0000
1000
0100
1000
0000
0001
0100
,  // measure 58
0001
0000
1000
0010
1000
0000
0001
0010
,  // measure 59
0002
0000
1000
1003
,  // measure 60
1000
0010
1000
0001
0010
0001
1000
0001
,  // measure 61
1000
0000
0000
0000
;
