#TITLE:Caroban;
#SUBTITLE:;
#ARTIST:Nina;
#TITLETRANSLIT:Caroban;
#SUBTITLETRANSLIT:;
#ARTISTTRANSLIT:;
#GENRE:;
#CREDIT:Telperion;
#BANNER:;
#BACKGROUND:;
#LYRICSPATH:;
#CDTITLE:;
#MUSIC:Caroban.ogg;
#OFFSET:-0.272993;
#SAMPLESTART:34.186001;
#SAMPLELENGTH:29.108999;
#SELECTABLE:YES;
#DISPLAYBPM:138.000000;
#BPMS:0.000000=138.000000,77.000000=34.500000,78.000000=138.000000,214.000000=34.500000,215.000000=138.000000;
#STOPS:;
#DELAYS:;
#TIMESIGNATURES:0.000000=4=4
;
#BGCHANGES:;
#KEYSOUNDS:;
#ATTACKS:;

//---------------dance-single - Telperion----------------
#NOTES:
     dance-single:
     Telperion:
     Hard:
     8:
     0.485,0.464,0.321,0.204,0.012,366.000,41.000,26.000,0.000,0.000,0.000,0.000,0.485,0.464,0.321,0.204,0.012,366.000,41.000,26.000,0.000,0.000,0.000,0.000:
0000
0000
0000
0000
,
0000
0000
0000
0000
,
0000
0000
2000
0000
0001
0001
3000
0000
,
0001
0000
0020
0000
0100
0100
0030
0000
,
0110
0000
2000
0000
0010
0010
3000
0000
,
0010
0000
0200
0000
0001
0001
0300
0100
,
1000
0100
0020
0000
1000
1000
0030
0010
,
0100
0000
0002
0000
0010
0010
0003
0100
,
0010
0000
0001
0000
1000
1000
0000
0010
,
0100
0010
1000
0000
0001
0001
0000
0010
,
0010
0000
1001
0000
1000
1000
0000
0001
,
0100
0010
0100
0000
0001
0001
0000
0010
,
0100
1000
0001
0000
0100
0100
0000
0010
,
0100
1000
0100
0000
0001
0010
0100
1000
,
0001
0100
0020
0000
0100
1000
0030
1000
,
0001
0000
0020
0000
0100
0001
0030
0001
,
0100
0010
2000
0000
0010
0001
3000
0001
,
0010
0000
0002
0000
0010
1003
0000
1000
,
0100
0010
0000
0001
0100
1000
0000
0100
,
0010
0100
1001
0000
1010
0000
1010
0000
,
1001
0010
0100
1000
1100
0000
1100
0000
,
1000
0010
0100
0002
0000
0013
0001
0000
,
0001
0010
0100
2000
0000
3010
1000
0010
,
0100
0001
0100
0000
0011
0000
0011
0000
,
1001
0010
0100
0000
1010
0000
1100
0000
,
0011
0001
0100
0000
1010
0000
0010
0100
,
0000
0100
0002
0000
0000
0000
0000
0000
,
0003
1000
0100
0010
0011
0001
0010
0100
,
0010
1000
0010
0001
1000
0010
0100
0001
,
1000
0010
0100
0001
0010
0100
0010
0100
,
1000
0001
1000
0001
0100
1000
0100
0010
,
1000
0001
0010
0000
1100
0100
0010
0100
,
0001
0100
1000
0001
0010
0100
0010
0001
,
1000
0100
0010
0000
0201
0000
0000
0320
,
0000
2000
0000
0000
,
0000
0000
0000
0000
,
3030
1000
0100
0001
0000
0100
0010
0010
,
0000
0001
0100
0010
0000
1000
0010
0010
,
0000
1000
0100
0001
0000
0100
0010
0010
,
0000
0001
1000
0001
0100
0000
0010
0010
,
0000
0010
0100
1000
0000
0100
0010
0010
,
0000
1000
0001
0000
0110
0000
1000
1000
,
0000
0001
0010
1000
0000
0010
0100
0100
,
0000
1000
0001
0000
0100
0000
0010
0010
,
0000
0010
0010
0000
1001
0000
0100
0010
,
0000
0010
0000
0000
1001
0000
0001
0010
,
0000
0010
0000
0000
1100
0000
2000
0010
,
0000
3001
0000
0000
0101
0000
0020
0000
,
0230
0000
2300
0000
3000
0100
0001
0100
,
0010
0001
0010
0100
1000
0010
0100
0100
,
0000
0000
0010
0100
1000
0100
0010
1000
,
0000
0100
0010
0001
1000
0001
0010
0010
,
0000
0001
0100
2000
0000
3100
0010
1000
,
0000
0001
1000
0001
0110
0000
0011
0001
,
1000
0000
0110
0000
1001
0000
0110
0100
,
1000
0000
1010
0010
0100
0001
0010
0000
,
0010
0000
0001
0100
0010
1000
0100
0000
,
0100
0000
0100
0000
1001
0000
0110
0010
,
0100
0010
1000
0000
0001
1000
0010
1000
,
0100
0000
0010
0001
1000
0000
0110
0000
,
0100
0001
0000
0001
0020
0000
0000
0000
,
0000
0000
0000
0000
0030
0000
0011
0001
,
1001
0000
1010
0010
0100
1000
0100
0001
,
0100
0000
0001
0010
0100
2000
0000
0001
,
0000
0000
3020
0000
0000
0000
0000
0100
0000
0000
1000
0000
0030
0000
0100
0000
,
0010
0001
0100
0010
0100
0000
0110
0100
,
0101
0000
0011
0010
0100
0000
1001
0001
,
0100
0000
0000
0000
0000
0000
0001
1000
0001
0000
1000
0001
1000
0000
0100
0000
,
0010
1001
0000
0010
0220
0000
0000
0000
,
0000
0000
0000
0000
0000
0330
0000
0000
;

//---------------dance-single - Telperion----------------
#NOTES:
     dance-single:
     Telperion:
     Medium:
     6:
     0.367,0.435,0.172,0.274,0.000,271.000,22.000,35.000,0.000,0.000,0.000,0.000,0.367,0.435,0.172,0.274,0.000,271.000,22.000,35.000,0.000,0.000,0.000,0.000:
0000
0000
0000
0000
,
0000
0000
0000
0000
,
0000
0000
1000
0000
0001
0001
0000
0000
,
0000
0000
0010
0000
0100
0100
0000
0000
,
0000
0000
1000
0000
0010
0010
0000
0000
,
0000
0000
0100
0000
0001
0001
0000
1000
,
0001
0000
0010
0000
0100
0100
0000
0000
,
0010
0000
0001
0000
1000
1000
0000
0000
,
0010
0000
0100
0000
0010
0100
0000
0100
,
0010
0000
1000
0000
0001
0001
0000
1000
,
0001
0000
0010
0000
0100
0100
0000
0000
,
0010
0000
0001
0000
1000
1000
0000
0000
,
1000
0000
0010
0000
0100
0100
0000
0000
,
0010
0000
1000
0000
0010
1000
0000
0010
,
0100
0000
0001
0000
0010
0010
0000
0000
,
0001
0000
1000
0000
0010
0010
0000
0000
,
1000
0000
0020
0000
0130
0100
0000
0000
,
0001
0000
0010
0000
0100
0100
0000
1000
,
0100
0020
0000
0000
0000
0032
0000
2000
,
3003
1001
0010
0010
,
0010
0000
1000
0010
0100
0000
0100
0000
,
0100
0000
0001
0010
0001
0000
0001
0000
,
0001
0000
1000
0010
1000
0000
0100
0000
,
0010
0110
1001
1000
,
1000
0000
0010
0100
0001
0000
0001
0000
,
1000
0100
0010
0000
0021
0000
0000
0230
,
0000
2300
0000
0000
,
0000
3000
1010
1010
,
0010
0100
0010
0000
1000
0000
0001
0000
,
0010
0000
0001
0010
0100
0000
0100
0000
,
0010
0000
0010
0001
0100
0000
0100
0000
,
0010
0100
0010
0000
1001
0000
0011
0000
,
1001
1010
0101
0101
,
0010
1000
0010
0000
0120
0000
0000
2030
,
0000
0002
0000
0000
,
0000
0000
0000
0000
,
3003
0000
0000
0000
0002
0000
0010
0010
,
0000
0000
0003
0000
2000
0000
0010
0010
,
0000
0000
3000
0000
0200
0000
0010
0010
,
0000
0000
0300
0000
2000
0000
0010
0010
,
0000
0000
3000
0000
0100
0000
0010
0100
,
0000
0000
0100
0000
1000
0000
0010
0100
,
0000
0100
0010
2000
0000
0000
0000
3020
,
0000
0230
0000
0302
0000
0003
0000
0000
,
0000
1000
0001
0000
0010
0000
0200
0300
,
0000
0100
0000
0000
1000
0000
0002
0003
,
0000
0001
0000
0000
0100
0000
0020
0030
,
0000
0010
0000
0000
1000
0000
0020
0000
,
0230
0302
0013
0010
,
0100
0000
0100
0000
0010
0000
0001
0001
,
0000
0000
0001
0000
1000
0000
0010
0020
,
0000
0230
0000
2300
0000
3000
0000
0000
,
0000
0100
0010
2000
0000
0000
0000
3002
,
0000
2003
0000
3000
0110
0000
0110
0000
,
0110
0000
1001
0000
1001
0000
0001
0010
,
0100
0000
1000
0000
0001
0100
0000
0010
,
0000
0100
0001
0000
0010
0100
0000
1000
,
0000
0100
0010
0000
0110
0000
1000
0001
,
1000
0000
0010
1000
0010
0000
0100
0001
,
0100
0000
0001
0010
0100
0000
0020
0000
,
0000
0032
0000
0000
2000
0000
0000
0000
,
0000
0000
3003
0000
0000
0000
0001
0100
,
0001
0000
0100
0010
0100
0010
1000
0010
,
1000
0000
0001
1000
0001
1000
0100
1000
,
0100
0000
1000
0001
1000
0001
0100
0001
,
0100
0000
0010
0100
0010
0000
1000
0100
,
0010
0100
1000
0100
0010
0100
1000
0001
,
0100
0000
0010
0100
0010
0000
1001
0000
,
0000
0110
0000
0000
2002
0000
0000
0000
,
0000
0000
3003
0000
;

//---------------dance-single - Telperion----------------
#NOTES:
     dance-single:
     Telperion:
     Easy:
     4:
     0.270,0.381,0.172,0.063,0.000,211.000,22.000,8.000,0.000,0.000,0.000,0.000,0.270,0.381,0.172,0.063,0.000,211.000,22.000,8.000,0.000,0.000,0.000,0.000:
0000
0000
0000
0000
,
0000
0000
0000
0000
,
0000
1000
0001
0000
,
0001
0100
0001
0000
,
0001
0010
0100
0000
,
0100
1000
0001
0000
,
1000
0010
0100
0000
,
0100
0010
1000
0000
,
1000
0100
0010
0000
,
0010
0100
1000
0000
,
1000
0010
0100
0000
,
0010
1000
0100
0000
,
0010
0100
1000
0000
,
1000
0001
0100
0010
,
1000
0010
0100
0000
,
1000
0100
0010
0000
,
1000
0001
0010
0000
,
0010
0100
0010
0000
,
0010
0001
1000
0010
,
1000
1001
0001
0001
,
0001
0001
1000
1000
,
1000
1000
0100
0100
,
0010
0010
0100
1000
,
0001
1001
1000
1000
,
1000
1000
0010
0010
,
0100
0110
2002
0000
,
0000
0000
0000
0000
,
3003
0000
0001
0010
,
0001
0010
0100
1000
,
0100
1000
0010
1000
,
0010
1000
0001
0100
,
0001
0000
0010
0100
,
1000
0100
0010
0001
,
1000
0010
0220
0000
,
0000
0000
0000
0000
,
0000
0000
0000
0000
,
0330
0000
1000
0010
,
0000
0010
0100
0001
,
0000
0001
0010
0100
,
0000
0100
1000
0100
,
1000
0001
0100
0010
,
0000
1000
0010
1000
,
0000
0100
0001
0100
,
0010
0100
1000
0001
,
0000
1001
0100
0010
,
0000
0010
0100
0001
,
0000
0001
0100
0010
,
0000
0010
0100
1000
,
0100
0010
0000
1000
,
0001
0001
1000
0001
,
1000
0000
0100
0010
,
0100
1000
0001
0000
,
0000
0100
0010
0100
,
0001
0010
0110
1000
,
1000
1000
1000
0001
,
0001
0001
0001
0100
,
0010
0100
0010
1000
,
0010
0100
0001
0010
,
0001
0010
0001
1000
,
0100
1000
0100
0012
,
0000
0000
2000
0000
,
0000
3003
0000
1010
,
0010
1010
0010
0101
,
0100
0101
0100
0011
,
0010
0110
0100
1001
,
1000
1001
0010
0101
,
0100
0101
0001
0011
,
0010
0110
0110
2100
,
0000
0000
0002
0000
,
0000
0000
3003
0000
;

//---------------dance-single - Telperion----------------
#NOTES:
     dance-single:
     Telperion:
     Beginner:
     2:
     0.110,0.166,0.047,0.000,0.000,92.000,6.000,0.000,2.000,0.000,0.000,0.000,0.110,0.166,0.047,0.000,0.000,92.000,6.000,0.000,2.000,0.000,0.000,0.000: // measure 1
0000
0000
0000
0000
,  // measure 2
0000
0000
0000
0000
,  // measure 3
0000
1000
0000
0000
,  // measure 4
0000
0001
0000
0000
,  // measure 5
0000
1000
0000
0000
,  // measure 6
0000
0100
0000
0000
,  // measure 7
0000
1000
0000
0000
,  // measure 8
0000
0001
0000
0000
,  // measure 9
0000
0100
0000
0000
,  // measure 10
0000
0010
0000
0000
,  // measure 11
0000
1000
0000
0000
,  // measure 12
0000
0010
0000
0000
,  // measure 13
0000
1000
0000
0000
,  // measure 14
0000
0001
0000
0000
,  // measure 15
0000
0010
0000
0000
,  // measure 16
0000
0100
0000
0000
,  // measure 17
0000
1000
0000
0000
,  // measure 18
0000
0100
0000
0000
,  // measure 19
0000
0010
0000
0100
,  // measure 20
0000
1001
0010
0000
,  // measure 21
0010
0000
0100
0000
,  // measure 22
0100
0000
0001
0000
,  // measure 23
0001
0000
1000
0000
,  // measure 24
1000
0000
0010
0000
,  // measure 25
0010
0000
0100
0000
,  // measure 26
0010
0000
1001
0000
,  // measure 27
0000
0000
0000
0000
,  // measure 28
0000
0000
1000
0000
,  // measure 29
1000
0000
0100
0000
,  // measure 30
0100
0000
0010
0000
,  // measure 31
0010
0000
0001
0000
,  // measure 32
0001
0000
1000
0000
,  // measure 33
1000
0000
0100
0000
,  // measure 34
0010
0000
1001
0000
,  // measure 35
0000
0000
0000
0000
,  // measure 36
0000
0000
0000
0000
,  // measure 37
0000
0000
0001
0000
,  // measure 38
0000
0000
1000
0000
,  // measure 39
0000
0000
0010
0000
,  // measure 40
0000
0000
1000
0000
,  // measure 41
0000
0000
0001
0000
,  // measure 42
0000
0000
0010
0000
,  // measure 43
0000
0000
0100
0000
,  // measure 44
0000
0000
0010
0000
,  // measure 45
0000
0000
0001
0000
,  // measure 46
0000
0000
1000
0000
,  // measure 47
0000
0000
0001
0000
,  // measure 48
0000
0000
0010
0000
,  // measure 49
0000
0000
0100
0000
,  // measure 50
0000
0000
1000
0000
,  // measure 51
0000
0000
0100
0000
,  // measure 52
0000
0000
0010
0000
,  // measure 53
0000
0000
0001
0000
,  // measure 54
1000
0000
0110
0010
,  // measure 55
0000
0010
0000
0100
,  // measure 56
0000
0100
0000
0001
,  // measure 57
0000
0001
0000
1000
,  // measure 58
0000
1000
0000
0100
,  // measure 59
0000
0100
0000
0010
,  // measure 60
0000
0001
1000
0110
,  // measure 61
0000
0000
0000
0000
,  // measure 62
0000
0000
0000
1000
,  // measure 63
0000
1000
0000
0010
,  // measure 64
0000
0010
0000
0100
,  // measure 65
0000
0100
0000
0001
,  // measure 66
0000
0001
0000
1000
,  // measure 67
0000
1000
0000
0100
,  // measure 68
0000
0010
0100
1001
,  // measure 69
0000
0000
0000
0000
,  // measure 70
0000
0000
0000
0000
,  // measure 71
0000
0000
0000
0MM0
;
