#TITLE:Chaoz Japan;
#SUBTITLE:;
#ARTIST:ParagonX9;
#TITLETRANSLIT:;
#SUBTITLETRANSLIT:;
#ARTISTTRANSLIT:;
#GENRE:;
#CREDIT:Telperion;
#BANNER:cj-bn.png;
#BACKGROUND:cj-bg.png;
#LYRICSPATH:;
#CDTITLE:;
#MUSIC:chaozjapan.ogg;
#OFFSET:-0.031859;
#SAMPLESTART:11.668000;
#SAMPLELENGTH:11.636000;
#SELECTABLE:YES;
#DISPLAYBPM:82.500000:165.000000;
#BPMS:0.000000=82.500000,16.000000=165.000000,19.500000=330.000000,20.000000=165.000000,23.500000=330.000000,24.000000=165.000000,30.500000=330.000000,31.000000=165.000000,31.500000=330.000000,32.000000=47.143002,32.166668=330.000000,33.000000=165.000000,35.500000=330.000000,36.000000=165.000000,39.500000=330.000000,40.000000=165.000000,46.500000=330.000000,47.000000=165.000000,47.250000=330.000000,48.000000=165.000000,64.000000=47.143002,64.166664=330.000000,65.000000=165.000000,80.000000=41.250000,81.000000=61.875000,81.250000=30.938000,81.500000=61.875000,81.750000=30.937000,82.000000=61.875000,82.250000=30.938000,82.500000=61.875000,82.750000=30.937000,83.000000=165.000000,86.666664=330.000000,87.000000=165.000000,90.666664=330.000000,91.000000=165.000000,94.666664=330.000000,95.000000=165.000000,98.666664=330.000000,99.000000=165.000000,99.000000=47.143002,99.166664=330.000000,100.000000=165.000000,102.666664=330.000000,103.000000=165.000000,106.666664=330.000000,107.000000=165.000000,115.500000=330.000000,116.500000=165.000000,133.000000=47.143002,133.166672=330.000000,134.000000=165.000000,165.000000=47.143002,165.166672=330.000000,166.000000=165.000000,197.000000=47.143002,197.166672=330.000000,198.000000=165.000000,205.250000=330.000000,209.000000=165.000000,213.000000=82.500000;
#STOPS:19.500000=0.090909
,23.500000=0.090909
,30.500000=0.090909
,31.500000=0.090909
,35.500000=0.090909
,39.500000=0.090909
,46.500000=0.090909
,47.250000=0.090909
,47.750000=0.045455
,86.666664=0.060606
,90.666664=0.060606
,94.666664=0.060606
,98.666664=0.060606
,102.666664=0.060606
,106.666664=0.060606
,115.000000=0.727273
,115.500000=0.090909
,116.000000=0.090909
,205.250000=0.090909
,205.750000=0.090909
,206.250000=0.090909
,206.750000=0.090909
,207.250000=0.090909
,207.750000=0.090909
,208.250000=0.090909
,208.750000=0.045455
;
#DELAYS:;
#TIMESIGNATURES:0.000000=4=4
;
#BGCHANGES:;
#KEYSOUNDS:;
#ATTACKS:;

//---------------dance-single - Telperion----------------
#NOTES:
     dance-single:
     Telperion:
     Hard:
     9:
     0.679,0.620,0.155,0.155,0.593,401.000,14.000,14.000,64.000,0.000,0.000,0.000,0.679,0.620,0.155,0.155,0.593,401.000,14.000,14.000,64.000,0.000,0.000,0.000: // measure 1
0000
0000
0000
0000
,  // measure 2
0000
0000
0000
0000
,  // measure 3
1000
1000
0001
0000
0001
0001
1000
0000
,  // measure 4
0100
0000
0100
0000
0010
0000
0100
0000
1000
0000
0001
0000
0200
0300
0000
0000
,  // measure 5
M11M
0100
0001
1000
0100
0010
0100
110M
,  // measure 6
0000
0001
0100
0010
1000
0010
0100
M101
,  // measure 7
0000
1000
0001
0010
0100
1000
0001
1000
,  // measure 8
0010
0100
0010
0001
0010
M110
0000
01M0
,  // measure 9
M002
M000
M000
M000
M000
M000
M003
0000
0000
0010
0000
0000
0100
0000
0000
1000
0000
0000
0010
0000
0000
101M
0000
0000
,  // measure 10
0000
0001
0010
0100
1000
0100
0010
M011
,  // measure 11
0000
1000
0001
0100
0010
0100
1000
0100
,  // measure 12
0001
0000
0001
0000
1000
0000
1000
0000
0100
0000
M22M
0000
0000
0000
0000
0330
,  // measure 13
1001
0000
0000
0000
0001
1000
0001
1000
0010
0000
0000
0000
0100
0000
0010
0000
,  // measure 14
0020
0000
0000
0000
1030
0001
1000
0001
0010
0000
0000
0100
0000
0000
0010
0000
,  // measure 15
0001
0000
0010
0000
0100
1000
0100
1000
0001
0000
0000
0000
0100
0000
0010
0000
,  // measure 16
0020
0000
0000
0000
0130
0001
0100
0001
1000
0000
0000
0100
0000
0000
1000
0000
,  // measure 17
M020
0000
M000
0000
M000
0000
M000
0000
M000
0000
M000
0000
M130
0000
0000
0001
0000
0000
0100
0000
0000
0001
0000
0000
0100
0000
0000
0000
0000
0000
0000
0000
0000
0000
0000
0000
0010
0000
0000
0000
0000
0000
1000
0000
0000
0000
0000
0000
,  // measure 18
2000
0000
0000
0000
3001
1000
0001
1000
0100
0000
0000
0010
0000
0000
0100
0000
,  // measure 19
1000
0000
0000
0000
0100
1000
0100
1000
0100
0000
0000
0000
0010
0000
0001
0000
,  // measure 20
0002
0000
0000
0000
1003
0000
0010
0000
0100
0000
0000
0100
0000
0000
0100
0000
,  // measure 21
M002
0000
0000
M000
0000
0000
M000
0000
0000
M000
0000
0000
M000
0000
0000
M000
0000
0000
M013
0000
0000
0000
0010
0000
,  // measure 22
0100
0000
0100
1000
0000
1000
0001
0000
010M
0010
0000
0010
,  // measure 23
1000
0000
1000
0010
0100
0010
0100
0001
M010
0100
0000
0100
,  // measure 24
0010
0000
0010
0001
0000
0001
1000
0000
M001
0100
0000
0100
,  // measure 25
0010
0000
0010
1000
0010
0100
0001
1000
010M
0020
0000
0000
,  // measure 26
0130
0000
0000
1100
0000
0000
1000
0000
M001
0100
0000
0000
,  // measure 27
0101
0000
0000
0001
0000
0000
1000
0000
M100
0010
0000
0100
,  // measure 28
0000
1000
0000
0001
0000
0010
0000
1000
0000
0001
0100
0010
,  // measure 29
0100
0000
0010
0000
0001
0000
0100
0000
0000
0000
0100
0000
0000
0000
0100
0000
0000
0000
0000
0000
0000
M01M
0000
0000
,  // measure 30
M01M
0000
0000
0000
1000
0000
0010
0000
0100
0000
0001
0100
0001
0000
0010
0000
,  // measure 31
0100
0000
1000
0100
1000
0000
0001
0000
0100
0000
0010
0100
0010
0000
1000
0000
,  // measure 32
0010
0000
1000
0001
1000
0000
0100
0000
1000
0000
0001
0010
0001
0000
1000
0000
,  // measure 33
0001
0000
0000
0000
0110
0000
1000
0100
1000
0000
0001
0100
0001
0000
1000
0010
,  // measure 34
1000
0000
0000
0001
0000
0000
0M20
0M00
0M00
0M00
0M00
0M00
0M30
0000
0000
0001
0000
0000
0010
0000
0000
0100
0000
0000
,  // measure 35
1000
0000
0000
0000
0010
0000
0010
0000
0100
0000
0000
0001
0100
0000
0010
0000
,  // measure 36
1000
0000
0100
0010
0010
0100
0100
1000
,  // measure 37
0001
0000
0000
0000
0110
0000
0001
0100
0001
0000
1000
0100
1000
0000
0001
0010
,  // measure 38
0001
1000
0001
0010
0100
1000
0001
0010
,  // measure 39
0100
1000
0001
0010
1000
0010
0001
0100
,  // measure 40
0010
0010
1000
0010
0100
0001
1000
0010
,  // measure 41
0100
0001
1000
0010
0001
0010
0100
1000
,  // measure 42
0100
0000
0000
0001
0000
0000
0M20
0M00
0M00
0M00
0M00
0M00
0M30
0000
0000
0100
0000
0000
0010
0000
0000
0001
0000
0000
,  // measure 43
1000
0001
0100
0010
1000
0001
1000
0100
,  // measure 44
0010
0001
1000
1000
0010
0010
0100
0010
,  // measure 45
0100
0001
0011
1000
0100
1000
0010
1000
,  // measure 46
0100
0000
0000
0000
0010
0000
0001
0010
0001
0000
1000
0000
0010
0000
0100
0010
,  // measure 47
0100
0000
0001
0000
1000
0000
0100
0010
0100
0000
1000
0000
0001
0010
0100
0010
,  // measure 48
0100
0000
0010
0000
0001
0000
0001
1000
0001
0000
0100
0000
0010
0000
1000
0001
,  // measure 49
1000
0000
0100
0000
0010
0100
0010
0100
1000
0000
0000
0000
0010
0100
0010
0100
,  // measure 50
0001
0000
0000
1000
0000
0000
0001
0000
0000
0000
0000
0000
0M20
0000
0M00
0000
0M00
0000
0M00
0000
0M00
0000
0M00
0000
0M30
0000
0000
0000
0000
0000
0100
0000
0000
0000
0000
0000
1000
0000
0000
0000
0000
0000
0001
0000
0000
0000
0000
0000
,  // measure 51
1000
0000
0010
0010
0100
0100
0001
0100
,  // measure 52
0010
0000
0000
0000
1000
0100
0000
1000
0000
0001
0000
0100
0000
0010
0000
0100
,  // measure 53
0000
0000
0000
0001
0000
0000
0000
0000
0000
1000
0000
0000
0100
0000
0000
0000
0000
0000
0010
0000
0100
0000
0010
0000
0100
0000
0000
1000
0000
0000
0100
0000
0000
0000
1000
0000
0000
0000
0001
0000
0000
0000
1000
0000
0000
0000
0000
0000
,  // measure 54
0010
M11M
0000
0000
;

//---------------dance-single - Telperion----------------
#NOTES:
     dance-single:
     Telperion:
     Medium:
     8:
     0.553,0.590,0.200,0.244,0.116,309.000,18.000,22.000,16.000,0.000,0.000,0.000,0.553,0.590,0.200,0.244,0.116,309.000,18.000,22.000,16.000,0.000,0.000,0.000:
0000
0000
0000
0000
,
0000
0000
0000
0000
,
1000
1000
0001
0001
,
0100
0000
0000
0000
0100
0000
0000
0000
0010
0000
0000
0000
0020
0030
0000
0000
,
1000
0000
0001
0000
1000
0000
0001
0110
,
1000
0000
1000
0000
0001
0000
1000
0110
,
0001
0000
0001
0000
0010
0000
0001
1000
,
0010
0000
0010
0000
0100
0110
0000
0220
,
0000
M00M
0000
0000
0000
0000
0330
0000
0000
0000
0000
0000
0001
0000
0000
0000
0000
0000
0010
0000
0000
1001
0000
0000
,
0001
0000
0001
0000
0010
0000
0100
1001
,
1000
0000
1000
0000
0010
0000
0100
0010
,
0011
0000
0110
0000
1010
0002
0000
0000
,
1003
0100
1000
0100
0010
0001
0010
0001
,
1000
0100
1000
0100
0001
0100
0001
0100
,
1000
0010
1000
0010
0100
0001
0100
0001
,
1000
0010
1000
0010
0100
1000
0100
0001
,
0020
0000
0031
0010
0100
1000
0100
1000
,
0001
0010
0001
0010
1000
0010
1000
0010
,
0001
0100
0010
1000
0001
0100
0010
1000
,
0001
0000
0010
0000
0001
0000
1000
0000
0010
0000
0000
0010
0000
0000
0010
0000
,
M20M
M00M
M00M
M00M
M00M
M00M
M31M
0000
,
0010
0000
0000
0010
0000
0000
0010
0000
1000
0010
0000
0000
,
0010
0000
0000
0100
0000
0100
0001
0000
0001
0010
0000
0000
,
0010
0000
0000
0010
0000
0000
0010
0000
0001
0010
0000
0000
,
0010
0000
0001
1000
0000
1000
0100
0000
1000
0002
0000
0000
,
0010
0000
0000
1000
0000
0000
0103
0000
0010
2000
0000
0000
,
0010
0000
0000
0001
0000
0000
3100
0000
0010
0001
0000
0010
,
0000
0100
0000
1000
0000
0010
0000
0100
0000
0001
1000
0001
,
1000
0000
0001
0000
1000
0000
0100
0000
0000
0000
0100
0000
0000
0000
0100
0000
0000
0000
0000
0000
0000
0010
0000
0000
,
0010
0000
0100
1000
0010
0100
0001
0010
,
0100
0010
0001
0100
1000
0100
0010
0100
,
1000
0100
0001
0010
0100
1000
0001
0010
,
0001
1000
0100
0120
0030
0012
0003
0201
,
0300
0110
2000
0000
3000
0001
0010
0001
,
0100
0010
1000
0100
0001
0100
0010
0100
,
0001
0100
1000
1000
0010
0100
0001
0100
,
0010
0100
0001
0021
0030
0210
0300
2100
,
3000
1001
1000
0100
0010
0010
0001
0100
,
0010
0010
0100
1000
0100
0100
0001
0100
,
0010
0100
0001
0010
0100
0100
1000
0010
,
0100
0100
0001
0010
1000
0010
0001
1000
,
0010
1000
0200
0000
0300
0010
0100
1000
,
0001
1000
0010
0100
1000
0100
0010
0100
,
0001
0100
0010
0010
1000
1000
0100
0010
,
0001
0001
2000
0000
3000
0000
0010
0000
,
0010
0000
0100
0001
0000
0001
0000
0100
,
0000
0100
0000
1000
0000
1000
0000
0100
,
0000
0100
0000
0010
0000
0010
0000
0100
,
0000
0100
0001
0010
1000
0000
1000
0010
,
0001
0100
0020
0000
0030
0100
0000
0100
,
0000
0100
0001
1000
0001
0010
0001
1000
,
0001
0010
0200
0000
0000
0000
0000
0000
,
0000
0320
0032
2003
,
3010
0110
0000
0000
;

//---------------dance-single - Telperion----------------
#NOTES:
     dance-single:
     Telperion:
     Easy:
     5:
     0.377,0.354,0.111,0.200,0.044,210.000,10.000,18.000,0.000,0.000,0.000,0.000,0.377,0.354,0.111,0.200,0.044,210.000,10.000,18.000,0.000,0.000,0.000,0.000:
0000
0000
0000
0000
,
0000
0000
0000
0000
,
0010
0010
0010
0010
,
0100
0000
0100
0000
0100
0000
0200
0300
,
0001
1000
0001
0010
,
1000
0001
1000
0010
,
0001
1000
0001
0010
,
0100
1000
0020
0000
,
0000
0130
0010
1000
,
0010
0100
0010
0001
,
0010
0100
0010
1000
,
0010
0000
0000
0000
0010
0000
0000
0000
0020
0000
0000
0000
0000
0000
0000
0030
,
1001
0000
0001
0010
0001
0000
0000
0000
,
1001
0000
1000
0010
0100
0000
0100
0000
,
1001
0000
1000
0010
1000
0000
0000
0000
,
1001
0000
0001
0010
0100
0000
0100
0000
,
0210
0000
0310
0100
0010
0000
0000
0000
,
1001
0000
0010
1000
0100
0000
0100
0000
,
0110
0000
0010
0100
0010
0000
0000
0000
,
1001
0000
0010
0001
1000
0001
0010
0000
,
0200
0000
0000
0310
,
0010
0000
0000
0100
0000
0000
0200
0000
0300
1000
0000
0000
,
1000
0000
0000
0010
0000
0000
0200
0000
0300
0001
0000
0000
,
0001
0000
0000
1000
0000
0000
0200
0000
0300
1000
0000
0000
,
0100
0000
0000
0010
0000
0000
0002
0000
0003
0200
0000
0000
,
0310
0000
0000
0100
0000
0000
0020
0000
0030
1000
0000
0000
,
0001
0000
0000
1000
0000
0000
0002
0000
0003
0010
0000
0001
,
0000
0010
0000
0100
0000
0010
0000
0100
0000
1000
0000
0100
,
0000
1000
0000
0001
0000
1000
0000
0002
0000
0000
0000
0000
,
0003
0000
0010
0000
0000
0010
0100
0000
,
0000
1000
0010
0000
0000
0010
0100
0000
,
0000
0010
1000
0000
0000
1000
0001
0000
,
0000
0001
0010
0000
0010
0000
0100
0000
,
0010
0000
0002
0000
0003
1000
0010
0000
,
0000
0010
0100
0000
0000
0100
0010
0000
,
0000
0010
1000
0000
1000
0000
0001
0000
,
0001
0000
0010
0001
0010
0000
0100
0010
,
0100
1000
0100
0010
,
0001
1000
0010
0100
,
0001
1000
0100
0010
,
0001
1000
0010
0100
,
0010
2002
3003
0010
,
0001
1000
0010
0100
,
0001
1000
0100
0010
,
0100
0001
0100
0010
,
0001
0000
1000
0000
1000
0000
0010
1000
,
0010
0000
0100
0000
0100
0000
0001
0010
,
0001
0000
1000
0000
1000
0000
0100
0010
,
0100
0000
1000
0010
0100
0000
0001
0100
,
0010
2000
3000
0001
,
1000
0100
0100
0100
,
0100
0020
0000
0000
,
0000
0031
1000
0010
,
0100
0110
0000
0000
;

//---------------dance-single - Telperion----------------
#NOTES:
     dance-single:
     Telperion:
     Beginner:
     2:
     0.095,0.118,0.044,0.089,0.000,48.000,4.000,8.000,0.000,0.000,0.000,0.000,0.095,0.118,0.044,0.089,0.000,48.000,4.000,8.000,0.000,0.000,0.000,0.000:
0000
0000
0000
0000
,
0000
0000
0000
0000
,
0100
0000
0000
0000
,
0100
0000
0000
0000
,
0010
0000
0000
0000
,
0010
0000
0000
0000
,
0010
0000
0000
0000
,
0010
0000
0000
0000
,
0200
0300
0000
0000
,
0100
0000
0000
0000
,
0100
0000
0000
0000
,
0100
0000
0000
0000
,
0010
0000
0000
0000
,
0001
0000
0000
0000
,
0010
0000
0000
0000
,
1000
0000
0000
0000
,
0020
0030
0000
0000
,
0100
0000
0000
0000
,
0010
0000
0000
0000
,
0001
0000
0000
0000
,
1001
0000
0000
0010
,
0000
0000
0000
0010
,
0000
0000
0000
0010
,
0000
0000
0000
0010
,
0000
0000
0000
0200
,
0300
0000
0000
0100
,
0000
0000
0000
0010
,
0000
0000
0000
0010
,
0000
0000
0000
0000
,
0000
1001
0000
0000
,
0000
0000
0000
0000
,
0000
1001
0000
0000
,
0000
0000
0000
0000
,
0000
0020
0030
0000
,
0000
0000
0000
0000
,
0000
1001
0000
0000
,
0000
0000
0000
0000
,
0000
1000
0000
0000
,
0000
0100
0000
0000
,
0000
0010
0000
0000
,
0000
0001
0000
0000
,
0000
2000
3000
0000
,
0000
0010
0000
0000
,
0000
0100
0000
0000
,
0000
0001
0000
0000
,
0000
0010
0000
0000
,
0000
0010
0000
0000
,
0000
0010
0000
0000
,
0000
0100
0000
0000
,
0000
0020
0030
0000
,
0000
0100
0000
0000
,
0000
2000
0000
0000
,
0000
3002
0000
0000
,
0000
1003
0000
0000
;
