#TITLE:LEVEL5 -judgelight-;
#SUBTITLE:;
#ARTIST:fripSide;
#TITLETRANSLIT:;
#SUBTITLETRANSLIT:;
#ARTISTTRANSLIT:;
#GENRE:;
#CREDIT:Chewi☆ & hooky;
#MENUCOLOR:;
#METERTYPE:DDR;
#BANNER:LEVEL5 -judgelight-.png;
#BACKGROUND:LEVEL5 -judgelight--bg.png;
#LYRICSPATH:;
#CDTITLE:;
#MUSIC:LEVEL5 -judgelight-.mp3;
#OFFSET:-1.042;
#SAMPLESTART:56.916;
#SAMPLELENGTH:15.160;
#SELECTABLE:YES;
#LISTSORT:;
#DISPLAYBPM:139.000;
#BPMS:0.000=139.500;
#STOPS:;
#BGCHANGES:0.000=LEVEL5 -judgelight-.avi=1.000=1=0=0,
99999=-nosongbg-=1.000=0=0=0 // don't automatically add -songbackground-
;
#ATTACKS:;

//---------------dance-single - hooky----------------
#NOTES:
     dance-single:
     hooky:
     Easy:
     3:
     0.226,0.311,0.072,0.103,0.000: // measure 1
0000
0000
0000
0000
,  // measure 2
0000
0000
0000
0000
,  // measure 3
0000
0000
0000
0000
,  // measure 4
0000
0000
0000
0000
,  // measure 5
1000
0000
1000
0000
,  // measure 6
0001
0000
0001
0000
,  // measure 7
1000
1000
0001
0001
,  // measure 8
0100
0010
0220
0330
,  // measure 9
1000
0000
1000
0100
,  // measure 10
1000
0010
0100
0000
,  // measure 11
0001
0000
0001
0000
,  // measure 12
1000
1000
0100
0010
,  // measure 13
0100
0000
1000
0000
,  // measure 14
0001
0100
0001
0000
,  // measure 15
1000
0010
0100
0010
,  // measure 16
1000
1000
0001
0001
,  // measure 17
1000
0100
0010
1000
,  // measure 18
0100
0100
0010
0000
,  // measure 19
0001
0001
0100
0000
,  // measure 20
1000
1000
0010
0000
,  // measure 21
1000
0001
0100
0010
,  // measure 22
0110
1000
1001
0000
,  // measure 23
0100
0001
0101
0000
,  // measure 24
1000
1000
0010
0000
,  // measure 25
0100
0100
0101
0000
,  // measure 26
1000
0000
1000
0000
,  // measure 27
0001
0001
0002
0003
,  // measure 28
0100
0000
0100
0000
,  // measure 29
0010
1000
0002
0003
,  // measure 30
1000
0000
1000
0000
,  // measure 31
0001
0000
0001
0000
,  // measure 32
0100
0010
1000
0010
,  // measure 33
2002
0000
0000
3003
,  // measure 34
1000
0001
0100
0000
,  // measure 35
0010
0010
1000
0000
,  // measure 36
0001
0000
1000
0000
,  // measure 37
0100
0010
1000
0100
,  // measure 38
1000
0000
0001
0000
,  // measure 39
0100
0010
1000
0000
,  // measure 40
0100
0010
0100
0001
,  // measure 41
2000
3000
0002
0003
,  // measure 42
0100
0000
0010
0000
,  // measure 43
1000
0100
1000
0000
,  // measure 44
0001
0000
0001
0000
,  // measure 45
0100
0000
0010
0100
,  // measure 46
0010
0000
1000
0000
,  // measure 47
0100
1000
0100
0000
,  // measure 48
0001
0100
0010
1000
,  // measure 49
0100
0000
0100
0000
,  // measure 50
0010
0100
0001
1000
,  // measure 51
0010
0010
0100
0100
,  // measure 52
2002
0000
0000
0000
,  // measure 53
0000
0000
0000
0000
,  // measure 54
0000
0000
0000
0000
,  // measure 55
0000
0000
0000
0000
,  // measure 56
3003
0000
0000
0000
;

//---------------dance-single - hooky----------------
#NOTES:
     dance-single:
     hooky:
     Medium:
     6:
     0.349,0.367,0.154,0.267,0.000:
0000
0000
0000
0000
,
0000
0000
0000
0000
,
0000
0000
0000
0000
,
0000
0000
0000
0000
,
1000
0100
1000
0100
,
0010
0001
0010
0001
,
0100
0010
1000
0100
,
0010
0001
2002
3003
,
1000
0000
0100
0000
0010
0001
0010
0000
,
0100
0000
0010
0100
0010
0000
1100
0000
,
0011
0100
1010
0001
,
1000
0100
1000
0000
0010
0001
0010
0000
,
0001
0000
0010
0000
0100
1000
0100
0000
,
0010
0000
0100
0010
0100
0000
0011
0000
,
1100
0010
0101
1000
,
0001
0010
0001
0000
0100
1000
0100
0000
,
0010
0100
0010
0000
1000
0010
0100
0000
,
1000
0000
0100
0000
1000
0000
0010
0100
,
0010
0001
0002
1003
,
0100
0000
0100
0000
0010
0100
0010
0000
,
1000
0100
2000
3000
,
0001
0001
0100
0100
,
0010
0000
0010
0000
1000
0100
0001
0010
,
2000
0000
3002
0000
,
1003
0100
2000
3000
,
0001
0010
0001
0000
0100
0000
0100
0000
,
0010
0000
1000
0000
,
0001
0000
0001
0000
1000
0100
1000
0000
,
0001
0000
0001
0000
,
0100
0100
0200
0300
,
0010
0010
0020
0030
,
1000
0100
1000
0100
,
0022
0000
0000
0033
,
1000
0000
0010
0000
0100
0001
0010
0000
,
1000
1000
0100
0000
0220
0000
0330
0000
,
0001
0001
0100
0010
,
2000
0000
0002
3003
,
0110
0000
1000
0000
0010
0100
0010
0000
,
0001
0000
0001
0000
1000
0100
1000
0000
,
0020
0030
0200
0300
,
1000
0000
0100
0000
0010
0001
0010
0000
,
1001
0000
0100
0000
0010
1000
0100
0000
,
0001
0001
0010
0000
0220
0000
0330
0000
,
1000
1000
0010
0100
,
0002
1000
2000
3003
,
0110
0000
0001
0000
0100
0010
0100
0000
,
1000
0000
1000
0000
0001
0010
0001
0000
,
0200
0310
0020
0130
,
0001
0000
0010
0000
0100
1000
0100
0000
,
0102
0000
0013
0000
1000
0100
1000
0000
,
0001
0000
0001
0000
1000
0010
0100
0001
,
2002
0000
0000
0000
,
0000
0000
0000
0000
,
0000
0000
0000
0000
,
0000
0000
0000
0000
,
3003
0000
0000
0000
;

//---------------dance-single - Chewi----------------
#NOTES:
     dance-single:
     Chewi:
     Hard:
     7:
     0.421,0.424,0.236,0.185,0.000:
0000
0000
0000
0000
,
0000
0000
0000
0000
,
0000
0000
0000
0000
,
0000
0000
0000
0000
,
2000
3010
0002
0013
,
2000
3100
0002
0103
,
0010
0100
0010
0100
0001
1000
0001
1000
,
0001
0010
0100
1000
0200
0000
0000
0000
,
1300
0000
0100
0000
0010
0001
0100
0000
,
0010
0100
0110
0000
,
0100
0000
0001
0000
0010
0100
1000
0000
,
0001
1000
1100
0011
,
0001
0000
1000
0000
0010
0100
0001
0000
,
0010
0100
0110
0000
,
0100
0000
0010
0000
1000
0001
0100
0000
,
0010
0001
1001
0110
,
0100
0100
0100
0000
0010
0010
0010
0000
,
0001
1001
0100
0101
,
0100
0010
0100
0000
0010
0100
0010
0000
,
1000
1010
1000
1001
,
1000
0100
1000
0000
0001
0100
0001
0000
,
0100
1010
0011
0100
,
1000
0101
1100
0000
,
2000
3020
0032
0103
,
0200
0302
0023
1030
,
0010
0000
0001
0010
0100
1000
0010
0000
,
0100
0000
0010
1000
0001
0010
0100
0000
,
0010
0000
0001
0010
0100
1000
0010
0000
,
0100
0000
0010
1000
0001
0010
0100
0000
,
0001
0010
0001
0000
0001
0100
0001
0000
,
1000
0100
1000
0000
1000
0010
1000
0000
,
0010
0100
0010
0000
1000
0001
1000
0000
,
1000
0100
0010
0001
0020
0000
0000
0000
,
0031
0011
0001
1001
,
1000
0100
0010
0001
0010
0000
0000
0000
,
1000
1100
1000
1001
,
1000
0010
0100
0001
0100
0000
0010
0000
,
1000
1001
0010
0110
,
0100
0010
0001
0010
0100
0000
1000
0000
,
0010
0110
0001
1001
,
0001
0100
0010
1000
0001
0001
1000
1000
,
0002
0000
0103
0000
0100
0010
0001
0000
,
0001
0100
1000
0010
1000
0100
0010
0000
,
2000
0000
3010
0000
0010
0100
1000
0000
,
1000
0010
0001
0010
1000
0010
0001
0010
,
0200
0000
0301
0000
1000
0100
0010
0000
,
0001
1000
0010
1000
0001
0010
0001
0000
,
0020
0000
1030
0000
0001
0010
0100
0000
,
1000
0001
0100
0010
1000
0001
0010
0000
,
0100
0100
0010
0000
0010
0010
0100
0000
,
0010
0001
0100
0000
0010
1000
0100
0000
,
2002
0000
0000
0000
,
0000
0000
0000
0000
,
0000
0000
0000
0000
,
0000
0000
0000
0000
,
3000
0003
0000
0000
0000
0000
0000
0000
0000
0000
0000
0000
0000
0000
0000
0000
0000
0000
0000
0000
0000
0000
0000
0000
0000
0000
0000
0000
0000
0000
0000
0000
0000
0000
0000
0000
0000
0000
0000
0000
0000
0000
0000
0000
0000
0000
0000
0000
0000
0000
0000
0000
0000
0000
0000
0000
0000
0000
0000
0000
0000
0000
0000
0000
0000
0000
0000
0000
0000
0000
0000
0000
0000
0000
0000
0000
0000
0000
0000
0000
0000
0000
0000
0000
0000
0000
0000
0000
0000
0000
0000
0000
0000
0000
0000
0000
0000
0000
0000
0000
0000
0000
0000
0000
0000
0000
0000
0000
0000
0000
0000
0000
0000
0000
0000
0000
0000
0000
0000
0000
0000
0000
0000
0000
0000
0000
0000
0000
0000
0000
0000
0000
0000
0000
0000
0000
0000
0000
0000
0000
0000
0000
0000
0000
0000
0000
0000
0000
0000
0000
0000
0000
0000
0000
0000
0000
0000
0000
0000
0000
0000
0000
0000
0000
0000
0000
0000
0000
0000
0000
0000
0000
0000
0000
0000
0000
0000
0000
0000
0000
0000
0000
0000
0000
0000
0000
0000
0000
0000
0000
0000
0000
;

//---------------dance-double - Chewi----------------
#NOTES:
     dance-double:
     Chewi:
     Easy:
     3:
     0.220,0.254,0.021,0.185,0.000:
00000000
00000000
00000000
00000000
,
00000000
00000000
00000000
00000000
,
00000000
00000000
00000000
00000000
,
00000000
00000000
00000000
00000000
,
10000000
01000000
00010000
00000000
,
00100000
00100000
00100000
00000000
,
10000000
00100000
00010000
00000000
,
00010000
00001000
00011000
00000000
,
00001000
00000010
00000001
00000000
,
00000001
00000001
00000001
00000000
,
00000001
00000100
00001000
00000000
,
00000010
00000010
00000010
00000000
,
00000100
00000010
00001000
00000000
,
00000100
00010000
00001000
00000000
,
00100000
00010000
01000000
00000000
,
00100000
00100000
00100000
00000000
,
10000000
10000000
10000000
00000000
,
20000000
00000000
31000000
00000000
,
00010000
00100000
01000000
00000000
,
02000000
00000000
03010000
00000000
,
00010000
00001000
00000010
00000000
,
00000200
00000000
00000310
00000000
,
00001000
00000001
00000100
00000000
,
00002000
00000000
00003100
00000000
,
00000100
00001000
00010000
01000000
,
00200000
00000000
00000000
00000000
,
20300000
00000000
00000000
00000000
,
30020000
00000000
00000000
00000000
,
02030000
00000000
00000000
00000000
,
03010000
00010000
00100000
00000000
,
00100000
00001000
00010000
00000000
,
00010000
00001000
00000010
00000001
,
00000010
00000010
00000010
00000000
,
00000001
00000100
00000001
00000100
,
00000010
00001000
00000100
00000000
,
00001000
00000000
00000100
00000000
,
00010000
00000000
00001000
00000000
,
00010000
00100000
10000000
00100000
,
00010000
01000000
00010000
00000000
,
01000000
00000000
00100000
00000000
,
00010000
00000000
00001000
00001000
,
00000020
00000000
00002030
00000000
,
00003001
00000010
00000100
00000000
,
00002000
00000000
00003200
00000000
,
00010300
00001000
00010000
01000000
,
00200000
00000000
02300000
00000000
,
03010000
10000000
01000000
00000000
,
20000000
00000000
32000000
00000000
,
03100000
00100000
00100000
00000000
,
00010000
00010000
00001000
00001000
,
00000010
00001000
00000010
00001000
,
00022000
00000000
00000000
00000000
,
00000000
00000000
00000000
00000000
,
00000000
00000000
00000000
00000000
,
00000000
00000000
00000000
00000000
,
00033000
00000000
00000000
00000000
;

//---------------dance-double - Chewi----------------
#NOTES:
     dance-double:
     Chewi:
     Medium:
     6:
     0.367,0.367,0.144,0.339,0.000:
00000000
00000000
00000000
00000000
,
00000000
00000000
00000000
00000000
,
00000000
00000000
00000000
00000000
,
00000000
00000000
00000000
00000000
,
20000000
30100000
00020000
00130000
,
02000000
03100000
00020000
01030000
,
00010000
00100000
00001000
00010000
,
00000100
00000100
00000010
00000010
00002002
00000000
00003003
00000000
,
00000002
00000000
00000103
00000000
00001000
00000100
00000001
00000000
,
00000100
00000010
00002000
00003000
,
00000100
00001000
00010000
01000000
,
00200000
00000000
10300000
00000000
00010000
10000000
01000000
00000000
,
00100000
00000000
00010000
10000000
00100000
00000000
01000000
00000000
,
00010000
00100000
00001000
00011000
,
00010000
00000100
00010000
00001000
,
00000010
00000000
00000001
00000000
00000100
00000100
00000100
00000000
,
00001000
00000000
00000010
00000000
00000100
00000100
00000100
00000000
,
00002010
00000001
00000100
00003001
,
00001000
00000100
00010000
00001000
,
00012000
00100000
00010000
01003000
,
00010000
01000000
00100000
10000000
,
01000000
00110000
01010000
01000000
,
00100000
10010000
20020000
30030000
,
20000000
31000000
00010000
00100000
,
00020000
00130000
00001000
00010000
,
00000200
00000000
00000310
00000000
00000001
00001000
00000010
00000000
,
00000100
00000001
00000100
00000010
,
00002000
00000000
00003001
00000000
00001000
00000100
00000010
00000000
,
00000100
00000100
00010000
00010000
,
00001000
00000000
00100000
10000000
02000000
00000000
03000000
00000000
,
00100000
00000000
01000000
00010000
00200000
00000000
00300000
00000000
,
01000000
00100000
00010000
00001000
,
00000100
00000010
00000022
00000033
,
00000002
00000000
00000103
00000000
00000010
00000100
00000001
00000000
,
00001000
00000100
00002002
00003003
,
00002000
00000000
00003010
00000000
00001000
00000100
00000001
00000000
,
00000100
00001000
00010000
01000000
,
00100000
00000000
01000000
00000000
00010000
00100000
01000000
00000000
,
10000000
01000000
20020000
30030000
,
10000000
00100000
01000000
00010000
,
00100000
00000000
00100000
00000000
01000000
01000000
01000000
00000000
,
00200000
00310000
01000000
01010000
,
00100000
00010000
00001000
00000000
00000020
00000000
00000030
00000000
,
00000020
00000031
00000101
00000001
,
00000010
00000100
00001000
00000000
00000010
00000000
00000100
00000000
,
00000010
00000000
00001010
00000000
00001000
00010000
00001000
00000000
,
00010000
00000000
01000000
00000000
00010000
00100000
01000000
00000000
,
00100000
01000000
00100000
00010000
,
01000000
01000000
01000000
00000000
00200000
00000000
10300000
00000000
,
00010000
10000000
00010000
00000000
20000000
00000000
30010000
00000000
,
10000000
00010000
10000000
00000000
00100000
00000000
00001000
00010000
,
00002000
00000000
00000000
00000000
,
00000000
00000000
00000000
00000000
,
00000000
00000000
00000000
00000000
,
00000000
00000000
00000000
00000000
,
00000000
00003000
00000000
00000000
00000000
00000000
00000000
00000000
00000000
00000000
00000000
00000000
00000000
00000000
00000000
00000000
00000000
00000000
00000000
00000000
00000000
00000000
00000000
00000000
00000000
00000000
00000000
00000000
00000000
00000000
00000000
00000000
00000000
00000000
00000000
00000000
00000000
00000000
00000000
00000000
00000000
00000000
00000000
00000000
00000000
00000000
00000000
00000000
00000000
00000000
00000000
00000000
00000000
00000000
00000000
00000000
00000000
00000000
00000000
00000000
00000000
00000000
00000000
00000000
00000000
00000000
00000000
00000000
00000000
00000000
00000000
00000000
00000000
00000000
00000000
00000000
00000000
00000000
00000000
00000000
00000000
00000000
00000000
00000000
00000000
00000000
00000000
00000000
00000000
00000000
00000000
00000000
00000000
00000000
00000000
00000000
00000000
00000000
00000000
00000000
00000000
00000000
00000000
00000000
00000000
00000000
00000000
00000000
00000000
00000000
00000000
00000000
00000000
00000000
00000000
00000000
00000000
00000000
00000000
00000000
00000000
00000000
00000000
00000000
00000000
00000000
00000000
00000000
00000000
00000000
00000000
00000000
00000000
00000000
00000000
00000000
00000000
00000000
00000000
00000000
00000000
00000000
00000000
00000000
00000000
00000000
00000000
00000000
00000000
00000000
00000000
00000000
00000000
00000000
00000000
00000000
00000000
00000000
00000000
00000000
00000000
00000000
00000000
00000000
00000000
00000000
00000000
00000000
00000000
00000000
00000000
00000000
00000000
00000000
00000000
00000000
00000000
00000000
00000000
00000000
00000000
00000000
00000000
00000000
00000000
00000000
00000000
00000000
00000000
00000000
00000000
00000000
;

//---------------dance-double - Chewi----------------
#NOTES:
     dance-double:
     Chewi:
     Hard:
     8:
     0.503,0.537,0.164,0.051,0.144:
00000000
00000000
00000000
00000000
,
00000000
00000000
00000000
00000000
,
00000000
00000000
00000000
00000000
,
00000000
00000000
00000000
00000000
,
10000000
10000000
01000000
00000000
00100000
00000000
00110000
00000000
,
01000000
01000000
00010000
00000000
00100000
00000000
00101000
00000000
,
00010000
00001000
00010000
00000100
00001000
00000001
00000100
00000010
,
00000100
00001000
00000010
00000001
00000020
00000000
00000030
00000000
,
00000001
00000000
00000000
00000000
00001000
00000000
00000010
00000000
00000100
00000000
00000001
00000100
00000000
00000000
00000010
00000000
,
00001000
00000000
00000001
00000000
00000010
00000000
00000100
00000010
00000000
00000000
00000000
00000000
00000000
00000000
00000000
00000000
,
00000001
00000010
00001100
00000000
00000100
00010000
00100000
00000000
,
10000000
00100000
01010000
00000000
01000000
01000000
00100000
00100000
,
10000000
00000000
00010000
00000000
00100000
00000000
01000000
00000000
00100000
00000000
00010000
00100000
00000000
00000000
01000000
00000000
,
10000000
00000000
00100000
00000000
01000000
00000000
00010000
00000000
01000000
00000000
00100000
01000000
00000000
00000000
00010000
00000000
,
00100000
01000000
00100000
00000000
00010000
01000000
00100000
00000000
,
00001000
00010000
00000100
00001000
00000001
00000100
00000010
00001000
,
00000001
00000001
00001000
00000000
00000010
00000010
00000100
00000000
,
00000010
00000000
00000000
00001000
00000000
00000000
00000010
00000000
00000000
00000000
00000100
00000000
00000001
00000000
00000010
00000000
,
00000100
00000000
00000000
00001000
00000000
00000000
00010000
00000000
00000000
00000000
00000000
00000000
00000000
00000000
00000000
00000000
,
00010000
00000000
00000000
00100000
00000000
00000000
00010000
00000000
00000000
00000000
01000000
00000000
00100000
00000000
10000000
00000000
,
00010000
00000000
00000000
10000000
00000000
00000000
00100000
00000000
01000000
00000000
00000000
00000000
00010000
00000000
00000000
00000000
,
01000000
00100000
10100000
00000000
11000000
00000000
00100000
00010000
,
01000000
00000000
00110000
00000000
01010000
00100000
00001000
00010000
,
00000100
00001000
00000001
00000000
00000100
00000010
00001000
00000000
,
00000001
00001000
00000001
00001000
00000010
00000100
00000010
00000100
,
00000010
00001000
00000100
00001000
00000010
00001000
00000100
00010000
,
00001000
00100000
00010000
01000000
00010000
00100000
00010000
01000000
,
00100000
01000000
00010000
10000000
01000000
00100000
00010000
01000000
,
00010000
00100000
00001000
00010000
00000100
00001000
00000001
00000100
,
00000010
00000000
00000000
00001001
00000000
00000000
00000010
00000000
00000200
00000000
00000000
00000000
00000300
00000000
00000000
00000000
,
00000001
00000000
00000000
00000100
00000000
00000000
00000010
00000000
00001000
00000000
00000000
00000100
00000000
00000000
00010000
00000000
,
00001000
00010000
00000100
00000000
00001000
00010000
01000000
00100000
,
10000000
00010000
00100000
01000000
20000000
00000000
30000000
00000000
,
10000000
00000000
00010000
00000000
00100000
00000000
01000000
00000000
10000000
00000000
00100000
10000000
00000000
00000000
01000000
00000000
,
00100000
00000000
00010000
00000000
00100000
00000000
01000000
00100000
00000000
00000000
00000000
00000000
00000000
00000000
00000000
00000000
,
00010000
00100000
00101000
00000000
00010000
00000100
00010100
00000100
,
00001000
00000000
00000001
00001000
00000000
00000000
00000000
00000000
00000010
00000000
00000101
00000000
00000100
00000000
00000010
00000000
,
00001000
00000000
00000001
00000000
00000010
00000000
00000100
00000000
00001000
00000000
00000010
00000100
00000000
00000000
00000001
00000000
,
00001000
00000000
00000010
00000000
00001000
00000000
00000100
00000000
00010000
00000000
00001000
00010000
00000000
00000000
00000000
00000000
,
00001000
00010000
01000000
00000000
00100000
10000000
00010000
00000000
,
10000000
00000000
10000000
00000000
00010000
00000000
00010000
00000000
10000000
01000000
10000000
00000000
00010000
00100000
00010000
00000000
,
00100000
00000000
01000000
00000000
00100000
00000000
00010000
00000000
01000000
00000000
00100000
01000000
00000000
00000000
00010000
00000000
,
00100000
00000000
00001000
00000000
00010000
00000000
00000100
00001000
00000000
00000000
00000000
00000000
00010100
00000000
00000000
00000000
,
00000100
00001000
00000001
00000000
00000100
00000000
00000000
00000000
00000010
00001000
00000001
00000000
00000010
00000000
00000100
00000000
,
00000010
00000000
00000010
00000000
00000001
00000000
00000000
00000000
00000001
00000100
00000010
00000000
00001000
00000100
00000010
00000000
,
00000100
00000000
00001000
00000000
00000010
00000000
00000100
00000000
00000001
00000000
00000100
00000010
00000000
00000000
00001000
00000000
,
00000100
00000000
00010000
00000000
00001000
00000000
00100000
00000000
01000000
00000000
00100000
01000000
00000000
00000000
00010000
00000000
,
00100000
01000000
10100000
00000000
10000000
01000000
00110000
01000000
,
00100000
00000000
00100000
00000000
01000000
00000000
01000000
00000000
00010000
10000000
00010000
00000000
10000000
00010000
10000000
00000000
,
01000000
00100000
00010000
00000000
01000000
00010000
00100000
00000000
,
00010000
00000100
00010000
00000100
00001000
00000100
00001000
00000001
,
00002002
00000000
00000000
00000000
,
00000000
00000000
00000000
00000000
,
00000000
00000000
00000000
00000000
,
00000000
00000000
00000000
00000000
,
00000000
00000000
00003003
00000000
00000000
00000000
00000000
00000000
00000000
00000000
00000000
00000000
00000000
00000000
00000000
00000000
00000000
00000000
00000000
00000000
00000000
00000000
00000000
00000000
00000000
00000000
00000000
00000000
00000000
00000000
00000000
00000000
00000000
00000000
00000000
00000000
00000000
00000000
00000000
00000000
00000000
00000000
00000000
00000000
00000000
00000000
00000000
00000000
00000000
00000000
00000000
00000000
00000000
00000000
00000000
00000000
00000000
00000000
00000000
00000000
00000000
00000000
00000000
00000000
00000000
00000000
00000000
00000000
00000000
00000000
00000000
00000000
00000000
00000000
00000000
00000000
00000000
00000000
00000000
00000000
00000000
00000000
00000000
00000000
00000000
00000000
00000000
00000000
00000000
00000000
00000000
00000000
00000000
00000000
00000000
00000000
00000000
00000000
00000000
00000000
00000000
00000000
00000000
00000000
00000000
00000000
00000000
00000000
00000000
00000000
00000000
00000000
00000000
00000000
00000000
00000000
00000000
00000000
00000000
00000000
00000000
00000000
00000000
00000000
00000000
00000000
00000000
00000000
00000000
00000000
00000000
00000000
00000000
00000000
00000000
00000000
00000000
00000000
00000000
00000000
00000000
00000000
00000000
00000000
00000000
00000000
00000000
00000000
00000000
00000000
00000000
00000000
00000000
00000000
00000000
00000000
00000000
00000000
00000000
00000000
00000000
00000000
00000000
00000000
00000000
00000000
00000000
00000000
00000000
00000000
00000000
00000000
00000000
00000000
00000000
00000000
00000000
00000000
00000000
00000000
00000000
00000000
00000000
00000000
00000000
00000000
00000000
00000000
00000000
00000000
00000000
00000000
;

//---------------dance-double - Chewi----------------
#NOTES:
     dance-double:
     Chewi:
     Challenge:
     6:
     0.308,0.367,0.113,0.205,0.000:
00000000
00000000
00000000
00000000
,
00000000
00000000
00000000
00000000
,
00000000
00000000
00000000
00000000
,
00000000
00000000
00000000
00000000
,
20000000
30100000
00020000
00130000
,
02000000
03100000
00020000
01030000
,
00010000
00100000
00001000
00010000
,
00000100
00000100
00000010
00000010
MMMMMMMM
00000000
00000000
00000000
,
00000002
00000000
00000103
00000000
00001000
00000100
00000001
00000000
,
00000100
00000010
MMMMMMMM
00000000
,
00000100
00001000
00010000
01000000
,
MMMMMMMM
00000000
00000000
00000000
00010000
10000000
01000000
00000000
,
00100000
00000000
00010000
10000000
00100000
00000000
01000000
00000000
,
00010000
00100000
MMMMMMMM
00000000
,
00010000
00000100
00010000
00001000
,
00000010
00000000
00000001
00000000
00000100
00000100
00000100
00000000
,
00001000
00000000
00000010
00000000
00000100
00000100
00000100
00000000
,
00002010
00000001
00003100
MMMMMMMM
,
00001000
00000100
00010000
MMMMMMMM
,
00012000
00100000
00013000
MMMMMMMM
,
00010000
01000000
00100000
MMMMMMMM
,
01000000
00110000
01010000
01000000
,
00100000
10010000
10010000
MMMMMMMM
,
20000000
31000000
00010000
MMMMMMMM
,
00020000
00130000
00001000
MMMMMMMM
,
00000200
00000000
00000310
00000000
00000001
00001000
00000010
00000000
,
00000100
00000001
00000100
MMMMMMMM
,
00002000
00000000
00003001
00000000
00001000
00000100
00000010
00000000
,
00000100
00000100
00010000
MMMMMMMM
,
00001000
00000000
00100000
10000000
02000000
03000000
MMMMMMMM
00000000
,
00100000
00000000
01000000
00010000
00200000
00300000
MMMMMMMM
00000000
,
01000000
00100000
00010000
00001000
,
00000100
00000010
00000011
MMMMMMMM
,
00000002
00000000
00000103
00000000
00000010
00000100
00000001
00000000
,
00001000
00000100
00001001
MMMMMMMM
,
00002000
00000000
00003010
00000000
00001000
00000100
00000001
00000000
,
00000100
00001000
00010000
01000000
,
00100000
00000000
01000000
00000000
00010000
00100000
01000000
00000000
,
10000000
01000000
10010000
MMMMMMMM
,
10000000
00100000
01000000
00010000
,
00100000
00000000
00100000
00000000
01000000
01000000
01000000
00000000
,
00200000
00310000
01000000
MMMMMMMM
,
00100000
00010000
00001000
00000000
00000010
00000000
MMMMMMMM
00000000
,
00000020
00000031
00000101
MMMMMMMM
,
00000010
00000100
00001000
00000000
00000010
00000000
MMMMMMMM
00000000
,
00000010
00001010
00001000
MMMMMMMM
,
00010000
00000000
01000000
00000000
00010000
00100000
MMMMMMMM
00000000
,
00100000
01000000
00100000
MMMMMMMM
,
01000000
01000000
01000000
00000000
00200000
00000000
10300000
00000000
,
00010000
MMMMMMMM
00010000
00000000
20000000
00000000
30010000
00000000
,
10000000
MMMMMMMM
10000000
00000000
00100000
00000000
00001000
MMMMMMMM
,
00002000
00000000
00000000
00000000
,
00000000
00000000
00000000
00000000
,
00000000
00000000
00000000
00000000
,
00000000
00000000
00000000
00000000
,
00000000
00003000
00000000
00000000
00000000
00000000
00000000
00000000
00000000
00000000
00000000
00000000
00000000
00000000
00000000
00000000
00000000
00000000
00000000
00000000
00000000
00000000
00000000
00000000
00000000
00000000
00000000
00000000
00000000
00000000
00000000
00000000
00000000
00000000
00000000
00000000
00000000
00000000
00000000
00000000
00000000
00000000
00000000
00000000
00000000
00000000
00000000
00000000
00000000
00000000
00000000
00000000
00000000
00000000
00000000
00000000
00000000
00000000
00000000
00000000
00000000
00000000
00000000
00000000
00000000
00000000
00000000
00000000
00000000
00000000
00000000
00000000
00000000
00000000
00000000
00000000
00000000
00000000
00000000
00000000
00000000
00000000
00000000
00000000
00000000
00000000
00000000
00000000
00000000
00000000
00000000
00000000
00000000
00000000
00000000
00000000
00000000
00000000
00000000
00000000
00000000
00000000
00000000
00000000
00000000
00000000
00000000
00000000
00000000
00000000
00000000
00000000
00000000
00000000
00000000
00000000
00000000
00000000
00000000
00000000
00000000
00000000
00000000
00000000
00000000
00000000
00000000
00000000
00000000
00000000
00000000
00000000
00000000
00000000
00000000
00000000
00000000
00000000
00000000
00000000
00000000
00000000
00000000
00000000
00000000
00000000
00000000
00000000
00000000
00000000
00000000
00000000
00000000
00000000
00000000
00000000
00000000
00000000
00000000
00000000
00000000
00000000
00000000
00000000
00000000
00000000
00000000
00000000
00000000
00000000
00000000
00000000
00000000
00000000
00000000
00000000
00000000
00000000
00000000
00000000
00000000
00000000
00000000
00000000
00000000
00000000
00000000
00000000
00000000
00000000
00000000
00000000
;

//---------------dance-single - hooky----------------
#NOTES:
     dance-single:
     hooky:
     Beginner:
     1:
     0.120,0.157,0.041,0.000,0.000: // measure 1
0000
0000
0000
0000
,  // measure 2
0000
0000
0000
0000
,  // measure 3
0000
0000
0000
0000
,  // measure 4
0000
0000
0000
0000
,  // measure 5
1000
0000
0000
0000
,  // measure 6
0001
0000
0000
0000
,  // measure 7
0100
0000
0100
0000
,  // measure 8
0010
0000
0110
0000
,  // measure 9
1000
0000
0100
0000
,  // measure 10
0001
0000
0100
0000
,  // measure 11
0001
0000
0000
0000
,  // measure 12
1000
0000
0000
0000
,  // measure 13
0100
0000
1000
0000
,  // measure 14
0001
0000
0001
0000
,  // measure 15
1000
0000
0000
0000
,  // measure 16
0001
0000
0001
0000
,  // measure 17
1000
0000
0010
0000
,  // measure 18
0100
0000
0000
0000
,  // measure 19
0001
0000
0000
0000
,  // measure 20
1000
0000
0000
0000
,  // measure 21
0010
0000
0100
0000
,  // measure 22
0010
0000
0000
0000
,  // measure 23
0100
0000
0001
0000
,  // measure 24
1001
0000
0010
0000
,  // measure 25
0100
0100
0100
0000
,  // measure 26
1000
0000
0000
0000
,  // measure 27
0001
0000
0001
0000
,  // measure 28
0100
0000
0000
0000
,  // measure 29
0010
0000
0100
0000
,  // measure 30
1000
0000
0000
0000
,  // measure 31
0001
0000
0000
0000
,  // measure 32
0100
0000
0100
0000
,  // measure 33
1001
0000
0000
0000
,  // measure 34
1000
0000
0100
0000
,  // measure 35
0010
0010
0010
0000
,  // measure 36
0001
0000
0000
0000
,  // measure 37
0100
0000
0000
0000
,  // measure 38
1000
0000
0001
0000
,  // measure 39
0100
0100
0100
0000
,  // measure 40
0010
0000
0000
0000
,  // measure 41
1000
0000
0000
0000
,  // measure 42
0100
0000
0010
0000
,  // measure 43
1000
1000
1000
0000
,  // measure 44
0001
0000
0000
0000
,  // measure 45
0100
0000
0000
0000
,  // measure 46
0010
0000
1000
0000
,  // measure 47
0001
0001
0001
0000
,  // measure 48
0010
0000
0000
0000
,  // measure 49
0100
0000
0000
0000
,  // measure 50
0010
0000
0100
0000
,  // measure 51
0010
0000
0100
0000
,  // measure 52
1001
0000
0000
0000
;

//---------------dance-single - hooky----------------
#NOTES:
     dance-single:
     hooky:
     Challenge:
     6:
     0.311,0.368,0.144,0.257,0.000:
0000
0000
0000
0000
,
0000
0000
0000
0000
,
0000
0000
0000
0000
,
0000
0000
0000
0000
,
1000
0100
1000
0100
,
0010
0001
0010
0001
,
0100
0010
1000
0100
,
0010
0001
1001
MMMM
,
1000
0000
0100
0000
0010
0001
0010
0000
,
0100
0000
0010
0100
0010
0000
MMMM
0000
,
0011
MMMM
1010
MMMM
,
1000
0100
1000
0000
0010
0001
0010
0000
,
0001
0000
0010
0000
0100
1000
0100
0000
,
0010
0000
0100
0010
0100
0000
0011
0000
,
1100
MMMM
0101
MMMM
,
0001
0010
0001
0000
0100
1000
0100
0000
,
0010
0100
0010
0000
1000
0010
0100
0000
,
1000
0000
0100
0000
1000
0000
0010
0100
,
0010
0000
0001
0000
0002
0003
MMMM
0000
,
0100
0000
0100
0000
0010
0100
0010
0000
,
1000
0000
0100
0000
2000
3000
MMMM
0000
,
0001
0001
0100
0100
,
0010
0000
0010
0000
1000
0100
0001
0010
,
2000
3000
MMMM
0000
0002
0003
MMMM
0000
,
1000
0000
0100
0000
2000
3000
MMMM
0000
,
0001
0010
0001
0000
0100
0000
MMMM
0000
,
0010
0000
MMMM
0000
,
0001
0000
0001
0000
1000
0100
1000
0000
,
0001
0000
MMMM
0000
,
0100
0000
0100
0000
0200
0300
MMMM
0000
,
0010
0000
0010
0000
0020
0030
MMMM
0000
,
1000
MMMM
1000
MMMM
,
0022
0000
0000
0033
MMMM
0000
MMMM
0000
,
1000
0000
0010
0000
0100
0001
0010
0000
,
1000
1000
0100
0000
0220
0330
MMMM
0000
,
0001
0001
0100
0010
,
2000
3000
MMMM
0000
0002
0003
MMMM
0000
,
0110
0000
1000
0000
0010
0100
0010
0000
,
0001
0000
0001
0000
1000
0100
1000
0000
,
0020
0030
MMMM
0000
0200
0300
MMMM
0000
,
1000
0000
0100
0000
0010
MMMM
MMMM
0000
,
1001
0000
0100
0000
0010
1000
0100
0000
,
0001
0001
0010
0000
0220
0330
MMMM
0000
,
1000
1000
0010
0100
,
0002
0003
MMMM
0000
2000
3000
MMMM
0000
,
0110
0000
0001
0000
0100
0010
0100
0000
,
1000
0000
1000
0000
0001
MMMM
MMMM
0000
,
0200
0300
MMMM
0000
0020
0030
MMMM
0000
,
0001
0000
0010
0000
0100
MMMM
MMMM
0000
,
0202
0303
MMMM
0000
1000
0100
1000
0000
,
0001
0000
MMMM
0000
1000
MMMM
0100
MMMM
,
2002
0000
0000
0000
,
0000
0000
0000
0000
,
0000
0000
0000
0000
,
0000
0000
0000
0000
,
3003
MMMM
0000
0000
0000
0000
0000
0000
;
