#TITLE:Kong Korps;
#SUBTITLE:;
#ARTIST:TenchuX;
#TITLETRANSLIT:;
#SUBTITLETRANSLIT:;
#ARTISTTRANSLIT:;
#CREDIT:348;
#BANNER:Kong Korps Banner.png;
#BACKGROUND:Kong Korps Background.png;
#LYRICSPATH:;
#CDTITLE:;
#MUSIC:Kong Korps.mp3;
#OFFSET:-3.473;
#SAMPLESTART:17.577;
#SAMPLELENGTH:15.000;
#SELECTABLE:YES;
#BPMS:0.000=135.000;
#STOPS:;
#BGCHANGES:;

//---------------dance-single - ----------------
#NOTES:
     dance-single:
     :
     Beginner:
     1:
     0.091,0.130,0.007,0.000,0.000: // measure 1
0000
0000
0000
0000
,  // measure 2
0000
0000
0000
0000
,  // measure 3
0000
0000
0000
0000
,  // measure 4
0000
0000
0000
0000
,  // measure 5
1000
0000
0000
0000
,  // measure 6
0000
0000
0000
0000
,  // measure 7
0001
0000
0000
0000
,  // measure 8
0000
0000
0000
0000
,  // measure 9
1000
0000
0000
0000
,  // measure 10
1000
0000
0000
0000
,  // measure 11
0001
0000
0000
0000
,  // measure 12
0001
0000
0000
0000
,  // measure 13
0100
0000
0000
0000
,  // measure 14
0100
0000
0000
0000
,  // measure 15
0010
0000
0000
0000
,  // measure 16
0010
0000
0000
0000
,  // measure 17
0100
0000
0000
0000
,  // measure 18
0000
0000
0000
0000
,  // measure 19
0010
0000
0000
0000
,  // measure 20
0000
0000
0000
0000
,  // measure 21
1000
0000
0000
1000
,  // measure 22
1000
0000
0000
0000
,  // measure 23
0001
0000
0000
0001
,  // measure 24
0001
0000
0000
0000
,  // measure 25
0010
0000
0000
0010
,  // measure 26
0010
0000
0000
0000
,  // measure 27
0100
0000
0000
0100
,  // measure 28
0100
0000
0000
0000
,  // measure 29
0010
0000
0000
0000
,  // measure 30
0010
0000
0010
0000
,  // measure 31
0001
0000
0000
0000
,  // measure 32
0001
0000
0001
0000
,  // measure 33
1000
0000
0000
0000
,  // measure 34
1000
0000
1000
0000
,  // measure 35
0100
0000
0000
0000
,  // measure 36
0100
0000
0100
0000
,  // measure 37
1000
0000
0000
0000
,  // measure 38
0100
0000
0000
0100
,  // measure 39
0100
0000
0000
0000
,  // measure 40
0010
0000
0000
0001
,  // measure 41
0001
0000
0000
0000
,  // measure 42
0010
0000
0000
0100
,  // measure 43
0100
0000
0000
0000
,  // measure 44
1000
0000
0000
0000
,  // measure 45
0001
0000
0000
0000
,  // measure 46
0100
0000
0000
0000
,  // measure 47
0010
0000
0000
0000
,  // measure 48
1000
0000
0000
0000
,  // measure 49
0001
0000
0001
0000
,  // measure 50
0001
0000
0000
0000
,  // measure 51
1000
0000
1000
0000
,  // measure 52
1000
0000
0000
0000
,  // measure 53
0010
0000
0010
0000
,  // measure 54
0010
0000
0000
0000
,  // measure 55
0100
0000
0100
0000
,  // measure 56
0100
0000
0000
0000
,  // measure 57
0010
0000
0000
0000
,  // measure 58
0010
0000
0010
0010
,  // measure 59
0010
0000
0000
0000
,  // measure 60
0100
0000
0100
0100
,  // measure 61
0100
0000
0000
0000
,  // measure 62
0001
0000
0001
0001
,  // measure 63
0001
0000
0000
0000
,  // measure 64
1000
0000
0001
0000
,  // measure 65
1000
0000
0000
0000
,  // measure 66
1000
0000
0000
0000
,  // measure 67
0100
0000
0000
0000
,  // measure 68
0100
0000
0000
0000
,  // measure 69
0010
0000
0000
0000
,  // measure 70
0010
0000
0000
0000
,  // measure 71
0001
0000
0000
0000
,  // measure 72
0001
0000
0000
0000
,  // measure 73
1001
0000
0000
0000
;

//---------------dance-single - ----------------
#NOTES:
     dance-single:
     :
     Easy:
     3:
     0.214,0.260,0.123,0.087,0.000: // measure 1
0000
0000
0000
0000
,  // measure 2
0000
0000
0000
0000
,  // measure 3
0000
0000
0000
0000
,  // measure 4
0000
0000
0000
0000
,  // measure 5
1000
0000
0001
0000
,  // measure 6
1000
0000
0001
0000
,  // measure 7
0100
0000
0010
0000
,  // measure 8
0100
0000
0010
0000
,  // measure 9
1000
1000
0000
0000
,  // measure 10
0010
0010
0000
0000
,  // measure 11
0100
0100
0000
0000
,  // measure 12
0001
0001
0000
0000
,  // measure 13
1000
0010
0000
0000
,  // measure 14
1000
0010
0000
0000
,  // measure 15
0100
0001
0000
0000
,  // measure 16
0100
0001
0000
0000
,  // measure 17
2000
0000
0000
3000
,  // measure 18
0200
0000
0000
0300
,  // measure 19
0020
0000
0000
0030
,  // measure 20
0002
0000
0000
0003
,  // measure 21
1000
0100
1000
0000
,  // measure 22
0001
0000
1010
0000
,  // measure 23
0001
0010
0001
0000
,  // measure 24
1000
0000
0101
0000
,  // measure 25
0010
1000
0010
0000
,  // measure 26
0100
0000
0011
0000
,  // measure 27
0100
0001
0100
0000
,  // measure 28
0010
0000
1100
0000
,  // measure 29
0001
0010
0001
0001
,  // measure 30
1000
0000
1000
0001
,  // measure 31
1000
0100
1000
1000
,  // measure 32
0001
0000
0001
1000
,  // measure 33
0010
1000
0010
0010
,  // measure 34
0100
0000
0100
0001
,  // measure 35
0100
0001
0100
0100
,  // measure 36
0010
0000
0010
1000
,  // measure 37
0002
0000
1003
0100
,  // measure 38
0020
0000
0031
1000
,  // measure 39
0200
0000
0310
0001
,  // measure 40
2000
0000
3001
1000
,  // measure 41
0001
0100
0000
1010
,  // measure 42
0001
0010
0000
1100
,  // measure 43
0010
1000
0000
0011
,  // measure 44
0100
1000
0000
0011
,  // measure 45
1000
0001
0000
0001
,  // measure 46
0000
0100
0000
0100
,  // measure 47
0000
0010
0000
0010
,  // measure 48
1000
0100
0001
0100
,  // measure 49
2000
0000
3001
1000
,  // measure 50
0001
0100
0001
0000
,  // measure 51
0002
0000
1003
0010
,  // measure 52
1000
0100
1000
0000
,  // measure 53
0020
0000
0130
0001
,  // measure 54
0100
0010
0100
0000
,  // measure 55
0200
0000
0310
1000
,  // measure 56
0010
0100
0010
0000
,  // measure 57
1100
0000
1010
0000
,  // measure 58
1000
0100
1000
0100
,  // measure 59
0011
0000
0101
0000
,  // measure 60
0001
0010
0001
0010
,  // measure 61
0101
0000
1100
0000
,  // measure 62
0010
1000
0010
1000
,  // measure 63
0011
0000
1010
0000
,  // measure 64
0001
0100
0001
0100
,  // measure 65
0001
0000
0001
0000
,  // measure 66
0100
0000
0100
0000
,  // measure 67
0010
0000
0010
0000
,  // measure 68
1000
0000
1000
0000
,  // measure 69
0001
0000
0010
0000
,  // measure 70
0100
0000
1000
0000
,  // measure 71
0001
0000
1000
0000
,  // measure 72
0010
0100
0001
1000
,  // measure 73
1001
0000
0000
0000
;

//---------------dance-single - ----------------
#NOTES:
     dance-single:
     :
     Medium:
     6:
     0.379,0.417,0.137,0.159,0.072: // measure 1
0000
0000
0000
0000
,  // measure 2
0000
0000
0000
0000
,  // measure 3
0000
0000
0000
0000
,  // measure 4
0000
0000
0000
0000
,  // measure 5
1000
0100
0010
0001
,  // measure 6
1000
0001
0100
0010
,  // measure 7
1000
0001
1000
0001
,  // measure 8
0110
2002
3003
0110
,  // measure 9
1000
0000
0100
0000
1000
0100
1000
0000
,  // measure 10
0001
0000
0010
0000
0001
0010
0001
0000
,  // measure 11
0100
0000
0001
0000
0100
0001
0100
0000
,  // measure 12
0010
0000
1000
0000
0010
1000
0010
0000
,  // measure 13
1000
0000
0100
0000
0010
0001
0010
0000
,  // measure 14
0001
0000
0010
0000
0100
1000
0100
0000
,  // measure 15
1000
0000
0010
0000
0100
0001
0100
0000
,  // measure 16
0001
0000
0100
0000
0010
1000
0010
0000
,  // measure 17
2000
3100
0002
0013
,  // measure 18
0200
0301
0020
1030
,  // measure 19
2000
3001
0020
0130
,  // measure 20
1001
0220
0330
1001
,  // measure 21
0100
0000
0001
1000
0000
0100
0000
1000
,  // measure 22
0001
0000
0100
0010
0000
1000
0000
0010
,  // measure 23
1000
0000
0010
0100
0000
0001
0000
0100
,  // measure 24
0010
0000
1000
0001
0000
0100
0000
0001
,  // measure 25
1000
0000
0001
0010
0000
1000
0000
0010
,  // measure 26
0001
0000
1000
0100
0000
0001
0000
0100
,  // measure 27
1000
0000
0010
0001
0000
0010
0000
1000
,  // measure 28
0100
0000
0001
0100
0000
1000
0000
0001
,  // measure 29
1000
0000
0010
0100
0000
0100
0010
0000
,  // measure 30
0100
0000
0001
1000
0000
1000
0001
0000
,  // measure 31
0100
0000
0010
1000
0000
1000
0010
0000
,  // measure 32
1000
0000
0001
0100
0000
0100
0001
0000
,  // measure 33
0010
0000
0001
0010
0000
0010
0001
0000
,  // measure 34
1000
0000
0100
1000
0000
1000
0100
0000
,  // measure 35
1000
0000
0001
1000
0000
1000
0001
0000
,  // measure 36
0100
0000
0010
0100
0000
0100
0010
0000
,  // measure 37
1000
0000
0000
0100
0000
0000
0001
0000
0000
0000
0010
0000
0100
0000
0000
0000
,  // measure 38
0001
0000
0000
0100
0000
0000
1000
0000
0000
0000
0010
0000
0100
0000
0000
0000
,  // measure 39
1000
0000
0000
1000
0000
0000
1000
0000
0000
0000
0001
0000
0001
0000
0000
0000
,  // measure 40
0100
0000
0000
0100
0000
0000
0100
0000
0000
0000
0010
0000
0010
0000
0000
0000
,  // measure 41
2000
0000
0000
0001
0000
0001
3001
0000
,  // measure 42
0002
0000
0000
0100
0000
0100
0103
0000
,  // measure 43
0200
0000
0000
0010
0000
0010
0310
0000
,  // measure 44
0020
0000
0000
1000
0000
1000
1030
0000
,  // measure 45
2000
0000
3001
0000
0010
0100
0010
0000
,  // measure 46
0002
0000
1003
0000
0010
0100
0010
0000
,  // measure 47
0200
0000
0310
0000
0001
1000
0001
0000
,  // measure 48
0110
2002
3003
0110
,  // measure 49
1010
0000
0000
0001
0000
0000
0100
0000
0000
0000
0010
0000
1000
0000
0000
0000
,  // measure 50
0011
0000
0000
1000
0000
0000
0100
0000
0000
0000
0010
0000
0001
0000
0000
0000
,  // measure 51
1100
0000
0000
0001
0000
0000
0010
0000
0000
0000
0100
0000
1000
0000
0000
0000
,  // measure 52
0101
0000
0000
1000
0000
0000
0010
0000
0000
0000
0100
0000
0001
0000
0000
0000
,  // measure 53
1000
0000
0000
0100
0000
0000
0001
0000
0000
0000
0100
0000
1000
0000
0000
0000
,  // measure 54
0001
0000
0000
0010
0000
0000
1000
0000
0000
0000
0010
0000
0001
0000
0000
0000
,  // measure 55
1000
0000
0000
0010
0000
0000
0001
0000
0000
0000
0010
0000
1000
0000
0000
0000
,  // measure 56
0001
0000
0000
0100
0000
0000
1000
0000
0000
0000
0100
0000
0001
0000
0000
0000
,  // measure 57
1000
0000
0100
0000
1000
0000
0000
0000
0001
0000
0000
0001
0000
0000
0001
0000
,  // measure 58
0001
0000
0010
0000
0001
0000
0000
0000
1000
0000
0000
1000
0000
0000
1000
0000
,  // measure 59
0010
0000
1000
0000
0010
0000
0000
0000
0100
0000
0000
0100
0000
0000
0100
0000
,  // measure 60
0100
0000
0001
0000
0100
0000
0000
0000
0010
0000
0000
0010
0000
0000
0010
0000
,  // measure 61
1000
0000
0100
0000
0010
0000
0000
0000
0001
0000
0000
1000
0000
0000
0001
0000
,  // measure 62
1000
0000
0010
0000
0100
0000
0000
0000
0001
0000
0000
0100
0000
0000
0001
0000
,  // measure 63
1000
0000
0001
0000
1000
0000
0000
0000
0001
0000
0000
0010
0000
0000
0001
0000
,  // measure 64
0100
0000
0010
0000
0100
0000
0000
0000
0001
0000
0000
0001
0000
0000
0001
0000
,  // measure 65
1000
0000
0001
0100
0000
0100
0010
0000
,  // measure 66
0010
0000
1000
0010
0000
0010
0100
0000
,  // measure 67
0100
0000
0010
1000
0000
1000
0001
0000
,  // measure 68
0001
0000
1000
0010
0000
0010
0100
0000
,  // measure 69
0200
0000
0000
0301
0000
0101
0000
0000
,  // measure 70
0020
0000
0000
1030
0000
1010
0000
0000
,  // measure 71
2000
0000
0000
3001
0000
1001
0000
0000
,  // measure 72
0100
0011
0010
1100
,  // measure 73
0110
0000
0000
0000
;

//---------------dance-single - ----------------
#NOTES:
     dance-single:
     :
     Hard:
     7:
     0.469,0.417,0.268,0.116,0.112: // measure 1
0000
0000
0000
0000
,  // measure 2
0000
0000
0000
0000
,  // measure 3
0000
0000
0000
0000
,  // measure 4
0000
0000
0000
0000
,  // measure 5
1000
0000
0000
0001
0000
0000
0100
0000
0000
0000
0001
0000
1000
0000
0010
0000
,  // measure 6
0100
0000
0000
0001
0000
0000
1000
0000
0000
0000
0010
0000
1000
0000
0001
0000
,  // measure 7
0100
0000
0000
0001
0000
0000
1000
0000
0000
0000
0100
0000
0001
0000
0100
0000
,  // measure 8
1000
0000
0110
0000
0001
0010
0001
0100
,  // measure 9
0001
0000
1000
0100
1000
0001
0010
0001
,  // measure 10
1000
0000
0010
1000
0100
1000
0010
0100
,  // measure 11
0001
0000
0100
0010
1000
0001
1000
0001
,  // measure 12
0100
0000
0001
0010
0100
1000
0001
1000
,  // measure 13
0002
0000
0000
0010
0000
0000
0103
0000
0000
0000
1000
0000
0010
0000
1000
0000
,  // measure 14
0020
0000
0000
0100
0000
0000
1030
0000
0000
0000
0001
0000
0010
0000
0100
0000
,  // measure 15
2000
0000
0000
0100
0000
0000
3010
0000
0000
0000
0001
0000
1000
0000
0010
0000
,  // measure 16
0200
0000
0000
0010
0000
0000
0301
0000
0000
0000
1000
0000
0001
0000
1000
0000
,  // measure 17
0001
0000
1010
0000
0001
0010
0001
0100
,  // measure 18
0010
0000
1100
0000
0010
1000
0001
1000
,  // measure 19
0100
0000
0011
0000
1000
0100
1000
0010
,  // measure 20
1000
0101
0110
1001
,  // measure 21
0100
0010
0100
0020
0000
0100
0000
0130
,  // measure 22
0001
1000
0001
2000
0000
0010
0000
3010
,  // measure 23
1000
0001
1000
0002
0000
1000
0000
1003
,  // measure 24
0010
0100
0010
0200
0000
0001
0000
0301
,  // measure 25
1000
0000
0100
0000
1000
0000
0000
0000
0100
0000
0000
0001
0000
0000
0100
0000
,  // measure 26
1000
0000
0010
0000
0100
0000
0000
0000
0001
0000
0000
1000
0000
0000
0001
0000
,  // measure 27
0100
0000
0001
0000
1000
0000
0000
0000
0010
0000
0000
0001
0000
0000
0010
0000
,  // measure 28
1000
0000
0100
0000
0010
0000
0000
0000
0001
0000
0000
1000
0000
0000
0001
0000
,  // measure 29
1000
0000
0001
0100
0000
1001
0000
0100
,  // measure 30
0001
0000
0100
0001
0000
0110
0000
0001
,  // measure 31
0100
0000
0010
1000
0000
0110
0000
1000
,  // measure 32
0010
0000
1000
0100
0000
1001
0000
0100
,  // measure 33
1000
0100
0010
0001
0000
1100
0000
0010
,  // measure 34
0100
0010
0001
0010
0000
0101
0000
1000
,  // measure 35
0100
0001
0100
1000
0000
0011
0000
1000
,  // measure 36
0001
1000
0001
0100
0000
1010
0000
0001
,  // measure 37
1000
0000
0000
0100
0000
0000
1000
0000
0001
0000
0010
0000
1000
0000
0010
0000
,  // measure 38
0001
0000
0000
0010
0000
0000
0001
0000
1000
0000
0100
0000
0001
0000
0100
0000
,  // measure 39
1000
0000
0000
0010
0000
0000
0100
0000
0001
0000
1000
0000
0010
0000
1000
0000
,  // measure 40
0001
0000
0000
0100
0000
0000
0010
0000
1000
0000
0001
0000
0010
0000
0001
0000
,  // measure 41
2000
0000
0000
0010
0000
0000
0010
0000
0000
0000
3010
0000
0000
0000
0001
0000
,  // measure 42
0002
0000
0000
0100
0000
0000
0100
0000
0000
0000
0103
0000
0000
0000
0010
0000
,  // measure 43
0020
0000
0000
0001
0000
0000
0001
0000
0000
0000
0031
0000
0000
0000
0100
0000
,  // measure 44
0200
0000
0000
1000
0000
0000
1000
0000
0000
0000
1300
0000
0000
0000
1000
0000
,  // measure 45
1000
0100
0001
0000
0001
0100
1000
0100
,  // measure 46
0001
0010
1000
0000
1000
0010
0001
0010
,  // measure 47
1000
0100
0001
0000
0001
0100
1000
0000
,  // measure 48
0011
1100
0101
1010
,  // measure 49
0001
0000
0100
0000
1000
0000
0100
0000
0010
0000
0000
0010
0000
0000
0010
0000
,  // measure 50
1000
0000
0010
0000
0001
0000
0010
0000
0100
0000
0000
0100
0000
0000
0100
0000
,  // measure 51
0001
0000
1000
0000
0100
0000
1000
0000
0001
0000
0000
0001
0000
0000
0001
0000
,  // measure 52
0100
0000
1000
0000
0001
0000
0010
0000
1000
0000
0000
1000
0000
0000
1000
0000
,  // measure 53
0001
0000
0010
0000
0010
0000
0000
0000
0001
0000
0000
1100
0000
0000
0001
0000
,  // measure 54
1000
0000
0100
0000
0100
0000
0000
0000
1000
0000
0000
0011
0000
0000
1000
0000
,  // measure 55
0010
0000
0100
0000
0100
0000
0000
0000
0010
0000
0000
0101
0000
0000
0010
0000
,  // measure 56
0100
0000
0010
0000
0010
0000
0000
0000
0100
0000
0000
1010
0000
0000
0100
0000
,  // measure 57
1000
0000
0001
0200
0000
0301
1000
0100
,  // measure 58
1000
0000
0001
0010
0000
0011
0000
0100
,  // measure 59
0010
0000
0100
0002
0000
0103
0010
1000
,  // measure 60
0010
0000
0100
0001
0000
0101
0000
1000
,  // measure 61
0001
0000
1000
0020
0000
1030
0001
0010
,  // measure 62
0001
0000
1000
0100
0000
1100
0000
0010
,  // measure 63
0100
0000
0010
2000
0000
3010
0100
0001
,  // measure 64
0100
0000
0010
1000
0000
1010
0000
0001
,  // measure 65
1000
0000
0000
0110
0000
0000
1000
0000
0000
0000
0001
0000
1000
0000
0000
0000
,  // measure 66
0001
0000
0000
0110
0000
0000
0001
0000
0000
0000
1000
0000
0001
0000
0000
0000
,  // measure 67
0100
0000
0000
1001
0000
0000
0100
0000
0000
0000
0010
0000
0100
0000
0000
0000
,  // measure 68
0010
0000
0000
1001
0000
0000
0100
0000
0000
0000
0010
0000
0100
0000
0000
0000
,  // measure 69
0101
0000
1000
0100
0001
0100
1000
0000
,  // measure 70
1010
0000
0001
0010
1000
0010
0001
0000
,  // measure 71
0110
0000
0001
1000
0010
0100
0010
0000
,  // measure 72
0100
0011
0100
1100
,  // measure 73
1001
0000
0000
0000
;

//---------------dance-single - ----------------
#NOTES:
     dance-single:
     :
     Challenge:
     9:
     0.629,0.653,0.203,0.203,0.510: // measure 1
0000
0000
0000
0000
,  // measure 2
0000
0000
0000
0000
,  // measure 3
0000
0000
0000
0000
,  // measure 4
0000
0000
0000
0000
,  // measure 5
1100
0000
0000
0110
0000
0000
0011
0000
0000
0000
1000
0000
0001
0100
0000
0010
,  // measure 6
1000
0000
0000
1001
0000
0000
0101
0000
0000
0000
0100
0000
0010
0100
0000
0010
,  // measure 7
0100
0000
0000
1001
0000
0000
0110
0000
0000
0000
1000
0000
0001
0000
1000
0000
,  // measure 8
0010
0000
1000
0100
1000
0000
0001
0010
0001
0000
1000
0000
0010
0100
0010
0000
,  // measure 9
1000
0000
0000
0001
0100
0000
0001
0000
1000
0000
0010
0000
1000
0001
0000
0100
,  // measure 10
0010
0000
0000
1000
0100
0000
1000
0000
0001
0000
0100
0000
0010
1000
0000
0001
,  // measure 11
0100
0000
0000
0010
1000
0000
0001
0000
0010
0000
0001
0000
1000
0100
0000
0010
,  // measure 12
0001
0000
0000
0100
0010
0000
1000
0000
0010
0000
1000
0000
0001
1000
0000
0001
,  // measure 13
0010
0000
0001
1000
0002
0000
0000
0000
0103
0010
0000
0100
0010
0000
0100
0000
,  // measure 14
0010
0000
1000
0100
2000
0000
0000
0000
3001
1000
0000
0001
1000
0000
0001
0000
,  // measure 15
0100
0000
0001
1000
0002
0000
0000
0000
1003
0100
0000
1000
0100
0000
1000
0000
,  // measure 16
0100
0000
1000
0001
2000
0000
0000
0000
3010
0100
0000
0010
0100
0000
0010
0000
,  // measure 17
1000
0100
0020
0000
0130
1000
0100
0001
,  // measure 18
0100
1000
0002
0000
0103
0001
1000
0010
,  // measure 19
0001
0010
2000
0000
3001
1000
0001
0000
,  // measure 20
0100
0000
0010
1000
0010
0000
0100
0001
0100
0000
0001
0000
1000
0010
1000
0010
,  // measure 21
1000
0000
0100
0000
0002
0000
0000
0000
0103
1000
0000
0000
0001
0000
0010
0000
,  // measure 22
0001
0000
0010
0000
2000
0000
0000
0000
3010
0001
0000
0000
1000
0000
0100
0000
,  // measure 23
1000
0000
0010
0000
0001
0000
0000
0000
0010
1000
0000
0000
0001
0000
0100
0000
,  // measure 24
0001
0000
0100
0000
2000
0000
0000
0000
3100
0001
0000
0000
1000
0000
0010
0000
,  // measure 25
1000
0000
0000
0000
0101
0000
0000
0000
1000
0010
0000
0000
0100
0000
0001
0000
,  // measure 26
0010
0000
0000
0000
1100
0000
0000
0000
0001
0010
0000
0000
0001
0000
1000
0000
,  // measure 27
0001
0000
0000
0000
1010
0000
0000
0000
0001
1000
0000
0000
0100
0000
1000
0000
,  // measure 28
0100
0000
0000
0000
0011
0000
0000
0000
1000
0001
0000
0000
0100
0000
0010
0000
,  // measure 29
1000
0000
0000
0001
0200
0000
0001
0000
0000
0000
0301
0000
1000
0100
0000
0100
,  // measure 30
0001
0000
0000
0100
2000
0000
0100
0000
0000
0000
3001
0000
0010
0001
0000
0010
,  // measure 31
1000
0000
0000
0010
0002
0000
1000
0000
0000
0000
1003
0000
0010
1000
0000
1000
,  // measure 32
0001
0000
0000
0100
0020
0000
1000
0000
0000
0000
1030
0000
0001
0010
0000
0010
,  // measure 33
1000
0000
0000
0010
0001
0000
0000
0000
1000
0100
1000
0000
0001
0000
1000
0000
,  // measure 34
0011
0000
0000
0100
0010
0000
0000
0000
0100
0001
0100
0000
0010
0000
1000
0000
,  // measure 35
0110
0000
0000
1000
0100
0000
0000
0000
0010
0001
0010
0000
0001
0000
0010
0000
,  // measure 36
1100
0000
0000
0001
1000
0000
0000
0000
0001
0010
0001
0000
1000
0010
1000
0000
,  // measure 37
0001
0000
0000
1000
0100
0000
1000
0000
0100
0000
0001
0000
1000
0000
0010
0000
,  // measure 38
0001
0000
0000
0010
0001
0000
0100
0000
0001
0000
1000
0000
0001
1000
0001
0000
,  // measure 39
1000
0000
0000
0001
0010
0000
0001
0000
0100
0000
1000
0000
0001
0000
0010
0000
,  // measure 40
1000
0000
0000
0100
1000
0000
0010
0000
1000
0000
0001
0000
1000
0001
1000
0000
,  // measure 41
0011
0000
0000
1000
0020
0000
0100
0000
0100
0000
0100
0000
1000
0000
1030
0000
,  // measure 42
1010
0000
0000
0100
2000
0000
0010
0000
0010
0000
0010
0000
0100
0000
3100
0000
,  // measure 43
1100
0000
0000
0001
0200
0000
0010
0000
0010
0000
0010
0000
0001
0000
0301
0000
,  // measure 44
0101
0000
0000
0010
0002
0000
0100
0000
0100
0000
0100
0000
0010
0000
0010
0000
,  // measure 45
1003
0000
0000
0001
0010
0000
0001
0000
0100
0000
0000
0010
1000
0000
0100
0000
,  // measure 46
1000
0000
0000
0010
0100
0000
0001
0000
0010
0000
0000
0100
1000
0000
0010
0000
,  // measure 47
0100
0000
0000
0001
1000
0000
0001
0000
1000
0000
0000
0010
0100
0000
0010
0000
,  // measure 48
1000
0100
1000
0000
0001
0010
0001
0000
1000
0000
0100
0000
0010
0000
0001
0000
,  // measure 49
1000
0000
0000
0001
1000
0000
0010
0000
0001
0000
0010
0000
1000
0001
1000
0000
,  // measure 50
0001
0000
0000
1000
0001
0000
0100
0000
1000
0000
0100
0000
0001
1000
0001
0000
,  // measure 51
0100
0000
0000
0010
1000
0000
0010
0000
0001
0000
0010
0000
0100
0010
0100
0000
,  // measure 52
0010
0000
0000
0100
0001
0000
0100
0000
1000
0000
0100
0000
0010
0100
0010
0000
,  // measure 53
1000
0000
0010
0100
0010
0000
1000
0000
0000
0000
0001
0000
0100
0010
0100
0000
,  // measure 54
0001
0000
0010
0100
0010
0000
0001
0000
0000
0000
1000
0000
0100
0010
0100
0000
,  // measure 55
1000
0000
0001
0100
0010
0000
0100
0000
0000
0000
0010
0000
1000
0010
0100
0000
,  // measure 56
0001
0000
0100
0001
0010
0000
0001
0000
0000
0000
1000
0000
0010
1000
0100
0000
,  // measure 57
1000
0000
0001
0100
0001
0100
0001
0000
0000
0000
1010
0000
0000
0000
1000
0000
,  // measure 58
0001
0000
1000
0010
1000
0010
1000
0000
0000
0000
0101
0000
0000
0000
0001
0000
,  // measure 59
0100
0000
0001
0010
0001
0010
0002
0000
0000
0000
0100
0000
0000
0000
1003
0000
,  // measure 60
0010
0000
1000
0100
1000
0100
2000
0000
0000
0000
0010
0000
0000
0000
3001
0000
,  // measure 61
0100
0000
0001
0100
0000
0010
0100
0000
0000
0001
1000
0000
0100
0000
0010
0000
,  // measure 62
0001
0000
1000
0100
0000
0100
1000
0000
0000
0001
1000
0000
0010
0000
0100
0000
,  // measure 63
0010
0000
1000
0010
0000
0100
0010
0000
0000
1000
0001
0000
0100
0000
0010
0000
,  // measure 64
1000
0000
0001
0010
0000
0010
0001
0000
0000
1000
0001
0000
0100
0000
0010
0000
,  // measure 65
1000
0000
0000
0101
0000
0000
0010
0000
0000
1100
0000
0000
0001
0000
0000
0000
,  // measure 66
0100
0000
0000
0011
0000
0000
1000
0000
0000
1010
0000
0000
0010
0000
0000
0000
,  // measure 67
1000
0000
0000
0011
0000
0000
0100
0000
0000
0101
0000
0000
0001
0000
0000
0000
,  // measure 68
0010
0000
0000
1100
0000
0000
0001
0000
0000
1010
0000
0000
0100
0000
0000
0000
,  // measure 69
2000
0000
0000
3001
0100
0000
0001
0000
2000
0000
3001
0010
0001
0000
1000
0000
,  // measure 70
0002
0000
0000
1003
0010
0000
1000
0000
0002
0000
1003
0100
1000
0000
0001
0000
,  // measure 71
0200
0000
0000
0310
0100
0000
0010
0000
0200
0000
0310
0100
0010
0000
0100
0000
,  // measure 72
0010
1000
0010
0000
0100
0001
0100
0000
0001
0010
0100
1000
0001
0010
0200
2000
,  // measure 73
0000
3300
0000
0000
;
