#TITLE:Sexy Chick;
#SUBTITLE:;
#ARTIST:David Guetta feat. Akon;
#TITLETRANSLIT:;
#SUBTITLETRANSLIT:;
#ARTISTTRANSLIT:;
#GENRE:;
#CREDIT:Telperion;
#BANNER:Sexy Chick-bn.png;
#BACKGROUND:Summer_Contest2010-bg.png;
#LYRICSPATH:;
#CDTITLE:;
#MUSIC:Sexy Chick.mp3;
#OFFSET:-2.118;
#SAMPLESTART:48.267;
#SAMPLELENGTH:24.928;
#SELECTABLE:YES;
#DISPLAYBPM:130.000;
#BPMS:0.000=130.000;
#STOPS:;
#BGCHANGES:0.000=Sexy_Chick.avi=1.000=1=0=0;
#KEYSOUNDS:;

//---------------dance-single - Telperion----------------
#NOTES:
     dance-single:
     Telperion:
     Hard:
     7:
     1.000,1.000,1.000,1.000,0.000:
0000
0000
0000
0000
,
0000
0000
0000
0000
,
0000
0000
0000
0000
,
0000
0000
0000
0000
,
0000
0000
0000
0000
,
0000
0000
0000
0000
,
0000
0000
0000
0000
,
0000
0000
0000
0000
,
1000
0001
0001
1000
,
1000
0001
0001
1000
,
1000
0100
0100
0010
,
0010
0001
0001
0100
,
0100
0010
0010
0100
,
0100
0010
0010
0100
,
0100
0001
0001
0020
,
0200
0000
0000
0000
0330
0100
1000
0001
,
0100
0010
1000
0100
,
0010
0001
1000
0001
,
0100
0010
1000
0001
,
0100
0000
0001
1000
1000
0001
0010
0100
,
2000
0001
0001
3001
,
1000
0000
0001
0010
0100
1000
0010
0100
,
0002
1000
1000
1003
,
0001
0100
2002
3000
,
0013
0100
1000
0001
,
0100
0000
0100
0000
0001
0000
0001
0010
,
0100
1000
0001
0100
,
0010
0000
0010
0000
1000
0000
1000
0001
,
0010
0100
0100
0010
,
0010
0001
1000
0001
0100
0010
0100
0002
,
0010
0000
0010
0000
1000
0000
1003
0001
,
0100
0000
0100
0010
0100
0010
0100
0010
,
1000
0100
1000
0000
0001
0100
0001
0000
,
1000
0010
1000
0100
0010
0100
0001
0100
,
0010
0001
0010
0000
0001
0100
0001
0000
,
1000
0100
1000
0001
0100
1000
0100
0010
,
1000
0001
1000
0001
0010
0100
0010
0100
,
1000
0010
1000
0010
0100
0001
0001
0002
,
1000
2003
0100
3200
,
0001
0000
1300
1001
0000
0110
0000
0000
,
1000
0100
0010
0001
0100
0001
0100
0000
,
0010
1000
0100
1000
0001
0010
0021
0000
,
0031
1000
0010
0100
1000
0100
1000
0000
,
0100
0001
0010
0110
0000
1001
0000
0000
,
0010
1000
0100
1000
0001
0100
0001
0000
,
0010
0100
1000
0010
0100
0001
0102
0000
,
1003
0100
0001
0100
1000
0100
0020
0000
,
0032
0000
0103
0110
0000
1001
0000
0000
,
1000
0010
0100
0001
0010
0100
0010
0100
,
1000
0001
0100
0010
1000
0010
1000
0100
,
0010
0001
0010
0100
0001
0100
1000
0100
,
0010
0000
0020
0000
0031
0000
0002
1000
,
1003
0010
0100
0001
0010
0100
0010
0100
,
1000
0001
0100
0010
0001
0010
0100
0010
,
1000
0100
1000
0001
0100
0001
0010
0001
,
1000
0000
2000
0000
3001
1000
0001
1000
,
0020
0100
0100
0100
,
0230
0010
0010
0010
,
0320
1000
1000
1000
,
2030
3002
0023
0130
,
0110
0000
0000
0000
;

//---------------dance-single - Telperion----------------
#NOTES:
     dance-single:
     Telperion:
     Medium:
     5:
     1.000,1.000,1.000,1.000,0.000:
0000
0000
0000
0000
,
0000
0000
0000
0000
,
0000
0000
0000
0000
,
0000
0000
0000
0000
,
0000
0000
0000
0000
,
0000
0000
0000
0000
,
0000
0000
0000
0000
,
0000
0000
0000
0000
,
1000
0001
0001
1000
,
1000
0001
0100
0000
,
0001
1000
1000
0001
,
0001
1000
0100
0000
,
0010
0001
0001
0100
,
0100
0010
1000
0000
,
0010
1000
1000
0100
,
0020
1000
0000
0031
,
1001
0001
0100
0100
,
1000
1000
0100
0001
,
1000
1000
0100
0100
,
0001
0001
0100
1000
,
0001
0002
0100
0103
,
0001
0000
0001
0000
1000
0100
1000
0000
,
0001
0002
0010
0013
,
0001
1000
0010
0100
,
0220
0000
0000
0030
,
0002
0300
2000
0003
,
3200
0000
0000
0000
,
1300
0001
0100
0010
,
0120
0000
2030
0000
,
3200
0000
0302
0000
,
0023
0000
2030
0000
,
0001
3002
1000
1003
,
0001
1000
0100
1000
0001
1000
0100
1000
,
0001
0001
1000
1000
,
0001
1000
0001
0100
0010
1000
0010
0100
,
0001
0000
0001
0000
0010
0000
0010
0001
,
1000
0100
0010
0001
1000
0100
1000
0001
,
0100
0010
1000
0001
0100
0010
1000
0001
,
0100
0100
0010
0010
,
1000
0000
0001
0020
0000
0000
0000
0000
,
0130
0100
1000
1000
,
0001
0000
0001
0000
1000
0000
1000
0010
,
0100
0100
0001
0001
,
1000
0000
2000
0001
0000
3001
0000
0000
,
0100
0010
0001
0001
,
0100
0000
0000
0010
1000
0010
1000
0000
,
0100
0100
0010
0010
,
0001
0000
1000
1000
0000
0001
0000
1000
,
0001
0000
0100
0000
0010
0100
0001
0000
,
1000
0000
0100
0000
0010
0100
1000
0100
,
0010
0000
0001
0000
0100
0001
0100
0000
,
0010
0000
1000
0000
0100
1000
0001
0100
,
0010
0100
0010
0100
,
0001
0000
1000
0000
0100
1000
0001
0100
,
0001
1000
0001
1000
,
0100
0100
0010
0100
,
0210
0010
0010
0000
,
2300
0001
0001
0000
,
3020
0100
0100
0000
,
1030
0000
0001
0000
,
1001
0000
0000
0000
;

//---------------dance-single - Telperion----------------
#NOTES:
     dance-single:
     Telperion:
     Easy:
     3:
     1.000,1.000,1.000,1.000,0.000:
0000
0000
0000
0000
,
0000
0000
0000
0000
,
0000
0000
0000
0000
,
0000
0000
0000
0000
,
0000
0000
0000
0000
,
0000
0000
0000
0000
,
0000
0000
0000
0000
,
0000
0000
0000
0000
,
1000
0000
0001
0000
,
0100
0000
0010
1000
,
0100
0000
0010
0000
,
0001
0000
0100
0001
,
1000
0000
0100
0000
,
0010
0001
0100
0010
,
0100
0000
0010
0000
,
2000
0000
0002
3003
,
1001
0001
1000
0000
,
0100
0010
0100
0000
,
1000
0010
1000
0000
,
0001
0100
0001
0010
,
0001
1000
0001
0000
,
1000
0010
1000
0100
,
1000
0001
0100
0000
,
0001
0010
0100
1000
,
0002
0000
0000
0000
,
2003
0000
0000
0000
,
3020
0000
0100
0000
,
0200
0000
0330
0000
,
0002
0000
0000
0000
,
2003
0000
0002
3003
,
1001
0000
1001
0000
,
1001
0000
0001
1000
,
0100
0100
0010
0010
,
0001
0001
0100
0010
,
1000
1000
0100
0100
,
0010
0010
0001
0100
,
0010
1000
0100
0010
,
0001
0100
0010
1000
,
0100
0001
0100
1000
,
0001
0000
1001
0000
,
1001
0010
0100
0000
,
1001
1000
0001
0000
,
1001
0100
0001
0000
,
1001
0010
1000
0000
,
0110
0001
0100
0000
,
0110
1000
0001
0000
,
0110
0010
1000
0000
,
0210
0000
0000
0010
0000
0000
0300
0000
,
0110
0100
1000
1000
,
0001
0001
0100
0000
,
0001
0001
1000
1000
,
0100
0010
0100
0000
,
0010
0010
0001
0001
,
1000
0010
0100
0000
,
0010
1000
0001
0010
,
0001
1000
0010
1000
,
0002
0000
0003
0000
,
2000
0000
3000
0000
,
0020
0000
0030
0000
,
0200
0000
0300
0000
,
0110
0000
0000
0000
;

//---------------dance-single - Easy----------------
#NOTES:
     dance-single:
     Easy:
     Beginner:
     1:
     1.000,1.000,1.000,1.000,0.000:
0000
0000
0000
0000
,
0000
0000
0000
0000
,
0000
0000
0000
0000
,
0000
0000
0000
0000
,
0000
0000
0000
0000
,
0000
0000
0000
0000
,
0000
0000
0000
0000
,
0000
0000
0000
0000
,
1000
0000
0000
0000
,
0001
0000
0000
0000
,
1000
0000
0000
0000
,
0001
0000
0000
0000
,
0010
0000
0000
0000
,
0100
0000
0000
0000
,
0010
0000
0000
0000
,
0002
0000
0000
0000
,
1003
0000
1000
0000
,
0001
0000
0001
0000
,
1000
0000
1000
0000
,
0001
0000
0001
0000
,
0100
0000
0100
0000
,
0010
0000
0010
0000
,
1000
0000
1000
0000
,
0100
0000
0100
0000
,
0020
0000
0000
0000
,
0030
0000
0000
0000
,
0002
0000
0000
0000
,
0003
0000
0000
0000
,
0200
0000
0300
0000
,
0002
0000
0000
0000
,
2000
0000
0000
0000
,
3003
0000
0000
0000
,
1000
0000
0001
0000
,
1000
0000
0001
0000
,
1000
0000
0100
0000
,
1000
0000
0100
0000
,
1000
0000
0001
0000
,
1000
0000
0001
0000
,
0100
0000
0001
0000
,
0010
0000
0110
0000
,
0001
1000
0001
0000
,
1000
0001
1000
0000
,
0010
0100
0010
0000
,
0100
0010
0100
0000
,
0001
1000
0001
0000
,
1000
0001
1000
0000
,
0100
0010
0100
0000
,
0010
0001
1000
0000
,
1001
0000
0000
0000
,
1001
0000
0000
0000
,
1001
0000
0000
0000
,
1001
0000
0000
0000
,
0110
0000
0000
0000
,
1001
0000
0000
0000
,
0110
0000
0000
0000
,
1001
0000
0000
0000
,
1000
0000
0000
0000
,
0001
0000
0000
0000
,
1000
0000
0000
0000
,
0001
0000
0000
0000
,
1000
0000
0000
0000
;

//---------------dance-double - Telperion----------------
#NOTES:
     dance-double:
     Telperion:
     Hard:
     7:
     1.000,1.000,1.000,1.000,0.000:
00000000
00000000
00000000
00000000
,
00000000
00000000
00000000
00000000
,
00000000
00000000
00000000
00000000
,
00000000
00000000
00000000
00000000
,
00000000
00000000
00000000
00000000
,
00000000
00000000
00000000
00000000
,
00000000
00000000
00000000
00000000
,
00000000
00000000
00000000
00000000
,
10000000
10000000
01000000
01000000
,
00010000
00010000
00001000
00000100
,
00000001
00000001
00000010
00000010
,
00001000
00001000
00010000
00100000
,
10000000
10000000
00010000
00010000
,
00100000
00001000
00010000
00000010
,
00001000
00000100
00000020
00000001
,
00000000
00000000
00000001
00000000
00000030
00000001
00000100
00001000
,
00010000
00010000
01000000
01000000
,
10000000
10000000
00100000
00100000
,
00010000
00010000
00001000
00001000
,
00000100
00000000
00000100
00000001
00000010
00000100
00000010
00000001
,
00001000
00001000
00000010
00000010
,
00000100
00000000
00000100
00000010
00001000
00000100
00010000
00001000
,
00100000
00100000
01000000
01000000
,
00010000
00000000
00010000
00001000
00020000
00000000
00000000
00000000
,
00031000
00010000
00100000
10000000
,
01000000
00000000
00100000
00000000
00001000
00000000
00010000
00100000
,
00010000
00001000
00000010
00000001
,
00000100
00000000
00001000
00000100
00000010
00010000
00000100
00000010
,
00000001
00000000
00000001
00000000
00000100
00000000
00000100
00001000
,
00000000
00001000
00000100
00000010
00001000
00000100
00000100
00000100
,
00020000
00001000
00032000
00010000
,
00013000
00000000
00001000
00000000
00010000
00001000
00010000
00001000
,
01000000
00010000
01000000
00010000
10000000
01000000
00100000
01000000
,
10000000
00010000
00100000
00001000
00010000
00001000
00100000
01000000
,
00010000
00001000
01000000
00001000
00010000
00000100
00010000
00001000
,
01000000
00001000
01000000
00100000
10000000
01000000
00010000
00001000
,
00020000
00001000
00031000
00010000
,
00000100
00001000
00000100
00000000
00001000
00000001
00001000
00000000
,
00000001
00000010
00000100
00001000
00000100
00010000
00001000
00100000
,
00010000
10000000
00010000
01100000
00000000
10010000
00000000
00000000
,
00100000
10000000
01000000
10000000
00010000
00100000
00210000
00000000
,
01300000
00000000
10000000
00100000
00010000
00001000
00011000
00000000
,
00010000
00000100
00001000
00000100
00000010
00000001
00000021
00000000
,
00000130
00001000
00000001
00000110
00000000
00001001
00000000
00000000
,
00000010
00000001
00000100
00000001
00001000
00000010
00001020
00000000
,
00000130
00000000
00001000
00010000
01000000
00010000
00001000
00000000
,
00011000
00000000
00010000
00100000
01000000
00010000
00100000
00000000
,
20000000
00000000
30010000
00110000
00000000
01001000
00000000
00000000
,
00100000
00010000
10000000
00100000
01000000
10000000
01000000
00100000
,
10000000
00010000
01000000
00001000
00010000
00000000
00010000
00001000
,
00000010
00000001
00000100
00000010
00001000
00000100
00000010
00000100
,
00001000
00000001
00000010
00000001
00000100
00000000
00000100
00001000
,
00010000
00001000
00010000
00100000
01000000
00010000
00100000
01000000
,
10000000
00100000
01000000
10000000
01000000
00000000
00100000
10000000
,
01000000
10000000
00100000
01000000
00010000
00100000
00001000
00010000
,
00000100
00000010
00000001
00000100
,
00000110
00000100
00000001
00000001
,
00000010
00000010
00001000
00010000
,
00011000
00010000
00100000
00100000
,
10000000
10000000
01000000
00100000
,
01100000
00000000
00000000
00000000
;

//---------------dance-double - Telperion----------------
#NOTES:
     dance-double:
     Telperion:
     Medium:
     4:
     1.000,1.000,0.947,1.000,0.000:
00000000
00000000
00000000
00000000
,
00000000
00000000
00000000
00000000
,
00000000
00000000
00000000
00000000
,
00000000
00000000
00000000
00000000
,
00000000
00000000
00000000
00000000
,
00000000
00000000
00000000
00000000
,
00000000
00000000
00000000
00000000
,
00000000
00000000
00000000
00000000
,
00000000
00001000
00000000
01000000
,
00000000
00100000
10000000
01000000
,
00100000
00010000
00000000
10000000
,
00000000
01000000
00000000
00010000
,
00001000
00010000
00000000
00000100
,
00000000
00001000
00000001
00000100
,
00001000
00000200
00000000
00000010
,
00000000
00000310
00000000
00000010
,
00001000
00000100
00000010
00000001
,
00000010
00000100
00010000
00001000
,
00100000
00001000
00000000
01000000
,
00000000
00010000
01000000
00100000
,
10000000
00100000
01000000
00010000
,
00001000
00000010
00000100
00000001
,
00000010
00000100
00010000
00001000
,
00020000
00002000
00000000
00033000
,
00001000
00001000
00010000
00010000
,
00100000
00100000
10000000
10000000
,
01000000
01000000
00010000
00010000
,
00001000
00001000
00000100
00000100
,
00000001
00000001
00000010
00000010
,
00000100
00000100
00010000
00010000
,
00001000
00010000
00001000
00010000
,
00000100
00010000
00001000
01000000
,
00100000
10000000
01000000
10000000
,
00100000
01000000
00010000
00100000
,
00010000
01000000
00100000
01000000
,
00001000
00010000
00001000
00100000
,
00010000
00100000
00001000
00010000
,
00000100
00001000
00000100
00010000
,
00000010
00001000
00000100
00001000
,
00000001
00000100
00001001
00000000
,
00000001
00000001
00001000
00001000
,
00000100
00010000
00001000
01000000
,
00010000
00010000
10000000
10000000
,
01000000
00100000
01100000
00000000
,
10000000
10000000
00010000
00010000
,
01000000
00001000
00010000
00000100
,
00001000
00001000
00000001
00000001
,
00000010
00001000
00000010
00000001
,
00000100
00000100
00001000
00001000
,
00010000
00010000
00100000
00100000
,
10000000
10000000
01000000
01000000
,
00010000
00010000
00001000
00001000
,
00000010
00000010
00000001
00000001
,
00000100
00000100
00001000
00010000
,
00001000
00100000
00010000
01000000
,
00001000
00010000
00000100
00001000
,
00000001
00000001
00000001
00000001
,
00000001
00000001
00000002
00000000
,
00001003
00001000
00001000
00001000
,
00001000
00001000
00002000
00000000
,
00003100
00000000
00000000
00000000
;

//---------------dance-double - Telperion----------------
#NOTES:
     dance-double:
     Telperion:
     Easy:
     2:
     1.000,1.000,0.947,1.000,0.000:
00000000
00000000
00000000
00000000
,
00000000
00000000
00000000
00000000
,
00000000
00000000
00000000
00000000
,
00000000
00000000
00000000
00000000
,
00000000
00000000
00000000
00000000
,
00000000
00000000
00000000
00000000
,
00000000
00000000
00000000
00000000
,
00000000
00000000
00000000
00000000
,
01000000
00000000
00100000
00000000
,
00010000
00000000
10000000
00000000
,
01000000
00000000
00100000
00000000
,
00001000
00000000
00000000
00000000
,
00010000
00000000
00000100
00000000
,
00000010
00000000
00000001
00000000
,
00000100
00000000
00000010
00000000
,
00000000
00000010
00000000
00000000
,
00000010
00000000
00001000
00000000
,
00000100
00000000
00000001
00000000
,
00000100
00000000
00001000
00000000
,
00000001
00000000
00000000
00000000
,
00000100
00000000
00000010
00000000
,
00001000
00000000
00000100
00000000
,
00010000
00000000
00001000
00000000
,
01000000
00000000
00010000
00000000
,
20000000
00000000
00000000
00000000
,
32000000
00000000
00000000
00000000
,
03020000
00000000
00000000
00000000
,
00032000
00000000
00000000
00000000
,
00003200
00000000
00000000
00000000
,
00000302
00000000
00000000
00000000
,
00002000
00000000
00000000
00000000
,
00003003
00000000
00000000
00000000
,
00000001
00000000
00000002
00000000
,
00000103
00000000
00000200
00000000
,
00001300
00000000
00002000
00000000
,
00013000
00000000
00020000
00000000
,
01030000
00000000
02000000
00000000
,
13000000
00000000
20000000
00000000
,
00020000
00000000
00000000
00000000
,
30030000
00000000
10010000
00000000
,
01000000
00100000
01000000
00000000
,
10000000
01000000
10000000
00000000
,
00010000
01000000
00010000
00000000
,
00100000
00000000
00001000
00000000
,
00010000
00001000
00010000
00000000
,
00000100
00000000
00001000
00000000
,
00000001
00000100
00000001
00000000
,
00002000
00000000
00000001
00000000
,
00003100
00000000
00000010
00000000
,
00000001
00000000
00000100
00000000
,
00000010
00000000
00001000
00000000
,
00000010
00000000
00010000
00000000
,
00001000
00000000
00010000
00000000
,
00000100
00000000
00001000
00000000
,
00000100
00000000
00010000
00000000
,
00001000
00000000
00100000
00000000
,
00020000
00000000
00000000
00000000
,
20030000
00000000
00000000
00000000
,
30020000
00000000
00000000
00000000
,
20030000
00000000
30000000
00000000
,
10010000
00000000
00000000
00000000
;
