#TITLE:3y3s (Not-So-Full version);
#SUBTITLE:Week 8 - Doubles;
#ARTIST:Seiryu;
#TITLETRANSLIT:;
#SUBTITLETRANSLIT:;
#ARTISTTRANSLIT:;
#CREDIT:;
#BANNER:3y3s.png;
#BACKGROUND:3y3s-bg.png;
#LYRICSPATH:;
#CDTITLE:./CDTITLES/Z-I-v Summer Contest 2010.PNG;
#MUSIC:3y3s.mp3;
#OFFSET:-19.281;
#SAMPLESTART:55.080;
#SAMPLELENGTH:9.500;
#SELECTABLE:YES;
#DISPLAYBPM:191.000;
#BPMS:0.000=191.000,172.000=201.001,180.000=181.001,184.000=186.001,192.000=191.001;
#STOPS:;
#BGCHANGES:;

//---------------dance-double - ----------------
#NOTES:
     dance-double:
     :
     Easy:
     4:
     0.208,0.289,0.000,0.015,0.000: // measure 1
00000000
00000000
00000000
00000000
,  // measure 2
00000000
00000000
00000000
00000000
,  // measure 3
00000000
00000000
00000000
00000000
,  // measure 4
00000000
00000000
00000000
00000000
,  // measure 5
00000001
00000100
00000001
00000000
,  // measure 6
00000010
00010000
00000010
00000000
,  // measure 7
00100000
00001000
00100000
00000000
,  // measure 8
10000000
01000000
10000000
00000000
,  // measure 9
01000000
01000000
10000000
10000000
,  // measure 10
00100000
00100000
00010000
00010000
,  // measure 11
00001000
00001000
00000100
00000100
,  // measure 12
00000001
00000000
00000000
00000000
,  // measure 13
00000010
00000001
00000100
00000000
,  // measure 14
00001000
00000010
00000100
00000000
,  // measure 15
00100000
00010000
01000000
00000000
,  // measure 16
10000000
00100000
01000000
00000000
,  // measure 17
00010000
00000000
00001000
00000000
,  // measure 18
00000100
00000000
00001000
00000000
,  // measure 19
00010000
00000000
01000000
00000000
,  // measure 20
00010000
00000000
00001000
00000000
,  // measure 21
00010000
00000000
00000000
00000000
,  // measure 22
00000001
00000000
00000000
00000000
,  // measure 23
00010000
00000000
00000000
00000000
,  // measure 24
10000000
00000000
00000000
00000000
,  // measure 25
00100000
00000000
00010000
00000000
,  // measure 26
01000000
00000000
00100000
00000000
,  // measure 27
10000000
00000000
01000000
00000000
,  // measure 28
00010000
00001000
00010000
00000000
,  // measure 29
00000000
00000000
00001000
00000001
,  // measure 30
00001000
00000000
00000000
00000000
,  // measure 31
00000000
00000000
00010000
00001000
,  // measure 32
00010000
00000000
00000000
00000000
,  // measure 33
00000000
00000000
10000000
00010000
,  // measure 34
10000000
00000000
00000000
00000000
,  // measure 35
00000000
00000000
00010000
00001000
,  // measure 36
00010000
00000000
00000000
00000000
,  // measure 37
00000100
00001000
00000010
00000001
,  // measure 38
00000100
00000000
00000000
00000000
,  // measure 39
00010000
00001000
01000000
00010000
,  // measure 40
00001000
00000000
00000000
00000000
,  // measure 41
01000000
10000000
00100000
00010000
,  // measure 42
00001000
00010000
00100000
01000000
,  // measure 43
00010000
00000000
10000000
00000000
,  // measure 44
00200000
00000000
00000000
00000000
,  // measure 45
00000000
00000000
00000000
00000000
,  // measure 46
00300000
00000000
00000000
00000000
,  // measure 47
00000000
00000000
00000000
00000000
,  // measure 48
00000000
00000000
00000000
00000000
,  // measure 49
00001000
00000010
00000001
00000000
,  // measure 50
00000010
00000010
00000010
00000000
,  // measure 51
00001000
00000100
00000001
00000000
,  // measure 52
00000100
00000100
00000100
00000000
,  // measure 53
01000000
00010000
00100000
00000000
,  // measure 54
00001000
00001000
00001000
00000000
,  // measure 55
01000000
00000000
00100000
00000000
,  // measure 56
10000000
00000000
00000000
00000000
,  // measure 57
01000000
00010000
01000000
00010000
,  // measure 58
01000000
00010000
01000000
00000000
,  // measure 59
00001000
00000100
00001000
00000100
,  // measure 60
00001000
00000100
00001000
00000000
,  // measure 61
00000010
00010000
00000010
00010000
,  // measure 62
00000010
00010000
00000010
00000000
,  // measure 63
00100000
00001000
00100000
00001000
,  // measure 64
00100000
00001000
00100000
00000000
,  // measure 65
00010000
00000000
00001000
00000000
,  // measure 66
00000001
00000000
00000000
00000000
,  // measure 67
00002000
00000000
00000000
00000000
,  // measure 68
00000000
00000000
00000000
00000000
,  // measure 69
00003000
00000000
00000000
00000000
,  // measure 70
00000000
00000000
00000000
00000000
,  // measure 71
00000001
00000100
00001000
00000000
,  // measure 72
01000000
00010000
00100000
00000000
,  // measure 73
10000000
01000000
00010000
00000000
,  // measure 74
00000100
00001000
00000010
00000000
,  // measure 75
00000001
00000010
00001000
00000000
,  // measure 76
00100000
00010000
01000000
00000000
,  // measure 77
10000000
00100000
00010000
00000000
,  // measure 78
00000010
00001000
00000100
00000000
,  // measure 79
00000001
00000100
00000010
00001000
,  // measure 80
00000100
00000100
00000100
00000000
,  // measure 81
00100000
00010000
01000000
00001000
,  // measure 82
00010000
00010000
00010000
00000000
,  // measure 83
01000000
10000000
00100000
01000000
,  // measure 84
00001000
00001000
00001000
00000000
,  // measure 85
01000000
00000000
00010000
00000000
,  // measure 86
00001000
00000000
00000000
00000000
00000000
00000000
00000000
00010000
;

//---------------dance-double - ----------------
#NOTES:
     dance-double:
     :
     Medium:
     7:
     0.353,0.577,0.493,0.075,0.000:
00000000
00000000
00000000
00000000
,
00000000
00000000
00000000
00000000
,
00000000
00000000
00000000
00000000
,
00000000
00000000
00000000
00000000
,
00000101
00000001
00000010
00001000
,
00010000
00001000
00000100
00000001
,
00000100
00000010
00001000
00010000
,
01000000
10000000
01000000
00010000
,
00001000
00010000
00100000
01000000
,
00010000
10000000
01000000
00100000
,
10000000
01000000
00010000
00001000
,
00000110
00000000
00000000
00000000
,
00000110
00001000
00010000
00100000
,
01000000
00100000
00010000
00001000
,
00000100
00001000
00010000
00100000
,
10000000
01000000
00010000
00001000
,
00000110
00001000
00010000
00001000
,
01100000
00010000
00001000
00010000
,
00000110
00001000
00001001
00011000
,
10010000
00000000
00000000
00000000
,
20000000
00000000
00000000
01000000
,
30000000
00000000
00000000
00010000
,
00002000
00000000
00000000
00000100
,
00003000
00000000
00000000
00000001
,
00000011
00000010
00000000
00001000
,
00011000
00010000
00000000
01000000
,
11000000
10100000
01010000
00011000
,
00001100
00011000
01010000
00011000
,
00001010
00000000
00000000
00000000
00000001
00000100
00001000
00000000
,
00001100
00000000
00000000
00000000
,
00000000
00000000
00000000
00000000
00000100
00001000
00010000
00000000
,
00011000
00000000
00000000
00000000
,
00000000
00000000
00000000
00000000
00001000
00010000
01000000
00000000
,
01010000
00000000
00000000
00000000
,
00000000
00000000
00000000
00000000
00010000
01000000
10000000
00000000
,
11000000
00000000
00000000
00000000
,
11000000
01000000
00100000
00000000
10000000
01000000
00100000
00000000
,
01100000
00000000
00000000
00000000
,
01000000
00001000
00010000
00000000
01000000
00001000
00010000
00000000
,
00011000
00000000
00000000
00000000
,
00002000
00000000
00000000
00003100
00000000
00000000
00000000
00000000
,
00000020
00000000
00000000
00000130
00000000
00000000
00000100
00000000
,
00000101
00001100
00011000
01010000
,
02200000
00000000
00000000
00000000
,
00000000
00000000
00000000
00000000
,
03300000
00000000
00000000
00000000
,
00000000
00000000
00000000
00000000
,
00000000
00000000
00000000
00000000
,
20000000
00000000
00000000
00000000
,
00000000
00000000
00000000
00000000
,
32000000
00000000
00000000
00000000
,
00000000
00000000
00000000
00000000
,
03200000
00000000
00000000
00000000
,
00000000
00000000
00000000
00000000
,
00302000
00000000
00000000
00000000
,
00000000
00000000
00000000
00000000
,
00013000
00001000
00000100
00000001
,
00001000
00000001
00001000
00000001
,
00000010
00001000
00010000
00001000
,
00010000
00001000
01000000
00010000
,
00110000
01000000
10000000
00010000
,
00011000
00000100
00000001
00001000
,
00000101
00001100
00001010
00011000
,
00110000
01100000
01010000
11000000
,
00110000
00011000
00001001
00000101
,
00000110
00001100
00010100
00011000
,
01000000
00010000
10000000
01000000
00100000
00010000
01000000
00001000
,
00010000
00001000
00100000
00010000
00001000
00000100
00000010
00000001
,
00000000
00000000
00000000
00000000
,
00000000
00000000
00000000
00000000
,
00000100
00000001
00000010
00000000
00000100
00000001
00000010
00000000
,
00000101
00001100
00011000
00000000
,
00100000
00010000
01000000
00000000
00100000
00010000
01000000
00000000
,
11000000
01010000
00011000
00000000
,
00000100
00001000
00000010
00000000
00000100
00001000
00000010
00000000
,
00001100
00010100
00011000
00000000
,
01000000
00010000
00100000
00000000
00000000
00000000
00000000
00000000
,
11000000
00000000
00000000
00000000
,
10000000
01000000
00010000
00000000
10000000
01000000
00010000
00000000
,
00110000
00011000
00001100
00000010
,
00000001
00000100
00001000
00000000
00000001
00000100
00001000
00000000
,
00001010
00000000
00011000
00000000
01010000
00000000
00100000
00010000
,
00000000
10000000
00000000
01000000
00000000
00100000
00000000
10000000
,
01000000
00100000
01000000
00100000
00010000
10000000
00010000
10000000
,
00010000
01000000
00010000
01000000
00001000
00010000
00001000
00010000
,
00001000
00000000
00000000
00000000
00000000
00000100
00001000
00000010
;

//---------------dance-double - ----------------
#NOTES:
     dance-double:
     :
     Hard:
     9:
     0.511,0.673,0.187,0.007,0.101:
00000000
00000000
00000000
00000000
,
00000000
00000000
00000000
00000000
,
00000000
00000000
00000000
00000000
,
00000000
00000000
00000000
00000000
,
11000000
10000000
01000000
00010000
,
00001000
00010000
00000100
00000001
,
00000100
00000010
00001000
00000100
,
00010000
00100000
00001000
00100000
,
01000000
00010000
00001000
00000100
,
00000010
00010000
00001000
00100000
,
00001000
00010000
00000100
00000001
,
00000110
00000000
00000000
00000000
,
00011000
00100000
01000000
00010000
,
01000000
00100000
00001000
00000100
,
00000010
00000100
00001000
00010000
,
10000000
01000000
00100000
00010000
,
00011000
00000100
00000010
00000001
,
00001100
00010000
00100000
10000000
,
01100000
00010000
00001001
00000011
,
00001100
00000000
00000000
00000000
,
00000001
00000000
00000000
00000100
00000000
00000000
00001000
00000000
00000000
00000100
00000000
00000000
00000001
00000000
00001000
00000000
,
00010000
00000000
00000000
01000000
00000000
00000000
10000000
00000000
00000000
01000000
00000000
00000000
00010000
00000000
10000000
00000000
,
01000000
00000000
00000000
00010000
00000000
00000000
00001000
00000000
00000000
00010000
00000000
00000000
01000000
00000000
00010000
00000000
,
00001000
00000000
00000000
00000100
00000000
00000000
00001000
00000000
00000000
00000100
00000000
00000000
00000010
00000000
00001000
00000000
,
00000001
00000000
00000101
00000000
00000000
00000000
00000100
00001000
,
00011000
00000000
00010000
00000000
00000000
00000000
01000000
10000000
,
11000000
00100000
00010000
00001000
00010000
00100000
00010000
00001000
,
00000100
00001000
00010000
00000100
00001000
00000010
00000200
00000000
,
00000301
00000000
00000000
00000000
00000010
00001000
00010000
00100000
,
00000000
00000000
00000000
00000000
00100000
10000000
01000000
00000000
,
10000000
00010000
10000000
00000000
01000000
00010000
00001000
00000100
,
00000000
00000010
00000000
00000010
00001000
00001000
00000001
00000000
,
00000010
00000001
00000010
00000000
00001000
00000000
00001000
00000000
,
01000000
00000000
01000000
00000000
00010000
00001000
00010000
00000000
,
00100000
10000000
00100000
00000000
01000000
00000000
01000000
00000000
,
10010000
00000000
00000000
00000000
,
00100000
00010000
00001000
00000010
00000000
00000001
00000100
00000010
,
00000000
00000000
00000000
00000000
00001000
00000100
00000010
00000000
,
00000010
00001000
00010000
01000000
00000000
00100000
00010000
01000000
,
00000000
00000000
00000000
00000000
00100000
10000000
10000000
00000000
,
01000000
00010000
00000000
00010000
00001000
00000000
00001000
00000100
00000000
00000100
00000010
00000000
00000010
00000000
00001000
00000000
,
00000001
00000100
00000000
00000100
00001000
00000000
00001000
00010000
00000000
00010000
01000000
00000000
01000000
00000000
10000000
00000000
,
00010000
01000000
00100000
00010000
,
00001000
00000000
00010000
00001000
00010000
00000000
00000100
00001000
00000100
00000000
00010000
00000100
00010000
00000000
00000100
00001000
,
00000100
00000000
00000010
00000001
00000010
00000000
00000001
00000100
00000001
00000000
00000100
00001000
00000100
00000000
00000001
00001000
,
00000010
00000000
00000000
00000000
,
00000000
00000000
00000000
00000000
,
00000000
10000000
00000000
00010000
01000000
00100000
00100000
00000000
,
10000000
01000000
01000000
00010000
00001000
00001000
00100000
00010000
,
00100000
00001000
01000000
00100000
00010000
00001000
00000100
00000010
,
00001000
00000100
00000001
00000100
00000010
00000001
00000100
00001000
,
00000010
00000100
00000001
00000100
00000010
00001000
00010000
00001000
,
00100000
00010000
01000000
00100000
10000000
01000000
00100000
00001000
,
00010000
00001000
01000000
00100000
10000000
01000000
00010000
00001000
,
00010000
00000010
00001000
00000001
00000100
00000010
00001000
00000100
,
00000010
00000000
00000000
00000000
,
00000001
00000010
00000010
00001000
00010000
00010000
00000100
00001000
,
00000100
00010000
00000010
00000100
00001000
00010000
00100000
01000000
,
00010000
00100000
10000000
00100000
01000000
10000000
00100000
00010000
,
01000000
00100000
10000000
00100000
01000000
00010000
00001000
00010000
,
00000100
00001000
00000010
00000100
00000001
00000010
00000100
00010000
,
00001000
00010000
00000010
00000100
00000001
00000010
00001000
00010000
,
00001000
01000000
00010000
00100000
00001000
01000000
00010000
00100000
,
00001000
00010000
00000010
00001000
00000100
00010000
00000010
00001000
,
00000100
00000010
00000100
00010000
00000100
00001000
00000010
00000100
,
00000001
00000100
00001000
00000010
00000000
00000001
00000000
00000001
,
00000001
00000100
00001000
00010000
01000000
10000000
01000000
00010000
,
00001000
00000100
00000001
00000010
00001000
00010000
00100000
10000000
,
00000000
00000000
00000000
00000000
,
00000000
00000000
00000000
00000000
,
00010000
01000000
00100000
10000000
00000000
01000000
10000000
00100000
,
00010000
00011000
00010100
00001100
,
00001000
00000100
00000010
00000001
00000000
00000100
00000001
00000010
,
00001000
00000000
00011000
00000000
00101000
00000000
01000000
00100000
,
00000000
00010000
01000000
00100000
00000000
00100000
00010000
00001000
,
00000100
00000000
00000110
00000000
00001010
00000000
00000001
00000001
,
00000000
00000000
00000000
00001000
00001000
00000000
00000000
00010000
,
00010000
00000000
00000000
00000000
00000000
10000000
01000000
00010000
,
00001000
00000010
00000100
00000001
00000000
00000001
00000100
00001000
,
00000010
00010010
00011000
00101000
,
00010000
00100000
01000000
10000000
00000000
10000000
01000000
00010000
,
00001000
00000000
00011000
00000000
00010010
00000000
00000100
00000010
,
00000000
00000001
00000000
00000100
00000000
00000010
00000000
00010000
,
00000000
00001000
00000000
01000000
00000000
00100000
00000000
10000000
,
01000000
00100000
01000000
00000000
00010000
00001000
00010000
00000000
00001000
00010000
00001000
00000000
00000010
00000000
00000100
00000000
,
00001000
00000000
00000000
00000000
00000000
00000001
00000100
00000010
;
